Subcategories

The Mirage - You Can't Be Serious (Compilation) [2000]

Posted By: jclane
The Mirage - You Can't Be Serious (Compilation) [2000]

The Mirage - You Can't Be Serious (Compilation) [2000]
EAC Rip | FLAC Tracks + Cue + Log | 294 MB | Complete Scans, 600 dpi JPEG | 42 MB
MP3 CBR @320 kbps (LAME 3.99) | Joint Stereo | 140 MB
No Label Name | #: MR1 | Psychedelic Rock, Beat

It can be assumed that this 24 track compilation is unauthorized, as it bears no label name (although it does have the catalog number MR1), but it certainly does exist, popping up circa 2000 at very specialized shops. Even with such an extensive number of tracks, this does not have all of the songs from their seven singles; in fact, it has only nine of those 14 single sides. The rest consists of unreleased 1966-68 demos, acetates, and live BBC performances, as well as the 1969 single by the spin-off band Portobello Explosion. It's a fair but not stunning slice of period British pop/rock, on the cusp of turning from pop/rock of the Hollies/Beatles mold into light psychedelia. The comparisons are obvious – too obvious at times. "You Can't Be Serious" can't fail to bring to mind "Nowhere Man" era Beatles with a dash of the Hollies, the demo of "Lazy Man" is a rip-off of "Rain" (although by the time it had been re-recorded for a 1967 single, it was rearranged so that the similarity was far more subtle). They also bravely tackled "Tomorrow Never Knows" for a 1966 single, and while that track has its novelty value as a cover of a Lennon-McCartney tune rarely done by other artists, its far more basic rock arrangement can in no way stand up to the brilliant psychedelic original. At other times they sound like a minor-league Hollies. The Mirage's strongest suit was probably those slightly spooky, almost churchy story songs, like "The Wedding of Ramona Blair" and "Poor Mrs. Buzby" (the latter from a 1967 unreleased acetate). The CDs sound quality is quite variable; the singles sound pretty good, but the unreleased stuff can be quite fuzzy. For all its imperfections, this is about as good as it's going to get if you want a full album's worth of goods by the band, as it's unlikely there will ever be a comprehensive above-board Mirage compilation, due both to cross-licensing complications and the very limited audience for such an item.

Track Listing

01. The Wedding of Ramona Blair - 02:13
02. Lazy Man - 02:19
03. You Can't Be Serious - 01:56
04. Tomorrow Never Knows - 02:35
05. Ebeneezer Beaver - 02:16
06. Poor Mr Buzby - 02:31
07. Lazy Man #2 - 02:53
08. Hold On - 02:19
09. Can You Hear Me - 02:54
10. Go Away - 02:03
11. Just a Face - 02:36
12. What You Gonna Do (live) - 01:59
13. Hold On (live) - 02:13
14. Strange Feeling (live) - 02:24
15. Another Saturday Night (live) - 02:38
16. Ramona Blair (live) - 02:07
17. Wild Thing - 02:23
18. The World Goes On Around You - 02:13
19. Lonely Highway - 02:35
20. See My World - 02:47
21. See the Rain - 02:04
22. We Can Fly - 02:37
23. Hot Smoke and Sasafrass - 02:53
24. Ramona Blair #2 - 02:12
25. Mystery Track - 02:09


Exact Audio Copy V1.0 beta 3 from 29. August 2011

Отчёт EAC об извлечении, выполненном 2. февраля 2013, 20:41

The Mirage / You Can't Be Serious

Дисковод: ASUS DRW-24B3ST Adapter: 1 ID: 0

Режим чтения : Достоверность
Использование точного потока : Да
Отключение кэша аудио : Да
Использование указателей C2 : Нет

Коррекция смещения при чтении : 6
Способность читать области Lead-in и Lead-out : Нет
Заполнение пропущенных сэмплов тишиной : Да
Удаление блоков с тишиной в начале и конце : Нет
При вычислениях CRC использовались нулевые сэмплы : Да
Интерфейс : Встроенный Win32-интерфейс для Win NT/2000
Обработка зазоров : Добавлено к предыдущему треку

Выходной формат : Пользовательский кодировщик
Выбранный битрейт : 1024 kBit/s
Качество : Высокий
Добавление ID3-тега : Нет
Утилита сжатия : C:\Program Files\Exact Audio Copy\Flac\flac.exe
Дополнительные параметры : -V -8 -T "Genre=%genre%" -T "Artist=%artist%" -T "Title=%title%" -T "Album=%albumtitle%" -T "Date=%year%" -T "Tracknumber=%tracknr%" -T "Comment=%comment%" %source%

TOC извлечённого CD

Трек | Старт | Длительность | Начальный сектор | Конечный сектор
––––––––––––––––––––––––––––––––––-
1 | 0:00.00 | 2:15.34 | 0 | 10158
2 | 2:15.34 | 2:21.25 | 10159 | 20758
3 | 4:36.59 | 1:58.20 | 20759 | 29628
4 | 6:35.04 | 2:37.01 | 29629 | 41404
5 | 9:12.05 | 2:18.27 | 41405 | 51781
6 | 11:30.32 | 2:33.36 | 51782 | 63292
7 | 14:03.68 | 2:55.36 | 63293 | 76453
8 | 16:59.29 | 2:21.70 | 76454 | 87098
9 | 19:21.24 | 2:56.28 | 87099 | 100326
10 | 22:17.52 | 2:05.63 | 100327 | 109764
11 | 24:23.40 | 2:38.47 | 109765 | 121661
12 | 27:02.12 | 2:01.46 | 121662 | 130782
13 | 29:03.58 | 2:15.46 | 130783 | 140953
14 | 31:19.29 | 2:26.11 | 140954 | 151914
15 | 33:45.40 | 2:40.02 | 151915 | 163916
16 | 36:25.42 | 2:09.01 | 163917 | 173592
17 | 38:34.43 | 2:25.52 | 173593 | 184519
18 | 41:00.20 | 2:15.66 | 184520 | 194710
19 | 43:16.11 | 2:37.53 | 194711 | 206538
20 | 45:53.64 | 2:49.63 | 206539 | 219276
21 | 48:43.52 | 2:06.50 | 219277 | 228776
22 | 50:50.27 | 2:39.32 | 228777 | 240733
23 | 53:29.59 | 2:55.30 | 240734 | 253888
24 | 56:25.14 | 2:14.01 | 253889 | 263939
25 | 58:39.15 | 2:09.18 | 263940 | 273632

Трек 1

Имя файла C:\Documents and Settings\Sergei\Мои документы\Моя музыка\EAC\01. The Wedding of Ramona Blair.wav

Длина предзазора 0:00:02.00

Пиковый уровень 79.4 %
Скорость извлечения 2.1 X
Качество трека 99.9 %
CRC теста BD662357
CRC копии BD662357
Трек не обнаружен в базе AccurateRip
Копирование… OK

Трек 2

Имя файла C:\Documents and Settings\Sergei\Мои документы\Моя музыка\EAC\02. Lazy Man.wav

Длина предзазора 0:00:02.00

Пиковый уровень 86.9 %
Скорость извлечения 3.1 X
Качество трека 100.0 %
CRC теста DBFAF1FA
CRC копии DBFAF1FA
Трек не обнаружен в базе AccurateRip
Копирование… OK

Трек 3

Имя файла C:\Documents and Settings\Sergei\Мои документы\Моя музыка\EAC\03. You Can't Be Serious.wav

Длина предзазора 0:00:02.00

Пиковый уровень 63.9 %
Скорость извлечения 3.2 X
Качество трека 100.0 %
CRC теста DD827168
CRC копии DD827168
Трек не обнаружен в базе AccurateRip
Копирование… OK

Трек 4

Имя файла C:\Documents and Settings\Sergei\Мои документы\Моя музыка\EAC\04. Tomorrow Never Knows.wav

Длина предзазора 0:00:02.00

Пиковый уровень 72.0 %
Скорость извлечения 2.7 X
Качество трека 99.9 %
CRC теста 955E55E6
CRC копии 955E55E6
Трек не обнаружен в базе AccurateRip
Копирование… OK

Трек 5

Имя файла C:\Documents and Settings\Sergei\Мои документы\Моя музыка\EAC\05. Ebeneezer Beaver.wav

Длина предзазора 0:00:02.00

Пиковый уровень 79.4 %
Скорость извлечения 3.7 X
Качество трека 100.0 %
CRC теста 81F67345
CRC копии 81F67345
Трек не обнаружен в базе AccurateRip
Копирование… OK

Трек 6

Имя файла C:\Documents and Settings\Sergei\Мои документы\Моя музыка\EAC\06. Poor Mr Buzby.wav

Длина предзазора 0:00:02.00

Пиковый уровень 99.7 %
Скорость извлечения 3.9 X
Качество трека 100.0 %
CRC теста 5E0C9CF6
CRC копии 5E0C9CF6
Трек не обнаружен в базе AccurateRip
Копирование… OK

Трек 7

Имя файла C:\Documents and Settings\Sergei\Мои документы\Моя музыка\EAC\07. Lazy Man #2.wav

Длина предзазора 0:00:02.00

Пиковый уровень 71.0 %
Скорость извлечения 4.2 X
Качество трека 100.0 %
CRC теста 7B758DAE
CRC копии 7B758DAE
Трек не обнаружен в базе AccurateRip
Копирование… OK

Трек 8

Имя файла C:\Documents and Settings\Sergei\Мои документы\Моя музыка\EAC\08. Hold On.wav

Длина предзазора 0:00:02.00

Пиковый уровень 76.7 %
Скорость извлечения 4.1 X
Качество трека 100.0 %
CRC теста BE08CE8F
CRC копии BE08CE8F
Трек не обнаружен в базе AccurateRip
Копирование… OK

Трек 9

Имя файла C:\Documents and Settings\Sergei\Мои документы\Моя музыка\EAC\09. Can You Hear Me.wav

Длина предзазора 0:00:02.00

Пиковый уровень 100.0 %
Скорость извлечения 4.5 X
Качество трека 100.0 %
CRC теста 24E8C2B1
CRC копии 24E8C2B1
Трек не обнаружен в базе AccurateRip
Копирование… OK

Трек 10

Имя файла C:\Documents and Settings\Sergei\Мои документы\Моя музыка\EAC\10. Go Away.wav

Длина предзазора 0:00:02.00

Пиковый уровень 84.0 %
Скорость извлечения 3.0 X
Качество трека 99.9 %
CRC теста 400E3BDF
CRC копии 400E3BDF
Трек не обнаружен в базе AccurateRip
Копирование… OK

Трек 11

Имя файла C:\Documents and Settings\Sergei\Мои документы\Моя музыка\EAC\11. Just a Face.wav

Длина предзазора 0:00:02.00

Пиковый уровень 96.6 %
Скорость извлечения 4.7 X
Качество трека 100.0 %
CRC теста A622A13E
CRC копии A622A13E
Трек не обнаружен в базе AccurateRip
Копирование… OK

Трек 12

Имя файла C:\Documents and Settings\Sergei\Мои документы\Моя музыка\EAC\12. What You Gonna Do (live).wav

Длина предзазора 0:00:02.00

Пиковый уровень 79.4 %
Скорость извлечения 4.5 X
Качество трека 100.0 %
CRC теста 97F605CB
CRC копии 97F605CB
Трек не обнаружен в базе AccurateRip
Копирование… OK

Трек 13

Имя файла C:\Documents and Settings\Sergei\Мои документы\Моя музыка\EAC\13. Hold On (live).wav

Длина предзазора 0:00:02.00

Пиковый уровень 86.0 %
Скорость извлечения 4.7 X
Качество трека 100.0 %
CRC теста 506AC9D7
CRC копии 506AC9D7
Трек не обнаружен в базе AccurateRip
Копирование… OK

Трек 14

Имя файла C:\Documents and Settings\Sergei\Мои документы\Моя музыка\EAC\14. Strange Feeling (live).wav

Длина предзазора 0:00:02.00

Пиковый уровень 80.6 %
Скорость извлечения 4.9 X
Качество трека 100.0 %
CRC теста 042760F4
CRC копии 042760F4
Трек не обнаружен в базе AccurateRip
Копирование… OK

Трек 15

Имя файла C:\Documents and Settings\Sergei\Мои документы\Моя музыка\EAC\15. Another Saturday Night (live).wav

Длина предзазора 0:00:02.00

Пиковый уровень 79.4 %
Скорость извлечения 3.7 X
Качество трека 99.9 %
CRC теста 84F44971
CRC копии 84F44971
Трек не обнаружен в базе AccurateRip
Копирование… OK

Трек 16

Имя файла C:\Documents and Settings\Sergei\Мои документы\Моя музыка\EAC\16. Ramona Blair (live).wav

Длина предзазора 0:00:02.00

Пиковый уровень 86.8 %
Скорость извлечения 4.7 X
Качество трека 100.0 %
CRC теста 5DB26088
CRC копии 5DB26088
Трек не обнаружен в базе AccurateRip
Копирование… OK

Трек 17

Имя файла C:\Documents and Settings\Sergei\Мои документы\Моя музыка\EAC\17. Wild Thing.wav

Длина предзазора 0:00:02.00

Пиковый уровень 80.9 %
Скорость извлечения 4.9 X
Качество трека 100.0 %
CRC теста 8829E5B1
CRC копии 8829E5B1
Трек не обнаружен в базе AccurateRip
Копирование… OK

Трек 18

Имя файла C:\Documents and Settings\Sergei\Мои документы\Моя музыка\EAC\18. The World Goes On Around You.wav

Длина предзазора 0:00:02.00

Пиковый уровень 86.9 %
Скорость извлечения 4.8 X
Качество трека 100.0 %
CRC теста EBB1FF4A
CRC копии EBB1FF4A
Трек не обнаружен в базе AccurateRip
Копирование… OK

Трек 19

Имя файла C:\Documents and Settings\Sergei\Мои документы\Моя музыка\EAC\19. Lonely Highway.wav

Длина предзазора 0:00:02.00

Пиковый уровень 83.1 %
Скорость извлечения 3.8 X
Качество трека 99.9 %
CRC теста 79FCCCCA
CRC копии 79FCCCCA
Трек не обнаружен в базе AccurateRip
Копирование… OK

Трек 20

Имя файла C:\Documents and Settings\Sergei\Мои документы\Моя музыка\EAC\20. See My World.wav

Длина предзазора 0:00:02.00

Пиковый уровень 88.9 %
Скорость извлечения 5.0 X
Качество трека 100.0 %
CRC теста B9F6AA6C
CRC копии B9F6AA6C
Трек не обнаружен в базе AccurateRip
Копирование… OK

Трек 21

Имя файла C:\Documents and Settings\Sergei\Мои документы\Моя музыка\EAC\21. See the Rain.wav

Длина предзазора 0:00:02.00

Пиковый уровень 100.0 %
Скорость извлечения 4.7 X
Качество трека 100.0 %
CRC теста 2443DB08
CRC копии 2443DB08
Трек не обнаружен в базе AccurateRip
Копирование… OK

Трек 22

Имя файла C:\Documents and Settings\Sergei\Мои документы\Моя музыка\EAC\22. We Can Fly.wav

Длина предзазора 0:00:02.00

Пиковый уровень 92.6 %
Скорость извлечения 5.0 X
Качество трека 100.0 %
CRC теста DCC416A1
CRC копии DCC416A1
Трек не обнаружен в базе AccurateRip
Копирование… OK

Трек 23

Имя файла C:\Documents and Settings\Sergei\Мои документы\Моя музыка\EAC\23. Hot Smoke and Sasafrass.wav

Длина предзазора 0:00:02.00

Пиковый уровень 92.3 %
Скорость извлечения 5.1 X
Качество трека 100.0 %
CRC теста 01E5E7D1
CRC копии 01E5E7D1
Трек не обнаружен в базе AccurateRip
Копирование… OK

Трек 24

Имя файла C:\Documents and Settings\Sergei\Мои документы\Моя музыка\EAC\24. Ramona Blair #2.wav

Длина предзазора 0:00:02.00

Пиковый уровень 85.6 %
Скорость извлечения 4.8 X
Качество трека 100.0 %
CRC теста F5CAAB07
CRC копии F5CAAB07
Трек не обнаружен в базе AccurateRip
Копирование… OK

Трек 25

Имя файла C:\Documents and Settings\Sergei\Мои документы\Моя музыка\EAC\25. Mystery Track.wav

Длина предзазора 0:00:02.00

Пиковый уровень 100.0 %
Скорость извлечения 4.5 X
Качество трека 100.0 %
CRC теста E326D576
CRC копии E326D576
Трек не обнаружен в базе AccurateRip
Копирование… OK

Ни одного трека нет в базе AccurateRip

Ошибок не произошло

Конец отчёта

==== Контрольная сумма отчёта 97F979569D91327765F5EDA7E392009B789D5C0819FFCCF9F8A5B8B62D720258 ====


[CUETools log; Date: 20/02/2013 03:49:20 p.m.; Version: 2.1.4]
[AccurateRip ID: 0036023c-03ced5bd-660e4019] disk not present in database.

Track Peak [ CRC32 ] [W/O NULL] [ LOG ]
– 100.0 [27429228] [931041B5]
01 79.4 [BD662357] [AE4DB70A] CRC32
02 86.9 [DBFAF1FA] [61026919] CRC32
03 63.9 [DD827168] [9FA55158] CRC32
04 72.0 [955E55E6] [9047F6E1] CRC32
05 79.4 [81F67345] [F54E6262] CRC32
06 99.7 [5E0C9CF6] [F83B5DDE] CRC32
07 71.0 [7B758DAE] [214713F9] CRC32
08 76.7 [BE08CE8F] [66F3FB4B] CRC32
09 100.0 [24E8C2B1] [E3CE337C] CRC32
10 84.0 [400E3BDF] [EC1CE171] CRC32
11 96.6 [A622A13E] [158EE077] CRC32
12 79.4 [97F605CB] [8AE660B9] CRC32
13 86.0 [506AC9D7] [D5453D11] CRC32
14 80.6 [042760F4] [4E79A51B] CRC32
15 79.4 [84F44971] [ACD62E33] CRC32
16 86.8 [5DB26088] [3E8FF616] CRC32
17 80.9 [8829E5B1] [4D41B390] CRC32
18 86.9 [EBB1FF4A] [9E97FE91] CRC32
19 83.1 [79FCCCCA] [9E2A4D31] CRC32
20 88.9 [B9F6AA6C] [C0258A66] CRC32
21 100.0 [2443DB08] [006851BC] CRC32
22 92.6 [DCC416A1] [5C1972C6] CRC32
23 92.3 [01E5E7D1] [0EF36C70] CRC32
24 85.6 [F5CAAB07] [A0882F50] CRC32
25 100.0 [E326D576] [CDD7212E] CRC32


Personnel

* Dee Murray - lead guitar, vocals
* Pete Hynes - vocals
* Ray Glynn - guitar, vocals
* Pat Hynes - bass guitar
* Dave Hynes - drums, vocals

Released Date: 1965-1969
CD Released Date: 2000
Format: CD, Compilation
Length: 60:00

The Mirage - You Can't Be Serious (Compilation) [2000]
The Mirage - You Can't Be Serious (Compilation) [2000]

******************************************************

CD Rip by Gera1957

The files are interchangeable!