Subcategories

The Moody Blues - The Best Of The Moody Blues (1996)

Posted By: jclane
The Moody Blues - The Best Of The Moody Blues (1996)

The Moody Blues - The Best Of The Moody Blues (1996)
EAC Rip | FLAC Tracks + Cue + Log | 476 MB | Complete Scans, 600 dpi JPEG | 31 MB
MP3 CBR @320 kbps (LAME 3.99) | Joint Stereo | 180 MB
DERAM / Decca Records Co. Ltd | 535-800-2 | Progressive Rock, Art Rock

This single-CD compilation doesn't do too much more than scratch the surface of the band's sound at its most popular points, but it does do one thing that no prior Moody Blues compilation ever did – it includes "Go Now," which, as the notes point out, is still the group's top-charting single in England. What it doesn't do is get "Go Now" in really good sound (no one seems to have a proper master source) or include their even better follow-up single, "From the Bottom of My Heart." Still, this body of work is pleasing and, thanks to its extension back to the original lineup, even a little bit informative, and it was the first Moody Blues compilation to be mastered in 20-bit audio. The dominant personality is Justin Hayward, who has provided the band with most of its hits, followed somewhat distantly by John Lodge, whose songs began to shine as the '70s dawned – a pair of Hayward/Lodge songs and one solo Hayward release fill out the 17 tracks, which showcase the soulful, the mystical, and the psychedelic aspects of their music in equal parts. It's a good intro to their history, and anyone who wants more can jump to the Time Traveller box.

Track Listing:

01. Go Now
02. Tuesday Afternoon (Forever Afternoon)
03. Nights In White Satin
04. Ride My See-Saw
05. Voices In The Sky
06. Question
07. The Story In Your Eyes
08. Isn't Life Strange
09. I'm Just A Singer (In A Rock And Roll Band)
11. Steppin' In A Slide Zone
12. Forever Autumn
13. The Voice
14. Gemini Dream
16. Your Wildest Dreams
17. I Know You're Out There Somewhere


Exact Audio Copy V0.99 prebeta 5 from 4. May 2009

Отчёт EAC об извлечении, выполненном 29. октября 2009, 10:42

The Moody Blues / The Best Of The Moody Blues

Дисковод: PIONEER DVD-RW DVR-112D Adapter: 3 ID: 1

Режим чтения : Достоверность
Использование точного потока : Да
Отключение кэша аудио : Да
Использование указателей C2 : Нет

Коррекция смещения при чтении : 48
Способность читать области Lead-in и Lead-out : Нет
Заполнение пропущенных сэмплов тишиной : Да
Удаление блоков с тишиной в начале и конце : Нет
При вычислениях CRC использовались нулевые сэмплы : Да
Интерфейс : Установленный внешний ASPI-интерфейс
Обработка зазоров : Добавлено к предыдущему треку

Выходной формат : Пользовательский кодировщик
Выбранный битрейт : 1024 kBit/s
Качество : Высокий
Добавление ID3-тэга : Нет
Утилита сжатия : C:\Program Files\Exact Audio Copy\FLAC\FLAC.EXE
Дополнительные параметры : -6 -V -T "ARTIST=%a" -T "TITLE=%t" -T "ALBUM=%g" -T "DATE=%y" -T "TRACKNUMBER=%n" -T "GENRE=%m" -T "COMMENT=%e" %s -o %d

TOC извлечённого CD

Трек | Старт | Длительность | Начальный сектор | Конечный сектор
––––––––––––––––––––––––––––––––––-
1 | 0:00.32 | 3:13.38 | 32 | 14544
2 | 3:13.70 | 4:13.32 | 14545 | 33551
3 | 7:27.27 | 4:27.35 | 33552 | 53611
4 | 11:54.62 | 3:44.43 | 53612 | 70454
5 | 15:39.30 | 3:31.55 | 70455 | 86334
6 | 19:11.10 | 5:46.30 | 86335 | 112314
7 | 24:57.40 | 2:54.22 | 112315 | 125386
8 | 27:51.62 | 6:07.15 | 125387 | 152926
9 | 33:59.02 | 4:18.28 | 152927 | 172304
10 | 38:17.30 | 3:39.67 | 172305 | 188796
11 | 41:57.22 | 5:30.30 | 188797 | 213576
12 | 47:27.52 | 4:33.18 | 213577 | 234069
13 | 52:00.70 | 5:17.07 | 234070 | 257851
14 | 57:18.02 | 4:06.30 | 257852 | 276331
15 | 61:24.32 | 5:14.50 | 276332 | 299931
16 | 66:39.07 | 4:52.38 | 299932 | 321869
17 | 71:31.45 | 6:36.72 | 321870 | 351641

Трек 1

Имя файла N:\01.Go Now.wav

Длина предзазора 0:00:02.32

Пиковый уровень 61.6 %
Качество трека 100.0 %
CRC теста 6735D842
CRC копии 6735D842
Точное извлечение (достоверность 6) [0537861A]
Копирование… OK

Трек 2

Имя файла N:\02.Tuesday Afternoon (Forever Afternoon).wav

Длина предзазора 0:00:01.55

Пиковый уровень 90.7 %
Качество трека 100.0 %
CRC теста 55732443
CRC копии 55732443
Точное извлечение (достоверность 6) [1659FA92]
Копирование… OK

Трек 3

Имя файла N:\03.Nights In White Satin.wav

Длина предзазора 0:00:03.22

Пиковый уровень 100.0 %
Качество трека 100.0 %
CRC теста 4358855D
CRC копии 4358855D
Точное извлечение (достоверность 7) [76ABB01F]
Копирование… OK

Трек 4

Имя файла N:\04.Ride My See-Saw.wav

Длина предзазора 0:00:01.70

Пиковый уровень 91.2 %
Качество трека 100.0 %
CRC теста 5CA5D3A6
CRC копии 5CA5D3A6
Точное извлечение (достоверность 6) [9BC7A398]
Копирование… OK

Трек 5

Имя файла N:\05.Voices In The Sky.wav

Длина предзазора 0:00:02.18

Пиковый уровень 89.9 %
Качество трека 100.0 %
CRC теста AF45B95D
CRC копии AF45B95D
Точное извлечение (достоверность 6) [74905FF2]
Копирование… OK

Трек 6

Имя файла N:\06.Question.wav

Длина предзазора 0:00:02.00

Пиковый уровень 82.7 %
Качество трека 100.0 %
CRC теста 880E8D03
CRC копии 880E8D03
Точное извлечение (достоверность 6) [CED09349]
Копирование… OK

Трек 7

Имя файла N:\07.The Story In Your Eyes.wav

Длина предзазора 0:00:02.35

Пиковый уровень 91.5 %
Качество трека 100.0 %
CRC теста C204307C
CRC копии C204307C
Точное извлечение (достоверность 6) [FFF14B6E]
Копирование… OK

Трек 8

Имя файла N:\08.Isn't Life Strange.wav

Длина предзазора 0:00:01.62

Пиковый уровень 78.1 %
Качество трека 100.0 %
CRC теста BF969EDA
CRC копии BF969EDA
Точное извлечение (достоверность 6) [F31F90CD]
Копирование… OK

Трек 9

Имя файла N:\09.I'm Just A Singer (In A Rock And Roll Band).wav

Длина предзазора 0:00:01.45

Пиковый уровень 77.2 %
Качество трека 99.9 %
CRC теста 9204374D
CRC копии 9204374D
Точное извлечение (достоверность 6) [895D4363]
Копирование… OK

Трек 10

Имя файла N:\10.Blue Guitar.wav

Длина предзазора 0:00:01.60

Пиковый уровень 71.6 %
Качество трека 100.0 %
CRC теста 74030B5B
CRC копии 74030B5B
Точное извлечение (достоверность 6) [FDC54A2D]
Копирование… OK

Трек 11

Имя файла N:\11.Steppin' In A Slide Zone.wav

Длина предзазора 0:00:02.60

Пиковый уровень 72.4 %
Качество трека 99.9 %
CRC теста 7478E015
CRC копии 7478E015
Точное извлечение (достоверность 6) [2A95839C]
Копирование… OK

Трек 12

Имя файла N:\12.Forever Autumn.wav

Длина предзазора 0:00:02.32

Пиковый уровень 63.2 %
Качество трека 100.0 %
CRC теста 1265439E
CRC копии 1265439E
Точное извлечение (достоверность 6) [12075E1C]
Копирование… OK

Трек 13

Имя файла N:\13.The Voice.wav

Длина предзазора 0:00:01.60

Пиковый уровень 74.9 %
Качество трека 99.9 %
CRC теста 9EDC3332
CRC копии 9EDC3332
Точное извлечение (достоверность 6) [F49C8BD9]
Копирование… OK

Трек 14

Имя файла N:\14.Gemini Dream.wav

Длина предзазора 0:00:02.35

Пиковый уровень 79.4 %
Качество трека 99.9 %
CRC теста 5C15111C
CRC копии 5C15111C
Точное извлечение (достоверность 6) [76D66D85]
Копирование… OK

Трек 15

Имя файла N:\15.Blue World.wav

Длина предзазора 0:00:00.72

Пиковый уровень 74.9 %
Качество трека 100.0 %
CRC теста EBA4EA60
CRC копии EBA4EA60
Точное извлечение (достоверность 6) [BDA802CA]
Копирование… OK

Трек 16

Имя файла N:\16.Your Wildest Dreams.wav

Длина предзазора 0:00:03.05

Пиковый уровень 75.7 %
Качество трека 100.0 %
CRC теста EEADBCAE
CRC копии EEADBCAE
Точное извлечение (достоверность 6) [014CB850]
Копирование… OK

Трек 17

Имя файла N:\17.I Know You're Out There Somewhere.wav

Длина предзазора 0:00:01.45

Пиковый уровень 74.9 %
Качество трека 100.0 %
CRC теста DB54963F
CRC копии DB54963F
Точное извлечение (достоверность 6) [0A92E7CE]
Копирование… OK

Все треки извлечены точно

Ошибок не произошло

Конец отчёта


[CUETools log; Date: 10/01/2013 07:10:51 p.m.; Version: 2.1.4]
Pregap length 00:00:32.
[AccurateRip ID: 002d4021-0245fc2c-f6125011] found.
Track [ CRC | V2 ] Status
01 [0537861a|dd4f9836] (14+02/29) Accurately ripped
02 [1659fa92|f1ebe8b0] (14+02/28) Accurately ripped
03 [76abb01f|9046c18d] (15+02/29) Accurately ripped
04 [9bc7a398|fe28035d] (14+02/28) Accurately ripped
05 [74905ff2|15590a00] (14+02/29) Accurately ripped
06 [ced09349|a7bb9fdf] (14+02/29) Accurately ripped
07 [fff14b6e|f01f8958] (14+02/29) Accurately ripped
08 [f31f90cd|e3460d31] (14+02/28) Accurately ripped
09 [895d4363|addd74b8] (14+02/28) Accurately ripped
10 [fdc54a2d|4ee6be68] (14+02/28) Accurately ripped
11 [2a95839c|7c8754ee] (14+02/28) Accurately ripped
12 [12075e1c|b8120bdd] (14+02/29) Accurately ripped
13 [f49c8bd9|2bf867bb] (14+02/27) Accurately ripped
14 [76d66d85|9032893e] (14+02/27) Accurately ripped
15 [bda802ca|211aff68] (14+02/27) Accurately ripped
16 [014cb850|ac2ea404] (14+02/25) Accurately ripped
17 [0a92e7ce|8e81da90] (14+02/26) Accurately ripped
Offsetted by 1450:
01 [8a107942] (06/29) Accurately ripped
02 [6a4752fc] (06/28) Accurately ripped
03 [0ec2befb] (06/29) Accurately ripped
04 [67ae63fa] (06/28) Accurately ripped
05 [9a5b1076] (06/29) Accurately ripped
06 [e39a05fd] (06/29) Accurately ripped
07 [59c813da] (06/29) Accurately ripped
08 [f54f5cb7] (06/28) Accurately ripped
09 [ea88274d] (06/28) Accurately ripped
10 [e6d96cd7] (06/28) Accurately ripped
11 [3a7bb3d4] (06/28) Accurately ripped
12 [b41f6aaa] (06/29) Accurately ripped
13 [241684df] (05/27) Accurately ripped
14 [b9180a1f] (05/27) Accurately ripped
15 [6747d0a4] (05/27) Accurately ripped
16 [b1785814] (05/25) Accurately ripped
17 [a9efd89c] (04/26) Accurately ripped
Offsetted by 1462:
01 [4ec87872] (03/29) Accurately ripped
02 [9cc2c188] (02/28) Accurately ripped
03 [d9a43783] (02/29) Accurately ripped
04 [e2214b16] (02/28) Accurately ripped
05 [bf09c32e] (03/29) Accurately ripped
06 [4f786155] (03/29) Accurately ripped
07 [7f3f7042] (03/29) Accurately ripped
08 [90572c43] (02/28) Accurately ripped
09 [5a9046d9] (02/28) Accurately ripped
10 [eb9a62e3] (02/28) Accurately ripped
11 [76fed7e4] (02/28) Accurately ripped
12 [c00eaaae] (03/29) Accurately ripped
13 [43336c73] (02/27) Accurately ripped
14 [bb0dfd4b] (02/27) Accurately ripped
15 [d78f0d50] (02/27) Accurately ripped
16 [73b8f84c] (02/25) Accurately ripped
17 [a37ccc20] (02/26) Accurately ripped
Offsetted by 1948:
01 [6de4578a] (02/29) Accurately ripped
02 [1949beae] (02/28) Accurately ripped
03 [724fc907] (02/29) Accurately ripped
04 [414edb04] (02/28) Accurately ripped
05 [0cad094a] (02/29) Accurately ripped
06 [e025d4c1] (02/29) Accurately ripped
07 [6ca18eb6] (02/29) Accurately ripped
08 [971381e9] (02/28) Accurately ripped
09 [93d9447f] (02/28) Accurately ripped
10 [ac214fc9] (02/28) Accurately ripped
11 [89be0c6c] (02/28) Accurately ripped
12 [a3684b50] (02/29) Accurately ripped
13 [af460f5d] (02/27) Accurately ripped
14 [0a76f5c1] (02/27) Accurately ripped
15 [9ad42686] (02/27) Accurately ripped
16 [2ef25128] (02/25) Accurately ripped
17 [9e495282] (02/26) Accurately ripped
Offsetted by -1049:
01 [83632276] (02/29) Accurately ripped
02 [195ea599] (02/28) Accurately ripped
03 [c4d87259] (02/29) Accurately ripped
04 [4bb5e373] (02/28) Accurately ripped
05 [033e2e48] (02/29) Accurately ripped
06 [e3f837a7] (02/29) Accurately ripped
07 [5f6f2840] (02/29) Accurately ripped
08 [9834c714] (02/28) Accurately ripped
09 [07ec7daa] (02/28) Accurately ripped
10 [08e14594] (02/28) Accurately ripped
11 [c0cd9dd0] (02/28) Accurately ripped
12 [febf9769] (02/29) Accurately ripped
13 [14d322ba] (02/27) Accurately ripped
14 [a0c4f994] (02/27) Accurately ripped
15 [1154b5b9] (02/27) Accurately ripped
16 [ac660286] (00/25) No match (V2 was not tested)
17 [6906c07b] (02/26) Accurately ripped

Track Peak [ CRC32 ] [W/O NULL]
– 100.0 [82B7CADD] [BF6B1A3C]
01 61.6 [6735D842] [08E7CB37]
02 90.7 [55732443] [D8467029]
03 100.0 [4358855D] [213D67E2]
04 91.2 [5CA5D3A6] [21763F6E]
05 89.9 [AF45B95D] [D14793A6]
06 82.7 [880E8D03] [5F72A5B8]
07 91.5 [C204307C] [B39FA9EB]
08 78.1 [BF969EDA] [E913747A]
09 77.2 [9204374D] [4975F992]
10 71.6 [74030B5B] [7D2AFD0C]
11 72.4 [7478E015] [95D23F3C]
12 63.2 [1265439E] [04D7C76C]
13 74.9 [9EDC3332] [14AF8C47]
14 79.4 [5C15111C] [527CC5CC]
15 74.9 [EBA4EA60] [8CD00F95]
16 75.7 [EEADBCAE] [0068AC90]
17 74.9 [DB54963F] [8A1DC1DE]


Released Date: 1996
Format: CD, Compilation
Length: 78:08

The Moody Blues - The Best Of The Moody Blues (1996)
The Moody Blues - The Best Of The Moody Blues (1996)

******************************************************

Thanks to dimoha.k68

The files are interchangeable!