Tags
Language
Tags

The Oscar Peterson Trio - We Get Requests (1964) [Reissue 1997]

Posted By: gribovar
The Oscar Peterson Trio - We Get Requests (1964) [Reissue 1997]

The Oscar Peterson Trio - We Get Requests (1964) [Reissue 1997]
EAC Rip | FLAC (tracks+.cue+log) - 239 MB | MP3 CBR 320 kbps (LAME 3.93) - 94 MB | Covers - 20 MB
Genre: Jazz | RAR 3% Rec. | Label: Verve (0602498840429)

Pianist Oscar Peterson has long been such a consistent performer that none of his records are throwaways, but this particular set is weaker than most. Since several of the songs are the type that in the mid-'60s would get requested (such as "People," "The Girl from Ipanema," and "The Days of Wine and Roses"), the program would not seem to have much potential, but Peterson mostly uplifts the material (although not much could be done with "People") and adds a few songs (such as his own "Goodbye, J.D." and John Lewis' "D & E"). Overall, this is a reasonably enjoyable Oscar Peterson session, featuring bassist Ray Brown and drummer Ed Thigpen.
Tracklist:
01. Corcovado (Quiet Nights of Quiet Stars)
02. The Days of Wine and Roses
03. My One and Only Love
04. People
05. Have You Met Miss Jones?
06. You Look Good to Me
07. The Girl from Ipanema
08. D&E
09. Time and Again
10. Goodbye, J.D.

Total time: 40:13

Exact Audio Copy V1.0 beta 3 from 29. August 2011

EAC extraction logfile from 3. May 2014, 15:36

The Oscar Peterson Trio / We Get Requests

Used drive : HL-DT-STDVD-RAM GH22NP20 Adapter: 0 ID: 0

Read mode : Secure
Utilize accurate stream : Yes
Defeat audio cache : Yes
Make use of C2 pointers : No

Read offset correction : 102
Overread into Lead-In and Lead-Out : No
Fill up missing offset samples with silence : Yes
Delete leading and trailing silent blocks : No
Null samples used in CRC calculations : Yes
Used interface : Native Win32 interface for Win NT & 2000
Gap handling : Appended to previous track

Used output format : User Defined Encoder
Selected bitrate : 1024 kBit/s
Quality : High
Add ID3 tag : No
Command line compressor : C:\Program Files\Exact Audio Copy\Flac\flac.exe
Additional command line options : -V -8 -T "Genre=%genre%" -T "Artist=%artist%" -T "Title=%title%" -T "Album=%albumtitle%" -T "Date=%year%" -T "Tracknumber=%tracknr%" -T "Comment=%comment%" %source%


TOC of the extracted CD

Track | Start | Length | Start sector | End sector
––––––––––––––––––––––––––––-
1 | 0:00.00 | 2:52.30 | 0 | 12929
2 | 2:52.30 | 2:43.13 | 12930 | 25167
3 | 5:35.43 | 5:11.30 | 25168 | 48522
4 | 10:46.73 | 3:33.30 | 48523 | 64527
5 | 14:20.28 | 4:13.62 | 64528 | 83564
6 | 18:34.15 | 4:52.05 | 83565 | 105469
7 | 23:26.20 | 3:55.35 | 105470 | 123129
8 | 27:21.55 | 5:13.68 | 123130 | 146672
9 | 32:35.48 | 4:40.22 | 146673 | 167694
10 | 37:15.70 | 2:56.60 | 167695 | 180954


Track 1

Filename D:\music\Musicgate's rips\The Oscar Peterson Trio - We Get Requests - 1964 (1997 Veve)\01 - Corcovado (Quiet Nights Of Quiet Stars).wav

Pre-gap length 0:00:02.00

Peak level 100.0 %
Extraction speed 1.4 X
Track quality 100.0 %
Test CRC 4B45E3FC
Copy CRC 4B45E3FC
Accurately ripped (confidence 102) [E4FABBCE] (AR v2)
Copy OK

Track 2

Filename D:\music\Musicgate's rips\The Oscar Peterson Trio - We Get Requests - 1964 (1997 Veve)\02 - The Days Of Wine And Roses.wav

Pre-gap length 0:00:03.25

Peak level 100.0 %
Extraction speed 1.6 X
Track quality 100.0 %
Test CRC 361FC1F0
Copy CRC 361FC1F0
Accurately ripped (confidence 101) [F9C2004C] (AR v2)
Copy OK

Track 3

Filename D:\music\Musicgate's rips\The Oscar Peterson Trio - We Get Requests - 1964 (1997 Veve)\03 - My One And Only Love.wav

Pre-gap length 0:00:03.03

Peak level 80.7 %
Extraction speed 1.7 X
Track quality 99.9 %
Test CRC 58DB5D85
Copy CRC 58DB5D85
Accurately ripped (confidence 101) [5A16C1F3] (AR v2)
Copy OK

Track 4

Filename D:\music\Musicgate's rips\The Oscar Peterson Trio - We Get Requests - 1964 (1997 Veve)\04 - People.wav

Pre-gap length 0:00:03.18

Peak level 100.0 %
Extraction speed 2.0 X
Track quality 100.0 %
Test CRC 06D0E655
Copy CRC 06D0E655
Accurately ripped (confidence 101) [987C93F3] (AR v2)
Copy OK

Track 5

Filename D:\music\Musicgate's rips\The Oscar Peterson Trio - We Get Requests - 1964 (1997 Veve)\05 - Have You Met Miss Jones.wav

Pre-gap length 0:00:02.55

Peak level 100.0 %
Extraction speed 2.2 X
Track quality 100.0 %
Test CRC EAED221C
Copy CRC EAED221C
Accurately ripped (confidence 101) [7611A834] (AR v2)
Copy OK

Track 6

Filename D:\music\Musicgate's rips\The Oscar Peterson Trio - We Get Requests - 1964 (1997 Veve)\06 - You Look Good To Me.wav

Pre-gap length 0:00:02.73

Peak level 100.0 %
Extraction speed 2.4 X
Track quality 100.0 %
Test CRC A873325C
Copy CRC A873325C
Accurately ripped (confidence 101) [3C2C165A] (AR v2)
Copy OK

Track 7

Filename D:\music\Musicgate's rips\The Oscar Peterson Trio - We Get Requests - 1964 (1997 Veve)\07 - The Girl From Ipanema.wav

Pre-gap length 0:00:02.63

Peak level 100.0 %
Extraction speed 2.4 X
Track quality 100.0 %
Test CRC 194E44C0
Copy CRC 194E44C0
Accurately ripped (confidence 101) [4E17DDBA] (AR v2)
Copy OK

Track 8

Filename D:\music\Musicgate's rips\The Oscar Peterson Trio - We Get Requests - 1964 (1997 Veve)\08 - D & E.wav

Pre-gap length 0:00:03.48

Peak level 100.0 %
Extraction speed 2.6 X
Track quality 100.0 %
Test CRC 39D27975
Copy CRC 39D27975
Accurately ripped (confidence 100) [C3591742] (AR v2)
Copy OK

Track 9

Filename D:\music\Musicgate's rips\The Oscar Peterson Trio - We Get Requests - 1964 (1997 Veve)\09 - Time And Again.wav

Pre-gap length 0:00:02.70

Peak level 64.4 %
Extraction speed 2.7 X
Track quality 100.0 %
Test CRC F5BCDD1A
Copy CRC F5BCDD1A
Accurately ripped (confidence 100) [74C350FD] (AR v2)
Copy OK

Track 10

Filename D:\music\Musicgate's rips\The Oscar Peterson Trio - We Get Requests - 1964 (1997 Veve)\10 - Goodbye, J.D..wav

Peak level 100.0 %
Extraction speed 2.7 X
Track quality 100.0 %
Test CRC C8F752DF
Copy CRC C8F752DF
Accurately ripped (confidence 101) [D7C67183] (AR v2)
Copy OK


All tracks accurately ripped

No errors occurred

End of status report

==== Log checksum DB75E8A51038C7DED1078D62F92030E6BA9B8357AA749EA9A9783DA0672795B0 ====

[CUETools log; Date: 03.05.2020 21:47:08; Version: 2.1.4]
[CTDB TOCID: VGC_mq2oXapOSNeo0AETEkTpLe0-] found.
Track | CTDB Status
1 | (496/496) Accurately ripped
2 | (496/496) Accurately ripped
3 | (495/496) Accurately ripped
4 | (494/496) Accurately ripped
5 | (495/496) Accurately ripped
6 | (494/496) Accurately ripped
7 | (494/496) Accurately ripped
8 | (495/496) Accurately ripped
9 | (494/496) Accurately ripped
10 | (495/496) Accurately ripped
[AccurateRip ID: 000ea0ad-00777b39-85096c0a] found.
Track [ CRC | V2 ] Status
01 [3b7817c9|e4fabbce] (085+200/323) Accurately ripped
02 [c4d0f80b|f9c2004c] (085+200/323) Accurately ripped
03 [34b37ae0|5a16c1f3] (085+200/323) Accurately ripped
04 [0960b072|987c93f3] (085+200/323) Accurately ripped
05 [f76d0f74|7611a834] (085+200/323) Accurately ripped
06 [2613e69f|3c2c165a] (084+200/322) Accurately ripped
07 [7519b3ef|4e17ddba] (084+200/322) Accurately ripped
08 [0ca5fcd0|c3591742] (085+200/323) Accurately ripped
09 [f319e461|74c350fd] (084+200/322) Accurately ripped
10 [5530f7ee|d7c67183] (084+200/322) Accurately ripped
Offsetted by -2179:
01 [b9079d1c] (002/323) Accurately ripped
02 [51c85181] (002/323) Accurately ripped
03 [c24b7431] (002/323) Accurately ripped
04 [24c821d6] (002/323) Accurately ripped
05 [53317e4c] (002/323) Accurately ripped
06 [c005c5da] (002/322) Accurately ripped
07 [9b859376] (002/322) Accurately ripped
08 [8ce619eb] (002/323) Accurately ripped
09 [d5d58366] (002/322) Accurately ripped
10 [2295c9df] (002/322) Accurately ripped
Offsetted by -1545:
01 [72c74c42] (002/323) Accurately ripped
02 [a9c4056d] (002/323) Accurately ripped
03 [fe9a9853] (002/323) Accurately ripped
04 [44fcfa9e] (002/323) Accurately ripped
05 [eaf3dffc] (002/323) Accurately ripped
06 [fa07c4d0] (002/322) Accurately ripped
07 [00c6a504] (002/322) Accurately ripped
08 [de7a64a1] (002/323) Accurately ripped
09 [6fe9e0f0] (002/322) Accurately ripped
10 [b1d68f41] (002/322) Accurately ripped
Offsetted by 10:
01 [7d63b25f] (002/323) Accurately ripped
02 [f50b0bd7] (002/323) Accurately ripped
03 [8cdeb8d2] (002/323) Accurately ripped
04 [6c68ca7a] (002/323) Accurately ripped
05 [332840a4] (002/323) Accurately ripped
06 [9f521d85] (002/322) Accurately ripped
07 [b74d9b2d] (002/322) Accurately ripped
08 [f417c576] (002/323) Accurately ripped
09 [129a9dfb] (002/322) Accurately ripped
10 [05e2d920] (002/322) Accurately ripped
Offsetted by -66:
01 [eecb81eb] (000/323) No match (V2 was not tested)
02 [eceb422f] (000/323) No match (V2 was not tested)
03 [552faed6] (000/323) No match (V2 was not tested)
04 [155e6b0a] (000/323) No match (V2 was not tested)
05 [39fffe04] (000/323) No match (V2 was not tested)
06 [3912e2b1] (000/322) No match (V2 was not tested)
07 [c0298a89] (000/322) No match (V2 was not tested)
08 [151d6a22] (000/323) No match (V2 was not tested)
09 [effb81cf] (000/322) No match (V2 was not tested)
10 [93ce29a4] (000/322) No match (V2 was not tested)
Offsetted by -12:
01 [b92a2b15] (000/323) No match (V2 was not tested)
02 [57be79e3] (000/323) No match (V2 was not tested)
03 [97b2ca24] (000/323) No match (V2 was not tested)
04 [c5bd5e02] (000/323) No match (V2 was not tested)
05 [49593ad4] (000/323) No match (V2 was not tested)
06 [fafc718b] (000/322) No match (V2 was not tested)
07 [25a8380b] (000/322) No match (V2 was not tested)
08 [f6ea3f3c] (000/323) No match (V2 was not tested)
09 [66e5d275] (000/322) No match (V2 was not tested)
10 [1ac1e9b2] (000/322) No match (V2 was not tested)

Track Peak [ CRC32 ] [W/O NULL] [ LOG ]
– 100,0 [F19FF27E] [FB261C05]
01 99,9 [4B45E3FC] [D7A54012] CRC32
02 100,0 [361FC1F0] [D03B15C7] CRC32
03 80,7 [58DB5D85] [BB37F68B] CRC32
04 99,9 [06D0E655] [53C24210] CRC32
05 99,9 [EAED221C] [073CB387] CRC32
06 100,0 [A873325C] [1745A1B2] CRC32
07 99,9 [194E44C0] [1114A713] CRC32
08 100,0 [39D27975] [0FC00711] CRC32
09 64,4 [F5BCDD1A] [F16CEF24] CRC32
10 100,0 [C8F752DF] [C7B6FFF1] CRC32

Thanks to Musicgate

See also:
Oscar Peterson - Songbooks Etcetera [10CD Box Set] (2005)
The Oscar Peterson Trio - At The Concertgebouw (1957) [Reissue 1994]
Oscar Peterson Trio - On The T...son Trio (1958) [Reissue 2001]
The Oscar Peterson Trio - A Jazz Portrait Of Frank Sinatra (1959)
Oscar Peterson - Plays The Jerome Kern Song Book (1959) [Reissue 2009]
Oscar Peterson - Oscar Peterso...ong Book (1959) [Reissue 1996]
Oscar Peterson Trio - West Side Story (1962) [DCC 24 KT Gold CD, 1994]
Oscar Peterson & Nelson Ri...n Riddle (1963) [Reissue 2009]
Oscar Peterson Trio - Oscar Pe...rk Terry (1964) [Reissue 2007]
Oscar Peterson - Blues Etude (1966) [Reissue 1990]
Oscar Peterson - Girl Talk (1968)
Oscar Peterson - Motions & Emotions (1969) [Reissue 2005]
Oscar Peterson & Dizzy Gil...illespie (1975) [Reissue 1987]
Ella Fitzgerald & Oscar Pe...nd Oscar (1976) [Reissue 2001]
Oscar Peterson - Oscar Peterso...reux '77 (1977) [Reissue 1989]
Oscar Peterson & Count Bas...0;.Again (1978) [Reissue 2006]
Oscar Peterson - The London Concert (1979) [Reissue 1993]
Oscar Peterson - Digital At Montreux (1980)
Milt Jackson & Oscar Peter... Us Left (1981) [Reissue 2006]
Oscar Peterson + Stephane Grappelli - Skol (1982) [Reissue 1990]
Clark Terry, Freddie Hubbard, ...n - The Alternate Blues (1982)
Oscar Peterson - The Silver Collection [Recorded 1959-1963] (1984)
The Oscar Peterson Trio - Live And At Its Best (1990)
Oscar Peterson Trio - The Osca...Zardi's [Recorded 1955] (1994)
Oscar Peterson Trio with Ray Brown & Ed Thigpen - 1959 (1994)
Oscar Peterson - Oscar Peterso...(Verve Jazz Masters 37) (1994)
Oscar Peterson - The Song Is Y...ks [Recorded 1952-1959] (1996)
Oscar Peterson - 1945-1947 (1999)
Lionel Hampton With Oscar Peterson - Verve Jazz Masters 26 (1994)
Oscar Peterson, Ray Brown, Mil...: Live at the Blue Note (1999)
Oscar Peterson Trio - Complete...sions with Lester Young (2001)
Oscar Peterson - Stephane Grap...ol. 1-2 [Recorded 1973] (2001)
Oscar Peterson - Oscar's Ballads [Recorded 1990-2000] (2001)
Oscar Peterson - A Jazz Odyssey [Recorded 1950-1970] (2002)
Oscar Peterson - Ballads, Blue...1968-1971, 3CD Box Set] (2008)