Subcategories
Tags
Language
Tags

The Residents - Fingerprince (1977) [Reissue 1987] (Re-up)

Posted By: gribovar
The Residents - Fingerprince (1977) [Reissue 1987] (Re-up)

The Residents - Fingerprince (1977) [Reissue 1987]
EAC Rip | FLAC (image+.cue+log) - 237 MB | MP3 CBR 320 kbps (LAME 3.93) - 124 MB | Covers - 35 MB
Genre: Avant-Prog, Electronic | RAR 3% Rec. | Label: Torso Records (TORSO CD 407)

This transitional album for the group may not be one of their best, but makes up for it in historical importance. The self-created myth has that the album was intended to be the first three-sided release, what probably transpired was that the group had more songs than could be fit on a vinyl LP, so a few years later the remaining tracks were released as the Babyfingers EP. Both EP and LP tracks are on the CD reissue, however. Fingerprince is one side of songs, a melding of their earlier, primitive side (their old piano, heard so well on Meet the Residents, is still in service here) with their sinister pop side that would be perfected on Duck Stab and The Commercial Album (including their treated, cheap-sounding drum machines). Side two is a ballet cycle, entitled "Six Things to a Cycle," an attempt at faux-ethno-primitivism (heavily rhythmic, repetitious) that would prefigure their work in Eskimo and Mark of the Mole. The instrumentation owes as much a debt to Martin Denny's exotica as it does to Amadeo Roldan (the modern composer they sampled on their first single). The Babyfingers tracks follow a similar pattern, with a side of short songs ("Death in Barstow" being the best) and a longer track ("Walter Westinghouse") an experiment in extended, multi-character narrative. Snakefinger lends his guitar to "You Yesyesyes," dropping licks from The Third Man and others.

Tracklist:
01. You Yesyesyes
02. Home Age Conversation
03. Godsong
04. March de la Winni
05. Bossy
06. Boo Who?
07. Tourniquet of Roses
08. Death in Barstow
09. Melon Collie Lassie
10. Flight of the Bumble Roach
11. Walter Westinghouse
12. Six Things to a Cycle
Part 1
Part 2
Part 3
Part 4
Part 5
Part 6
13. You Yesyesyes Again

Total time: 52:47

Exact Audio Copy V1.0 beta 2 from 29. April 2011

EAC extraction logfile from 21. July 2011, 14:37

The Residents / Fingerprince

Used drive : Optiarc DVD RW AD-7240S Adapter: 2 ID: 0

Read mode : Secure
Utilize accurate stream : Yes
Defeat audio cache : Yes
Make use of C2 pointers : No

Read offset correction : 48
Overread into Lead-In and Lead-Out : No
Fill up missing offset samples with silence : Yes
Delete leading and trailing silent blocks : No
Null samples used in CRC calculations : Yes
Used interface : Native Win32 interface for Win NT & 2000

Used output format : User Defined Encoder
Selected bitrate : 768 kBit/s
Quality : High
Add ID3 tag : No
Command line compressor : C:\Program Files\Exact Audio Copy\FLAC\FLAC.EXE
Additional command line options : -6 -V -T "ARTIST=%artist%" -T "TITLE=%title%" -T "ALBUM=%albumtitle%" -T "DATE=%year%" -T "TRACKNUMBER=%tracknr%" -T "GENRE=%genre%" -T "COMMENT=%comment%" -T "BAND=%albuminterpret%" -T "COMPOSER=%composer%" %haslyrics%–ta


TOC of the extracted CD

Track | Start | Length | Start sector | End sector
––––––––––––––––––––––––––––-
1 | 0:00.32 | 3:01.53 | 32 | 13659
2 | 3:02.10 | 2:04.47 | 13660 | 23006
3 | 5:06.57 | 3:44.65 | 23007 | 39871
4 | 8:51.47 | 0:59.13 | 39872 | 44309
5 | 9:50.60 | 1:03.67 | 44310 | 49101
6 | 10:54.52 | 2:48.55 | 49102 | 61756
7 | 13:43.32 | 3:21.10 | 61757 | 76841
8 | 17:04.42 | 2:03.70 | 76842 | 86136
9 | 19:08.37 | 2:54.38 | 86137 | 99224
10 | 22:03.00 | 2:15.32 | 99225 | 109381
11 | 24:18.32 | 8:03.13 | 109382 | 145619
12 | 32:21.45 | 17:47.45 | 145620 | 225689
13 | 50:09.15 | 2:37.30 | 225690 | 237494


Range status and errors

Selected range

Filename C:\Documents and Settings\User\Мои документы\The Residents - Fingerprince (1987)\The Residents - Fingerprince.wav

Peak level 92.6 %
Extraction speed 3.8 X
Range quality 99.9 %
Test CRC A6243022
Copy CRC A6243022
Copy OK

No errors occurred


AccurateRip summary

Track 1 accurately ripped (confidence 1) [BCC77C35] (AR v1)
Track 2 accurately ripped (confidence 1) [12071429] (AR v1)
Track 3 accurately ripped (confidence 1) [B408F265] (AR v1)
Track 4 accurately ripped (confidence 1) [5B4D0660] (AR v1)
Track 5 accurately ripped (confidence 1) [535391CA] (AR v1)
Track 6 accurately ripped (confidence 1) [6D114750] (AR v1)
Track 7 accurately ripped (confidence 1) [8D890767] (AR v1)
Track 8 accurately ripped (confidence 1) [B79B318F] (AR v1)
Track 9 accurately ripped (confidence 1) [790C5609] (AR v1)
Track 10 accurately ripped (confidence 1) [8AF41195] (AR v1)
Track 11 accurately ripped (confidence 1) [6891F9B1] (AR v1)
Track 12 accurately ripped (confidence 1) [E34540CB] (AR v1)
Track 13 accurately ripped (confidence 1) [E120589A] (AR v1)

All tracks accurately ripped

End of status report

==== Log checksum 901709B72E50043F62FDF6E75B62538B89720892028D8A3E2ADA4F7A1F841FF9 ====

[CUETools log; Date: 22.07.2021 13:39:55; Version: 2.1.4]
Pregap length 00:00:32.
[CTDB TOCID: xHer31jfmpljPYntnFl2y.HvE10-] disk not present in database.
[AccurateRip ID: 00127ee3-00c340b3-910c5e0d] found.
Track [ CRC | V2 ] Status
01 [bcc77c35|956f4652] (1+0/1) Accurately ripped
02 [12071429|1e4c1638] (1+0/1) Accurately ripped
03 [b408f265|a71841f5] (1+0/1) Accurately ripped
04 [5b4d0660|d7a11ca0] (1+0/1) Accurately ripped
05 [535391ca|4c1089de] (1+0/1) Accurately ripped
06 [6d114750|86d7c8a9] (1+0/1) Accurately ripped
07 [8d890767|5717bafa] (1+0/1) Accurately ripped
08 [b79b318f|246dff01] (1+0/1) Accurately ripped
09 [790c5609|1a931633] (1+0/1) Accurately ripped
10 [8af41195|b45075c4] (1+0/1) Accurately ripped
11 [6891f9b1|9dc6cec9] (1+0/1) Accurately ripped
12 [e34540cb|97b39de7] (1+0/1) Accurately ripped
13 [e120589a|b64af0d7] (1+0/1) Accurately ripped

Track Peak [ CRC32 ] [W/O NULL] [ LOG ]
– 92,6 [A6243022] [BD82D0AE] CRC32
01 80,2 [C3B0BC51] [80A2AFDB]
02 54,6 [AF6DCACF] [849C9FD7]
03 59,4 [24F5C980] [3B038205]
04 49,2 [ECD4DA7C] [EA43B06E]
05 50,0 [B24CFB89] [42C801DF]
06 83,4 [2564CA81] [C33FAF6A]
07 51,3 [EDB18967] [81A8C471]
08 60,1 [27CB76F2] [E875989D]
09 49,8 [EA0BB5CF] [38A1D04E]
10 55,2 [06DAAC13] [6EC71814]
11 80,8 [B6A151CB] [D13310FC]
12 92,6 [D8E83BDE] [A8B72BAF]
13 54,4 [842ED228] [ECB00E6D]

Thanks to gssmg7