Subcategories
Tags
Language
Tags

The Reverend Peyton's Big Damn Band - 3 Albums (2006-2011)

Posted By: gribovar
The Reverend Peyton's Big Damn Band - 3 Albums (2006-2011)

The Reverend Peyton's Big Damn Band - 3 Albums (2006-2011)
EAC Rip | WavPack (image+.cue+log) - 566 MB | MP3 CBR 320 kbps (LAME 3.93) - 221 MB | Covers - 268 MB
Genre: Country Blues, Gospel Blues | RAR 3% Rec. | Label: Family Owned Records, SideOneDummy Records

While they're only a trio, the Reverend Peyton's Big Damn Band deliver a sound that lives up to their name, with thick, bass-heavy, blues-based guitar figures accompanied by muscular but minimal drumming and the metallic percussive scratch of a washboard (making them one of the first rock bands to regularly feature the latter instrument since Black Oak Arkansas).
The group was formed by guitarist and singer Josh "Reverend" Peyton, who was born and raised in Indiana, and first exposed to music through his father's record collection, which was heavy on Neil Young, Jimi Hendrix, and Bob Dylan - all artists with their own take on the blues. When Josh was 12 years old, his dad gave him a Kay guitar, and once he learned his way around the instrument, he got an amp to go along with it. With his brother Jayme Peyton on drums and a mutual friend on bass, Josh formed his first band, Drive-Thru, and began playing parties and dances as Josh developed a greater passion for vintage blues, ranging from the electric blues of icons like Muddy Waters and B.B. King to country-blues artists such as Bukka White and Charley Patton.
Not long after finishing high school, Josh broke up Drive-Thru after developing a severe case of tendonitis that made it extremely painful for him to play the guitar. However, after a year working as a hotel desk clerk, doctors at the Indiana Hand Center were able to perform surgery that allowed him to play the guitar again, and around the same time, he met a woman named Breezy, who shared his love of the blues. The two fell in love and eventually married; they decided to form a band, with Josh on guitar and vocals and Breezy on vocals and washboard. Jayme Peyton rounded out the group on drums, and the Big Damn Band were born.

The Reverend Peyton's Big Damn Band - 3 Albums (2006-2011)

The Reverend Peyton's Big Damn Band - Big Damn Nation (2006)
EAC Rip | WavPack (image+.cue+log) - 281 MB | MP3 CBR 320 kbps (LAME 3.93) - 101 MB | Covers - 75 MB
Genre: Country Blues | RAR 3% Rec. | Label: Family Owned Records (SRC1030)

Tracklist:

Tracklist:
01. My Old Man Boogie
02. Long Gone
03. Spreadin' Your Love Around
04. Boom Chank
05. Worryin' Kind
06. Left Hand George
07. Mud
08. Another Bottle
09. Aberdeen
10. Plainfield Blues
11. My Soul To Keep
12. Sugar Man

Total time: 42:50

Exact Audio Copy V1.0 beta 1 from 15. November 2010

EAC extraction logfile from 24. May 2011, 6:59

The Reverend Peyton's Big Damn Band / Big Damn Nation

Used drive : HL-DT-STDVD-RAM GH22LP20 Adapter: 4 ID: 1

Read mode : Secure
Utilize accurate stream : Yes
Defeat audio cache : Yes
Make use of C2 pointers : No

Read offset correction : 102
Overread into Lead-In and Lead-Out : No
Fill up missing offset samples with silence : Yes
Delete leading and trailing silent blocks : No
Null samples used in CRC calculations : Yes
Used interface : Installed external ASPI interface

Used output format : Пользовательский кодировщик
Selected bitrate : 896 kBit/s
Quality : High
Add ID3 tag : No
Command line compressor : C:\Program Files (x86)\Exact Audio Copy\WAV Pack\wavpack.exe
Additional command line options : -hlmx2 %s


TOC of the extracted CD

Track | Start | Length | Start sector | End sector
––––––––––––––––––––––––––––-
1 | 0:00.00 | 2:59.35 | 0 | 13459
2 | 2:59.35 | 2:31.60 | 13460 | 24844
3 | 5:31.20 | 3:02.55 | 24845 | 38549
4 | 8:34.00 | 3:39.32 | 38550 | 55006
5 | 12:13.32 | 2:49.73 | 55007 | 67754
6 | 15:03.30 | 5:53.72 | 67755 | 94301
7 | 20:57.27 | 2:43.33 | 94302 | 106559
8 | 23:40.60 | 3:42.35 | 106560 | 123244
9 | 27:23.20 | 4:35.00 | 123245 | 143869
10 | 31:58.20 | 3:11.52 | 143870 | 158246
11 | 35:09.72 | 3:39.18 | 158247 | 174689
12 | 38:49.15 | 4:00.27 | 174690 | 192716


Range status and errors

Selected range

Filename X:\Releases RAW\The Reverend Peyton's Big Damn Band - Big Damn Nation\The Reverend Peyton's Big Damn Band - Big Damn Nation.wav

Peak level 99.2 %
Extraction speed 0.2 X
Range quality 100.0 %
Test CRC BDDEA787
Copy CRC BDDEA787
Copy OK

No errors occurred


AccurateRip summary

Track 1 accurately ripped (confidence 2) [2A87CBA5]
Track 2 accurately ripped (confidence 2) [1DB70A0A]
Track 3 accurately ripped (confidence 2) [E9D7F3A6]
Track 4 accurately ripped (confidence 2) [D6481CBB]
Track 5 accurately ripped (confidence 2) [7EA793D4]
Track 6 accurately ripped (confidence 2) [B454C3B0]
Track 7 accurately ripped (confidence 2) [B819C60E]
Track 8 accurately ripped (confidence 2) [49374402]
Track 9 accurately ripped (confidence 2) [D73D7AC4]
Track 10 accurately ripped (confidence 2) [D7C3E676]
Track 11 accurately ripped (confidence 2) [45362582]
Track 12 accurately ripped (confidence 2) [26695547]

All tracks accurately ripped

End of status report

==== Log checksum B361842B04A9178D23AC38638755CB1DAC7FDBFA10682B14BCDCB05B888F65A8 ====

[CUETools log; Date: 29.08.2020 14:47:25; Version: 2.1.4]
[CTDB TOCID: EYBnNO0.CymTeSyqhr45O9f4dtY-] found.
Track | CTDB Status
1 | (23/23) Accurately ripped
2 | (23/23) Accurately ripped
3 | (23/23) Accurately ripped
4 | (23/23) Accurately ripped
5 | (23/23) Accurately ripped
6 | (23/23) Accurately ripped
7 | (23/23) Accurately ripped
8 | (23/23) Accurately ripped
9 | (23/23) Accurately ripped
10 | (23/23) Accurately ripped
11 | (23/23) Accurately ripped
12 | (23/23) Accurately ripped
[AccurateRip ID: 00123520-00ad0906-820a090c] found.
Track [ CRC | V2 ] Status
01 [2a87cba5|365eaeda] (02+04/10) Accurately ripped
02 [1db70a0a|c8bf06d5] (02+04/10) Accurately ripped
03 [e9d7f3a6|a47969fc] (02+04/10) Accurately ripped
04 [d6481cbb|4f8667a7] (02+04/10) Accurately ripped
05 [7ea793d4|de30062e] (02+04/10) Accurately ripped
06 [b454c3b0|a0d6cbb9] (02+04/10) Accurately ripped
07 [b819c60e|eb29e0c7] (02+04/10) Accurately ripped
08 [49374402|71267a7e] (02+04/10) Accurately ripped
09 [d73d7ac4|fb0aa304] (02+04/10) Accurately ripped
10 [d7c3e676|ab66b019] (02+04/10) Accurately ripped
11 [45362582|d4edf056] (02+04/10) Accurately ripped
12 [26695547|510013e0] (02+04/10) Accurately ripped
Offsetted by 30:
01 [c0279bbb] (02/10) Accurately ripped
02 [2850fc9e] (02/10) Accurately ripped
03 [45168480] (02/10) Accurately ripped
04 [696f9f79] (02/10) Accurately ripped
05 [4cfcea32] (02/10) Accurately ripped
06 [4442f38a] (02/10) Accurately ripped
07 [24570df4] (02/10) Accurately ripped
08 [24ae9f7a] (02/10) Accurately ripped
09 [d7b96472] (02/10) Accurately ripped
10 [0b56ba2a] (02/10) Accurately ripped
11 [31095a56] (02/10) Accurately ripped
12 [d77c986d] (02/10) Accurately ripped

Track Peak [ CRC32 ] [W/O NULL] [ LOG ]
– 99,2 [BDDEA787] [18EC7332] CRC32
01 99,2 [B47E25AE] [BF878150]
02 99,0 [B71DF241] [911FA9E5]
03 99,0 [C9CEE34B] [88A2AEDC]
04 99,1 [5B0F35FB] [CF9490C4]
05 99,0 [D223059D] [26AE6DC0]
06 99,0 [C8A1C282] [80CC724E]
07 99,0 [1A6F042F] [FF8145B0]
08 98,9 [758782D5] [A274E551]
09 99,1 [4A16E99A] [73C1983F]
10 99,1 [D1ECF58E] [608620E4]
11 99,2 [A7E0810E] [C2F72B25]
12 99,1 [816F436C] [0A0460D8]

The Reverend Peyton's Big Damn Band - 3 Albums (2006-2011)

The Reverend Peyton's Big Damn Band - The Gospel Album (2007)
EAC Rip | WavPack (image+.cue+log) - 125 MB | MP3 CBR 320 kbps (LAME 3.93) - 48 MB | Covers - 96 MB
Genre: Gospel Blues | RAR 3% Rec. | Label: Family Owned Records (666973104024)

Tracklist:
01. Blow That Horn
02. Down By The Riverside
03. Glory Glory
04. Tell All The World
05. I Shall Not Be Moved
06. Rock Island Line
07. Let You Light Shine
08. Amazing Grace

Total time: 20:28

Exact Audio Copy V1.0 beta 1 from 15. November 2010

EAC extraction logfile from 24. May 2011, 15:46

The Reverend Peyton's Big Damn Band / The Gospel Album

Used drive : HL-DT-STDVD-RAM GH22LP20 Adapter: 4 ID: 1

Read mode : Secure
Utilize accurate stream : Yes
Defeat audio cache : Yes
Make use of C2 pointers : No

Read offset correction : 102
Overread into Lead-In and Lead-Out : No
Fill up missing offset samples with silence : Yes
Delete leading and trailing silent blocks : No
Null samples used in CRC calculations : Yes
Used interface : Installed external ASPI interface

Used output format : Пользовательский кодировщик
Selected bitrate : 896 kBit/s
Quality : High
Add ID3 tag : No
Command line compressor : C:\Program Files (x86)\Exact Audio Copy\WAV Pack\wavpack.exe
Additional command line options : -hlmx2 %s


TOC of the extracted CD

Track | Start | Length | Start sector | End sector
––––––––––––––––––––––––––––-
1 | 0:00.00 | 2:57.22 | 0 | 13296
2 | 2:57.22 | 2:35.62 | 13297 | 24983
3 | 5:33.09 | 2:54.25 | 24984 | 38058
4 | 8:27.34 | 1:37.49 | 38059 | 45382
5 | 10:05.08 | 3:25.08 | 45383 | 60765
6 | 13:30.16 | 1:58.31 | 60766 | 69646
7 | 15:28.47 | 2:15.64 | 69647 | 79835
8 | 17:44.36 | 2:43.07 | 79836 | 92067


Range status and errors

Selected range

Filename X:\Releases RAW\The Reverend Peyton's Big Damn Band - The Gospel Album\The Reverend Peyton's Big Damn Band - The Gospel Album.wav

Peak level 100.0 %
Extraction speed 0.2 X
Range quality 100.0 %
Test CRC 906DF225
Copy CRC 906DF225
Copy OK

No errors occurred


AccurateRip summary

Track 1 not present in database
Track 2 cannot be verified as accurate (confidence 2) [CEBBE738], AccurateRip returned [39503B2D]
Track 3 not present in database
Track 4 not present in database
Track 5 not present in database
Track 6 not present in database
Track 7 not present in database
Track 8 not present in database

1 трек(и) не удалось проверить на точность
7 трек(и) не содержатся в базе AccurateRip

No tracks could be verified as accurate
You may have a different pressing from the one(s) in the database

End of status report

==== Log checksum BC6114B455F711CEA7150987AC41BACD9F075DAA77427E85BC96E9C36823A621 ====

[CUETools log; Date: 29.08.2020 14:47:52; Version: 2.1.4]
[CTDB TOCID: LpUT0CqywqWxES7H01l7wJi9Vlc-] found.
Track | CTDB Status
1 | (10/10) Accurately ripped
2 | (10/10) Accurately ripped
3 | (10/10) Accurately ripped
4 | (10/10) Accurately ripped
5 | (10/10) Accurately ripped
6 | ( 7/10) Accurately ripped
7 | ( 7/10) Accurately ripped
8 | (10/10) Accurately ripped
[AccurateRip ID: 00067868-002ab9fb-5d04cb08] found.
Track [ CRC | V2 ] Status
01 [429a80cd|eae54689] (0+2/4) Accurately ripped
02 [cebbe738|d6a53a11] (0+2/5) Accurately ripped
03 [c2df1c55|0149f5f0] (0+2/2) Accurately ripped
04 [a6050f2b|581533b5] (0+2/2) Accurately ripped
05 [d704e34a|74967ecf] (0+2/2) Accurately ripped
06 [47cc9f8a|29123b29] (0+2/4) Accurately ripped
07 [df036d8c|8c96189a] (0+2/4) Accurately ripped
08 [e3c830ca|a3cad604] (0+2/4) Accurately ripped
Offsetted by -30:
01 [2e93ae1a] (2/4) Accurately ripped
02 [39503b2d] (3/5) Accurately ripped
03 [16d7a0ec] (0/2) No match (V2 was not tested)
04 [8d2761b0] (0/2) No match (V2 was not tested)
05 [02920e0b] (0/2) No match (V2 was not tested)
06 [3cd1dd54] (2/4) Accurately ripped
07 [d298f02a] (2/4) Accurately ripped
08 [70ba5181] (2/4) Accurately ripped

Track Peak [ CRC32 ] [W/O NULL] [ LOG ]
– 100,0 [906DF225] [3A4B75EB] CRC32
01 100,0 [702537F0] [231F8E33]
02 100,0 [548FF577] [20DCCBDB]
03 100,0 [C9D00131] [9CEE62D6]
04 100,0 [46D5224D] [4A49CEFD]
05 100,0 [EDFDBE9C] [F373DC12]
06 100,0 [9FFFD9DF] [B7C74AC8]
07 100,0 [73B8EDBB] [1217CAFA]
08 100,0 [A10250D4] [4BB567CF]

The Reverend Peyton's Big Damn Band - 3 Albums (2006-2011)

The Reverend Peyton's Big Damn Band - Peyton On Patton (2011)
EAC Rip | WavPack (image+.cue+log) - 160 MB | MP3 CBR 320 kbps (LAME 3.93) - 72 MB | Covers - 97 MB
Genre: Country Blues | RAR 3% Rec. | Label: SideOneDummy Records (SD1453-2)

Tracklist:
01. Jesus Is A Dying-Bed Maker
02. Some Of These Days I'll Be Gone (Charley Version)
03. Mississippi Boweavil Blues
04. Elder Greene Blues
05. Tom Rushen Blues
06. Some Happy Day
07. Some Of These Days I'll Be Gone (Banjo Version)
08. Green River Blues
09. Prayer Of Death Pt. 1
10. A Spoonful Blues
11. You're Gonna Need Someone (When You Come To Die)
12. Shake It And Break It
13. Some Of These Days I'll Be Gone (Rev. Peyton Slide Version)

Total time: 30:31

Exact Audio Copy V1.0 beta 2 from 29. April 2011

EAC extraction logfile from 15. September 2011, 0:57

The Reverend Peyton's Big Damn Band / Peyton On Patton

Used drive : HL-DT-STDVD-RAM GH22LP20 Adapter: 4 ID: 1

Read mode : Secure
Utilize accurate stream : Yes
Defeat audio cache : Yes
Make use of C2 pointers : No

Read offset correction : 102
Overread into Lead-In and Lead-Out : No
Fill up missing offset samples with silence : Yes
Delete leading and trailing silent blocks : No
Null samples used in CRC calculations : Yes
Used interface : Installed external ASPI interface

Used output format : User Defined Encoder
Selected bitrate : 896 kBit/s
Quality : High
Add ID3 tag : No
Command line compressor : C:\Program Files (x86)\Exact Audio Copy\WAV Pack\wavpack.exe
Additional command line options : -hlmx2 %source% %dest%


TOC of the extracted CD

Track | Start | Length | Start sector | End sector
––––––––––––––––––––––––––––-
1 | 0:00.00 | 2:11.31 | 0 | 9855
2 | 2:11.31 | 1:52.13 | 9856 | 18268
3 | 4:03.44 | 2:32.66 | 18269 | 29734
4 | 6:36.35 | 3:25.65 | 29735 | 45174
5 | 10:02.25 | 2:23.15 | 45175 | 55914
6 | 12:25.40 | 1:59.42 | 55915 | 64881
7 | 14:25.07 | 2:06.26 | 64882 | 74357
8 | 16:31.33 | 3:00.55 | 74358 | 87912
9 | 19:32.13 | 3:01.26 | 87913 | 101513
10 | 22:33.39 | 1:36.29 | 101514 | 108742
11 | 24:09.68 | 2:10.22 | 108743 | 118514
12 | 26:20.15 | 1:56.31 | 118515 | 127245
13 | 28:16.46 | 2:14.65 | 127246 | 137360


Range status and errors

Selected range

Filename X:\Releases RAW\The Reverend Peyton's Big Damn Band - Peyton On Patton\The Reverend Peyton's Big Damn Band - Peyton On Patton.wav

Peak level 100.0 %
Extraction speed 2.2 X
Range quality 100.0 %
Test CRC EFCB5986
Copy CRC EFCB5986
Copy OK

No errors occurred


AccurateRip summary

Track 1 not present in database
Track 2 not present in database
Track 3 not present in database
Track 4 not present in database
Track 5 not present in database
Track 6 not present in database
Track 7 not present in database
Track 8 not present in database
Track 9 not present in database
Track 10 not present in database
Track 11 not present in database
Track 12 not present in database
Track 13 not present in database

None of the tracks are present in the AccurateRip database

End of status report

==== Log checksum FD24D8BF0AAEA9219508EF8FD8A45AEED0E4D2B2CEBB96850C75B073C5CA2BA5 ====

[CUETools log; Date: 29.08.2020 14:48:41; Version: 2.1.4]
[CTDB TOCID: WceE0xFdh1W4ISzWdT_z83q6T.Y-] found.
Track | CTDB Status
1 | (16/16) Accurately ripped
2 | (16/16) Accurately ripped
3 | (16/16) Accurately ripped
4 | (16/16) Accurately ripped
5 | (16/16) Accurately ripped
6 | (16/16) Accurately ripped
7 | (16/16) Accurately ripped
8 | (16/16) Accurately ripped
9 | (16/16) Accurately ripped
10 | (16/16) Accurately ripped
11 | (16/16) Accurately ripped
12 | (16/16) Accurately ripped
13 | (16/16) Accurately ripped
[AccurateRip ID: 000ef21a-0095a001-bc07270d] found.
Track [ CRC | V2 ] Status
01 [27d3d799|6800963c] (03+11/14) Accurately ripped
02 [74733070|9483f5ed] (03+11/14) Accurately ripped
03 [0b8a1a88|7288a240] (03+11/14) Accurately ripped
04 [18c9ce0b|ad866510] (03+11/14) Accurately ripped
05 [8df67b5c|7d65a5f6] (03+11/14) Accurately ripped
06 [72e3f923|f8eae71e] (03+11/14) Accurately ripped
07 [417b7b1a|9f5ea211] (03+11/14) Accurately ripped
08 [8bff2c80|3e8a2a36] (03+11/14) Accurately ripped
09 [8a98dd87|71a7b7ea] (03+11/14) Accurately ripped
10 [4e04b077|c2beb7ca] (03+11/14) Accurately ripped
11 [8288adbd|a513312f] (03+10/13) Accurately ripped
12 [beb03182|8cc72717] (03+10/13) Accurately ripped
13 [25f539b1|76b87b6f] (03+11/14) Accurately ripped

Track Peak [ CRC32 ] [W/O NULL] [ LOG ]
– 100,0 [EFCB5986] [8985B31F] CRC32
01 100,0 [5B49D35C] [358203C1]
02 99,8 [CEC440DC] [5CC05A37]
03 99,9 [190C01C9] [55CD03AB]
04 100,0 [0741D08E] [F1D5AA7F]
05 100,0 [F75919D3] [7559ACB0]
06 99,6 [ED10C842] [E0F75959]
07 100,0 [8AF05757] [8F638DC5]
08 98,9 [C48BAB87] [FC627145]
09 99,9 [E4F1AC10] [06881F82]
10 99,0 [0E216484] [4D0CF9E2]
11 100,0 [8C488682] [2FEE1C8C]
12 99,7 [E926CD64] [2042C688]
13 100,0 [5E4AA483] [861B1C16]

Thanks to Гордый