Subcategories

The Rolling Stones - Hyde Park Live (2013)

Posted By: flac jacket
The Rolling Stones - Hyde Park Live (2013)

The Rolling Stones - Hyde Park Live (2013)
FLAC (Tracks) - 827 MB | Cover Included In Both Archives | MP3 (CBR320 Kbps) - 268 MB
Rock | Universal International Music B.V. | 111:28 minutes | 5% WinRar Recovery | Hosted on: FilePost & Uploaded

The Rolling Stones have released portions of their last two concerts as a digital-only live album. Hyde Park Live, drawn from the band's gigs in London on 6 and 13 July.

This 19-song collection features highlights from both of the Stones' recent shows, including performances of Start Me Up, Brown Sugar and Paint It Black and the show's guest appearance from Mick Taylor, who features on their rendition of Midnight Rambler and (I Can't Get No) Satisfaction. Even if you already have a live disc by the Stones, only eight of the tracks featured on the digital-only release appeared on their most recent concert album, 2008's Shine a Light.

About 65,000 punters paid between £95 and £299 to see the Stones each night at Hyde Park, compared to the 200,000 people who watched them for free 44 years before. Yet despite complaints about ticket prices, many fans seemed to feel that they received their money's worth: both shows garnered rave reviews. "The bank manager long ago won the battle for the heart of the Stones," wrote Michael Hann, "but their muscle memory and catalogue mean they are still a fearsome force once they're in full flow."


auCDtect: CD records authenticity detector, version 0.8.2
Copyright © 2004 Oleg Berngardt. All rights reserved.
Copyright © 2004 Alexander Djourik. All rights reserved.

Detect mode (0..40 with 0 = most accurate): 8 (default)


01 - Start Me Up.wav: track looks like CDDA with probability 100%.
02 - It's Only Rock 'N' Roll.wav: track looks like CDDA with probability 100%.
03 - Tumbling Dice.wav: track looks like CDDA with probability 100%.
04 - Emotional Rescue.wav: track looks like CDDA with probability 100%.
05 - Street Fighting Man.wav: track looks like CDDA with probability 100%.
06 - Ruby Tuesday.wav: track looks like CDDA with probability 100%.
07 - Doom and Gloom.wav: track looks like CDDA with probability 100%.
08 - Paint It Black.wav: track looks like CDDA with probability 99%.
09 - Honky Tonk Women.wav: track looks like CDDA with probability 100%.
10 - You Got the Silver.wav: track looks like CDDA with probability 100%.
11 - Before They Make Me Run.wav: track looks like CDDA with probability 100%.
12 - Miss You.wav: track looks like CDDA with probability 100%.
13 - Midnight Rambler.wav: track looks like CDDA with probability 100%.
14 - Gimme Shelter.wav: track looks like CDDA with probability 100%.
15 - Jumpin' Jack Flash.wav: track looks like CDDA with probability 100%.
16 - Sympathy for the Devil.wav: track looks like CDDA with probability 100%.
17 - Brown Sugar.wav: track looks like CDDA with probability 100%.
18 - You Can’t Always Get What You Want.wav: track looks like CDDA with probability 99%.
19 - (I Can’t Get No) Satisfaction.wav: track looks like CDDA with probability 100%.


Track Listing:

01. Start Me Up (4:18)
02. It's Only Rock 'N' Roll (4:47)
03. Tumbling Dice (4:05)
04. Emotional Rescue (5:54)
05. Street Fighting Man (5:23)
06. Ruby Tuesday (3:22)
07. Doom and Gloom (4:17)
08. Paint It Black (5:01)
09. Honky Tonk Women (6:59)
10. You Got the Silver (3:18)
11. Before They Make Me Run (4:33)
12. Miss You (7:19)
13. Midnight Rambler (11:55)
14. Gimme Shelter (7:16)
15. Jumpin' Jack Flash (4:54)
16. Sympathy for the Devil (6:47)
17. Brown Sugar (4:55)
18. You Can’t Always Get What You Want (8:05)
19. (I Can’t Get No) Satisfaction (8:20)


Recorded Live: July 6 and 13, 2013
Digital Album Released: July 22, 2013


foobar2000 1.1.7 / Dynamic Range Meter 1.1.0
log date: 2013-07-29 00:13:27

––––––––––––––––––––––––––––––––––––––––
Analyzed: The Rolling Stones / Hyde Park Live
––––––––––––––––––––––––––––––––––––––––

DR Peak RMS Duration Track
––––––––––––––––––––––––––––––––––––––––
DR6 0.00 dB -6.71 dB 4:18 01-Start Me Up
DR5 0.00 dB -5.79 dB 4:47 02-It's Only Rock 'N' Roll
DR6 0.00 dB -6.68 dB 4:05 03-Tumbling Dice
DR6 0.00 dB -6.80 dB 5:54 04-Emotional Rescue
DR5 0.00 dB -5.88 dB 5:23 05-Street Fighting Man
DR7 0.00 dB -8.90 dB 3:22 06-Ruby Tuesday
DR6 0.00 dB -6.59 dB 4:17 07-Doom and Gloom
DR6 0.00 dB -6.59 dB 5:01 08-Paint It Black
DR6 0.00 dB -8.50 dB 6:59 09-Honky Tonk Women
DR9 0.00 dB -11.90 dB 3:18 10-You Got the Silver
DR6 0.00 dB -7.10 dB 4:33 11-Before They Make Me Run
DR6 0.00 dB -7.09 dB 7:19 12-Miss You
DR5 0.00 dB -6.59 dB 11:55 13-Midnight Rambler
DR6 0.00 dB -6.49 dB 7:16 14-Gimme Shelter
DR6 0.00 dB -6.19 dB 4:54 15-Jumpin' Jack Flash
DR6 0.00 dB -6.81 dB 6:47 16-Sympathy for the Devil
DR6 0.00 dB -6.52 dB 4:55 17-Brown Sugar
DR5 0.00 dB -7.59 dB 8:05 18-You Can’t Always Get What You Want
DR5 0.00 dB -6.04 dB 8:20 19-(I Can’t Get No) Satisfaction
––––––––––––––––––––––––––––––––––––––––

Number of tracks: 19
Official DR value: DR6

Samplerate: 44100 Hz
Channels: 2
Bits per sample: 16
Bitrate: 1032 kbps
Codec: FLAC
================================================================================

The Rolling 			  		  		  		 	    	 			   		  	   		  	   			  	  	 			   		  	   		 	    	 			   		   	  		      		    			 Stones - Hyde Park Live (2013)

The Rolling Stones - Hyde Park Live (2013)

5% WinRar Recovery