Subcategories

The Scream - Let It Scream (1991) [Japan 1st Press] Re-up

Posted By: Andi_Deris
The Scream - Let It Scream (1991) [Japan 1st Press] Re-up

The Scream - Let It Scream (1991) [Japan 1st Press]
EAC Rip | FLAC: Image+Cue+Log | 385 Mb | MP3 CBR 320 kbps | 134 Mb | Scans | 50:54
Pony Canyon, Inc. | PCCY-00304
Hard Rock

Let It Scream is the first album of the band The Scream. The song "I Don't Care" was co-written by the band's original drummer Scott Travis, who left The Scream, who were at the time known as Saints Or Sinners, to replace drummer Dave Holland in Judas Priest before Let It Scream was recorded. After this album, John Corabi left The Scream to replace Vince Neil in Mötley Crüe. Also after this album, former Dashboard Mary lead vocalist Billy Fogarty replaced John Corabi in The Scream, and the band made a radical change in their musical style.



The Scream - Let It Scream (1991) [Japan 1st Press] Re-up


Track Listing

01. Outlaw (3:21)
02. Believe in Me (3:47)
03. Man In the Moon (5:43)
04. Father, Mother, Son (4:18)
05. Give it Up (4:35)
06. Never Loved Her Anyway (3:24)
07. Tell Me Why (3:43)
08. Loves Got a Hold on Me (3:57)
09. I Don't Care (5:29)
10. Every Inch a Woman (3:35)
11. You Are All I Need (5:34)
12. Catch Me If You Can (3:28)

Produced by Eddie Kramer

The Band

• John Corabi - lead vocals, acoustic guitar
• Bruce Bouillet - electric guitar, acoustic guitar, lapsteel guitar
• John Alderete - bass, acoustic bass, vocals
• Walt Woodward III - drums, percussion, vocals

*****
Ray Gillen & Jeff Martin - Backing Vocals on "You Are All I Need"
Jimmy Waldo - Hammond B-3 on "You Are All I Need" and "Love's Got A Hold On Me"

Notes

The CD was released towards the end of the hair metal era, and The Scream was unfortunately lumped in with a bunch of bands that was not nearly as good. The Scream was a scorching hard rock outfit, which came off as a cross between Aerosmith and Cinderella. Every song on this disc is very good.

The Scream - Let It Scream (1991) [Japan 1st Press] Re-up


Exact Audio Copy V1.0 beta 3 from 29. August 2011

Отчёт EAC об извлечении, выполненном 7. декабря 2011, 17:21

The Scream / Let it Scream

Дисковод: HL-DT-STDVD-RAM GSA-H55L Adapter: 0 ID: 0

Режим чтения : Достоверность
Использование точного потока : Да
Отключение кэша аудио : Да
Использование указателей C2 : Нет

Коррекция смещения при чтении : 102
Способность читать области Lead-in и Lead-out : Нет
Заполнение пропущенных сэмплов тишиной : Да
Удаление блоков с тишиной в начале и конце : Нет
При вычислениях CRC использовались нулевые сэмплы : Да
Интерфейс : Установленный внешний ASPI-интерфейс

Выходной формат : Пользовательский кодировщик
Выбранный битрейт : 1024 kBit/s
Качество : Высокий
Добавление ID3-тега : Нет
Утилита сжатия : C:\Program Files\Exact Audio Copy\FLAC\FLAC.EXE
Дополнительные параметры : -V -8 -T "Date=%year%" -T "Genre=%genre%" %source%


TOC извлечённого CD

Трек | Старт | Длительность | Начальный сектор | Конечный сектор
––––––––––––––––––––––––––––––––––-
1 | 0:00.00 | 3:21.05 | 0 | 15079
2 | 3:21.05 | 3:47.22 | 15080 | 32126
3 | 7:08.27 | 5:43.70 | 32127 | 57921
4 | 12:52.22 | 4:18.20 | 57922 | 77291
5 | 17:10.42 | 4:35.10 | 77292 | 97926
6 | 21:45.52 | 3:24.05 | 97927 | 113231
7 | 25:09.57 | 3:43.13 | 113232 | 129969
8 | 28:52.70 | 3:57.60 | 129970 | 147804
9 | 32:50.55 | 5:29.15 | 147805 | 172494
10 | 38:19.70 | 3:35.65 | 172495 | 188684
11 | 41:55.60 | 5:34.30 | 188685 | 213764
12 | 47:30.15 | 3:28.30 | 213765 | 229394


Характеристики диапазона извлечения и сообщения об ошибках

Выбранный диапазон

Имя файла F:\раздача\The Scream - Let It Scream\The Scream - Let it Scream.wav

Пиковый уровень 98.0 %
Скорость извлечения 2.6 X
Качество диапазона 100.0 %
CRC теста B1C5F702
CRC копии B1C5F702
Копирование… OK

Ошибок не произошло


AccurateRip: сводка

Трек 1 : извлечено точно (доверие 1) [487E4918] (AR v1)
Трек 2 : извлечено точно (доверие 1) [8D3653CC] (AR v1)
Трек 3 : извлечено точно (доверие 1) [11797BE7] (AR v1)
Трек 4 : извлечено точно (доверие 1) [7D39AE92] (AR v1)
Трек 5 : извлечено точно (доверие 1) [273880CB] (AR v1)
Трек 6 : извлечено точно (доверие 1) [D6C18376] (AR v1)
Трек 7 : извлечено точно (доверие 1) [A8574181] (AR v1)
Трек 8 : извлечено точно (доверие 1) [93D00E0A] (AR v1)
Трек 9 : извлечено точно (доверие 1) [209FA76C] (AR v1)
Трек 10 : извлечено точно (доверие 1) [5BCC2D60] (AR v1)
Трек 11 : извлечено точно (доверие 1) [CFBB974F] (AR v1)
Трек 12 : извлечено точно (доверие 1) [567DD5FE] (AR v1)

Все треки извлечены точно

Конец отчёта

–– CUETools DB Plugin V2.1.3

[CTDB TOCID: qXDDSN0bFOlq40C7EPlhCp6ClQM-] found, Submit result: qXDDSN0bFOlq40C7EPlhCp6ClQM- has been confirmed
[8e83fa37] (1/1) Accurately ripped


==== Контрольная сумма отчёта 548167570F08C5714FB5D14D9013C4197BE7A630CC78E3F1E3A582C87C146586 ====


Many thanks to the original uploader: afayurij



Password: pass