Subcategories

The Sisters Of Mercy - Original Album Series (2009) [5CDs Box] {Rhino}

Posted By: tiburon
The Sisters Of Mercy - Original Album Series (2009) [5CDs Box] {Rhino}

The Sisters Of Mercy - Original Album Series (2009) [5CDs Box] {Rhino}
X Lossless Decoder | FLAC tracks | Cue+Log+M3U | Full Scans 200dpi | 1.88GB + 5% Recovery
MP3 CBR 320 Kbps | 662MB + 5% Recovery
Genre: Gothic Rock, Darkwave, Post-Punk
The Sisters Of Mercy - Original Album Series (2009) [5CDs Box] {Rhino}

The Sisters of Mercy are an English rock band, formed in 1980 in Leeds. After achieving early underground fame there, the band had their commercial breakthrough in the mid-1980s and sustained it until the early 1990s, when they stopped releasing new recorded output in protest against their record company WEA. Currently, the band are a touring outfit only. The group has released three original studio albums, the last of which was released in 1990. Each album was recorded by a different line-up; singer-songwriter Andrew Eldritch and the drum machine called Doktor Avalanche are the only points of continuity throughout. Eldritch and Avalanche were also involved in The Sisterhood, a side-project connected with Eldritch's dispute with former members.

Track List

The Sisters Of Mercy - Original Album Series (2009) [5CDs Box] {Rhino}


Disc 1 - First and Last and Always (1985)


1. Black Planet
2. Walk Away
3. No Time to Cry
4. A Rock and a Hard Place
5. Marian
6. First and Last and Always
7. Possession
8. Nine While Nine
9. Amphetamine Logic
10. Some Kind of Stranger

The Sisters Of Mercy - Original Album Series (2009) [5CDs Box] {Rhino}


Disc 2 - Floodland (1987)


1. Dominion/Mother Russia
2. Flood I
3. Lucretia My Reflection
4. 1959
5. This Corrosion
6. Flood II
7. Driven Like the Snow
8. Never Land (A Fragment)
9. Torch
10. Colours

The Sisters Of Mercy - Original Album Series (2009) [5CDs Box] {Rhino}


Disc 3 - Vision Thing (1990)


1. Vision Thing
2. Ribbons
3. Detonation Boulevard
4. Something Fast
5. When You Don't See Me
6. Doctor Jeep
7. More
8. I Was Wrong

The Sisters Of Mercy - Original Album Series (2009) [5CDs Box] {Rhino}


Disc 4 - Some Girls Wander by Mistake (1992)


1. Alice
2. Floorshow
3. Phantom
4. 1969
5. Kiss the Carpet
6. Lights
7. Valentine
8. Fix
9. Burn
10. Kiss the Carpet (Reprise)
11. Temple of Love (Extended Version)
12. Heartland
13. Gimme Shelter
14. The Damage Done
15. Watch
16. Home of the Hit-men
17. Body Electric
18. Adrenochrome
19. Anaconda

The Sisters Of Mercy - Original Album Series (2009) [5CDs Box] {Rhino}


Disc 5 - A Slight Case of Overbombing (1993)


1. Under the Gun
2. Temple of Love
3. Vision Thing
4. Detonation Boulevard
5. Doctor Jeep (Radio Edit)
6. More
7. Lucretia My Reflection
8. Dominion/Mother Russia
9. This Corrosion
10. No Time to Cry
11. Walk Away
12. Body and Soul


X Lossless Decoder version 20110703 (135.1)

XLD extraction logfile from 2011-08-05 20:29:08 +0000

The Sisters of Mercy / First and Last and Always

Used drive : HL-DT-ST DVDRW GS23N (revision SB07)

Ripper mode : CDParanoia III 10.2
Disable audio cache : OK for the drive with a cache less than 2750KiB
Make use of C2 pointers : NO
Read offset correction : 667
Max retry count : 100
Gap status : Analyzed, Appended

TOC of the extracted CD
Track | Start | Length | Start sector | End sector
––––––––––––––––––––––––––––-
1 | 00:00:00 | 04:41:62 | 0 | 21136
2 | 04:41:62 | 03:24:15 | 21137 | 36451
3 | 08:06:02 | 03:59:18 | 36452 | 54394
4 | 12:05:20 | 03:35:35 | 54395 | 70554
5 | 15:40:55 | 05:43:10 | 70555 | 96289
6 | 21:23:65 | 04:15:17 | 96290 | 115431
7 | 25:39:07 | 04:42:08 | 115432 | 136589
8 | 30:21:15 | 04:10:35 | 136590 | 155374
9 | 34:31:50 | 04:51:40 | 155375 | 177239
10 | 39:23:15 | 07:20:22 | 177240 | 210261

List of alternate offset correction values
# | Absolute | Relative | Confidence
–––––––––––––––––––––
1 | 1995 | 1328 | 95

AccurateRip Summary
Track 01 : OK (AR2, confidence 6)
Track 02 : OK (AR2, confidence 6)
Track 03 : OK (AR2, confidence 6)
Track 04 : OK (AR2, confidence 6)
Track 05 : OK (AR2, confidence 6)
Track 06 : OK (AR2, confidence 6)
Track 07 : OK (AR2, confidence 6)
Track 08 : OK (AR2, confidence 6)
Track 09 : OK (AR2, confidence 6)
Track 10 : OK (AR2, confidence 6)
->All tracks accurately ripped.

All Tracks
Album gain : -4.26 dB
Peak : 1.000000
Statistics
Read error : 0
Skipped (treated as error) : 0
Edge jitter error (maybe fixed) : 0
Atom jitter error (maybe fixed) : 0
Drift error (maybe fixed) : 0
Dropped bytes error (maybe fixed) : 0
Duplicated bytes error (maybe fixed) : 0

Track 01
Filename : /The Sisters of Mercy - First and Last and Always (0825646839476)/01 The Sisters of Mercy - Black Planet.flac
Pre-gap length : 00:02:00

Track gain : -4.47 dB
Peak : 0.944336
CRC32 hash (test run) : 1DE5DEBD
CRC32 hash : 1DE5DEBD
CRC32 hash (skip zero) : 8FE00D43
AccurateRip signature : 32CADC1F
->Accurately ripped! (AR2, confidence 6)
Statistics
Read error : 0
Skipped (treated as error) : 0
Edge jitter error (maybe fixed) : 0
Atom jitter error (maybe fixed) : 0
Drift error (maybe fixed) : 0
Dropped bytes error (maybe fixed) : 0
Duplicated bytes error (maybe fixed) : 0
Inconsistency in error sectors : 0

Track 02
Filename : /The Sisters of Mercy - First and Last and Always (0825646839476)/02 The Sisters of Mercy - Walk Away.flac
Pre-gap length : 00:04:30

Track gain : -4.57 dB
Peak : 0.999969
CRC32 hash (test run) : BC43DA24
CRC32 hash : BC43DA24
CRC32 hash (skip zero) : 455B6A9A
AccurateRip signature : 3ED6059B
->Accurately ripped! (AR2, confidence 6)
Statistics
Read error : 0
Skipped (treated as error) : 0
Edge jitter error (maybe fixed) : 0
Atom jitter error (maybe fixed) : 0
Drift error (maybe fixed) : 0
Dropped bytes error (maybe fixed) : 0
Duplicated bytes error (maybe fixed) : 0
Inconsistency in error sectors : 0

Track 03
Filename : /The Sisters of Mercy - First and Last and Always (0825646839476)/03 The Sisters of Mercy - No Time to Cry.flac
Pre-gap length : 00:00:05

Track gain : -4.47 dB
Peak : 1.000000
CRC32 hash (test run) : 9B4A9719
CRC32 hash : 9B4A9719
CRC32 hash (skip zero) : 93A3B0FB
AccurateRip signature : 5199624E
->Accurately ripped! (AR2, confidence 6)
Statistics
Read error : 0
Skipped (treated as error) : 0
Edge jitter error (maybe fixed) : 0
Atom jitter error (maybe fixed) : 0
Drift error (maybe fixed) : 0
Dropped bytes error (maybe fixed) : 0
Duplicated bytes error (maybe fixed) : 0
Inconsistency in error sectors : 0

Track 04
Filename : /The Sisters of Mercy - First and Last and Always (0825646839476)/04 The Sisters of Mercy - A Rock and a Hard Place.flac
Pre-gap length : 00:03:45

Track gain : -3.70 dB
Peak : 0.857819
CRC32 hash (test run) : EC6E7810
CRC32 hash : EC6E7810
CRC32 hash (skip zero) : 06C918DC
AccurateRip signature : F6DB9163
->Accurately ripped! (AR2, confidence 6)
Statistics
Read error : 0
Skipped (treated as error) : 0
Edge jitter error (maybe fixed) : 0
Atom jitter error (maybe fixed) : 0
Drift error (maybe fixed) : 0
Dropped bytes error (maybe fixed) : 0
Duplicated bytes error (maybe fixed) : 0
Inconsistency in error sectors : 0

Track 05
Filename : /The Sisters of Mercy - First and Last and Always (0825646839476)/05 The Sisters of Mercy - Marian (version).flac
Pre-gap length : 00:03:38

Track gain : -3.42 dB
Peak : 0.999969
CRC32 hash (test run) : F44D685B
CRC32 hash : F44D685B
CRC32 hash (skip zero) : 4BD4E0A3
AccurateRip signature : 9B0A34D1
->Accurately ripped! (AR2, confidence 6)
Statistics
Read error : 0
Skipped (treated as error) : 0
Edge jitter error (maybe fixed) : 0
Atom jitter error (maybe fixed) : 0
Drift error (maybe fixed) : 0
Dropped bytes error (maybe fixed) : 0
Duplicated bytes error (maybe fixed) : 0
Inconsistency in error sectors : 0

Track 06
Filename : /The Sisters of Mercy - First and Last and Always (0825646839476)/06 The Sisters of Mercy - First and Last and Always.flac
Pre-gap length : 00:01:25

Track gain : -4.54 dB
Peak : 0.966003
CRC32 hash (test run) : 313B92CE
CRC32 hash : 313B92CE
CRC32 hash (skip zero) : 1E37F562
AccurateRip signature : 9715ADD2
->Accurately ripped! (AR2, confidence 6)
Statistics
Read error : 0
Skipped (treated as error) : 0
Edge jitter error (maybe fixed) : 0
Atom jitter error (maybe fixed) : 0
Drift error (maybe fixed) : 0
Dropped bytes error (maybe fixed) : 0
Duplicated bytes error (maybe fixed) : 0
Inconsistency in error sectors : 0

Track 07
Filename : /The Sisters of Mercy - First and Last and Always (0825646839476)/07 The Sisters of Mercy - Possession.flac
Pre-gap length : 00:02:07

Track gain : -2.26 dB
Peak : 0.830688
CRC32 hash (test run) : C771B47F
CRC32 hash : C771B47F
CRC32 hash (skip zero) : 892378D3
AccurateRip signature : 3824C517
->Accurately ripped! (AR2, confidence 6)
Statistics
Read error : 0
Skipped (treated as error) : 0
Edge jitter error (maybe fixed) : 0
Atom jitter error (maybe fixed) : 0
Drift error (maybe fixed) : 0
Dropped bytes error (maybe fixed) : 0
Duplicated bytes error (maybe fixed) : 0
Inconsistency in error sectors : 0

Track 08
Filename : /The Sisters of Mercy - First and Last and Always (0825646839476)/08 The Sisters of Mercy - Nine While Nine.flac
Pre-gap length : 00:03:45

Track gain : -3.57 dB
Peak : 0.962067
CRC32 hash (test run) : 764938BB
CRC32 hash : 764938BB
CRC32 hash (skip zero) : EB622023
AccurateRip signature : 11A3A909
->Accurately ripped! (AR2, confidence 6)
Statistics
Read error : 0
Skipped (treated as error) : 0
Edge jitter error (maybe fixed) : 0
Atom jitter error (maybe fixed) : 0
Drift error (maybe fixed) : 0
Dropped bytes error (maybe fixed) : 0
Duplicated bytes error (maybe fixed) : 0
Inconsistency in error sectors : 0

Track 09
Filename : /The Sisters of Mercy - First and Last and Always (0825646839476)/09 The Sisters of Mercy - Amphetamine Logic.flac
Pre-gap length : 00:02:33

Track gain : -4.71 dB
Peak : 0.971832
CRC32 hash (test run) : F9046C2B
CRC32 hash : F9046C2B
CRC32 hash (skip zero) : 1EF0334A
AccurateRip signature : DADC33A9
->Accurately ripped! (AR2, confidence 6)
Statistics
Read error : 0
Skipped (treated as error) : 0
Edge jitter error (maybe fixed) : 0
Atom jitter error (maybe fixed) : 0
Drift error (maybe fixed) : 0
Dropped bytes error (maybe fixed) : 0
Duplicated bytes error (maybe fixed) : 0
Inconsistency in error sectors : 0

Track 10
Filename : /The Sisters of Mercy - First and Last and Always (0825646839476)/10 The Sisters of Mercy - Some Kind of Stranger.flac
Pre-gap length : 00:01:15

Track gain : -4.80 dB
Peak : 0.999969
CRC32 hash (test run) : 19D5C6C4
CRC32 hash : 19D5C6C4
CRC32 hash (skip zero) : 371FF342
AccurateRip signature : 933DC04A
->Accurately ripped! (AR2, confidence 6)
Statistics
Read error : 0
Skipped (treated as error) : 0
Edge jitter error (maybe fixed) : 0
Atom jitter error (maybe fixed) : 0
Drift error (maybe fixed) : 0
Dropped bytes error (maybe fixed) : 0
Duplicated bytes error (maybe fixed) : 0
Inconsistency in error sectors : 0

No errors occurred

End of status report

______________________________________________________________________
X Lossless Decoder version 20110703 (135.1)

XLD extraction logfile from 2011-08-05 21:10:33 +0000

The Sisters of Mercy / Floodland

Used drive : HL-DT-ST DVDRW GS23N (revision SB07)

Ripper mode : CDParanoia III 10.2
Disable audio cache : OK for the drive with a cache less than 2750KiB
Make use of C2 pointers : NO
Read offset correction : 667
Max retry count : 100
Gap status : Analyzed, Appended

TOC of the extracted CD
Track | Start | Length | Start sector | End sector
––––––––––––––––––––––––––––-
1 | 00:00:00 | 07:01:70 | 0 | 31644
2 | 07:01:70 | 06:22:33 | 31645 | 60327
3 | 13:24:28 | 04:56:47 | 60328 | 82574
4 | 18:21:00 | 04:10:38 | 82575 | 101362
5 | 22:31:38 | 10:55:10 | 101363 | 150497
6 | 33:26:48 | 06:46:40 | 150498 | 180987
7 | 40:13:13 | 06:27:72 | 180988 | 210084
8 | 46:41:10 | 02:56:15 | 210085 | 223299
9 | 49:37:25 | 03:49:63 | 223300 | 240537
10 | 53:27:13 | 07:18:22 | 240538 | 273409

List of alternate offset correction values
# | Absolute | Relative | Confidence
–––––––––––––––––––––
1 | 1995 | 1328 | 141
2 | 1786 | 1119 | 122
3 | 1258 | 591 | 2

AccurateRip Summary
Track 01 : OK (AR2, confidence 6)
Track 02 : OK (AR2, confidence 5)
Track 03 : OK (AR2, confidence 6)
Track 04 : OK (AR2, confidence 6)
Track 05 : OK (AR2, confidence 6)
Track 06 : OK (AR2, confidence 6)
Track 07 : OK (AR2, confidence 6)
Track 08 : OK (AR2, confidence 6)
Track 09 : OK (AR2, confidence 6)
Track 10 : OK (AR2, confidence 6)
->All tracks accurately ripped.

All Tracks
Album gain : -3.05 dB
Peak : 0.999969
Statistics
Read error : 0
Skipped (treated as error) : 0
Edge jitter error (maybe fixed) : 0
Atom jitter error (maybe fixed) : 0
Drift error (maybe fixed) : 0
Dropped bytes error (maybe fixed) : 0
Duplicated bytes error (maybe fixed) : 0

Track 01
Filename : /The Sisters of Mercy - Floodland (0825646839476)/01 The Sisters of Mercy - Dominion / Mother Russia.flac
Pre-gap length : 00:02:00

Track gain : -3.89 dB
Peak : 0.852356
CRC32 hash (test run) : CAFC2FAF
CRC32 hash : CAFC2FAF
CRC32 hash (skip zero) : 5B69CA1D
AccurateRip signature : 839D1A9D
->Accurately ripped! (AR2, confidence 6)
Statistics
Read error : 0
Skipped (treated as error) : 0
Edge jitter error (maybe fixed) : 0
Atom jitter error (maybe fixed) : 0
Drift error (maybe fixed) : 0
Dropped bytes error (maybe fixed) : 0
Duplicated bytes error (maybe fixed) : 0
Inconsistency in error sectors : 0

Track 02
Filename : /The Sisters of Mercy - Floodland (0825646839476)/02 The Sisters of Mercy - Flood I.flac

Track gain : -1.65 dB
Peak : 0.910065
CRC32 hash (test run) : 7587319E
CRC32 hash : 7587319E
CRC32 hash (skip zero) : C82627E5
AccurateRip signature : EFEE6969
->Accurately ripped! (AR2, confidence 5)
Statistics
Read error : 0
Skipped (treated as error) : 0
Edge jitter error (maybe fixed) : 0
Atom jitter error (maybe fixed) : 0
Drift error (maybe fixed) : 0
Dropped bytes error (maybe fixed) : 0
Duplicated bytes error (maybe fixed) : 0
Inconsistency in error sectors : 0

Track 03
Filename : /The Sisters of Mercy - Floodland (0825646839476)/03 The Sisters of Mercy - Lucretia My Reflection.flac

Track gain : -4.80 dB
Peak : 0.999969
CRC32 hash (test run) : FC6B06E4
CRC32 hash : FC6B06E4
CRC32 hash (skip zero) : 1D6EC721
AccurateRip signature : B7FE192E
->Accurately ripped! (AR2, confidence 6)
Statistics
Read error : 0
Skipped (treated as error) : 0
Edge jitter error (maybe fixed) : 0
Atom jitter error (maybe fixed) : 0
Drift error (maybe fixed) : 0
Dropped bytes error (maybe fixed) : 0
Duplicated bytes error (maybe fixed) : 0
Inconsistency in error sectors : 0

Track 04
Filename : /The Sisters of Mercy - Floodland (0825646839476)/04 The Sisters of Mercy - 1959.flac

Track gain : 2.56 dB
Peak : 0.564514
CRC32 hash (test run) : AB29C4C4
CRC32 hash : AB29C4C4
CRC32 hash (skip zero) : 7133DDBA
AccurateRip signature : 6EE8F0BC
->Accurately ripped! (AR2, confidence 6)
Statistics
Read error : 0
Skipped (treated as error) : 0
Edge jitter error (maybe fixed) : 0
Atom jitter error (maybe fixed) : 0
Drift error (maybe fixed) : 0
Dropped bytes error (maybe fixed) : 0
Duplicated bytes error (maybe fixed) : 0
Inconsistency in error sectors : 0

Track 05
Filename : /The Sisters of Mercy - Floodland (0825646839476)/05 The Sisters of Mercy - This Corrosion.flac
Pre-gap length : 00:02:50

Track gain : -3.47 dB
Peak : 0.876404
CRC32 hash (test run) : 686C7497
CRC32 hash : 686C7497
CRC32 hash (skip zero) : 399BAFAC
AccurateRip signature : 49C47B19
->Accurately ripped! (AR2, confidence 6)
Statistics
Read error : 0
Skipped (treated as error) : 0
Edge jitter error (maybe fixed) : 0
Atom jitter error (maybe fixed) : 0
Drift error (maybe fixed) : 0
Dropped bytes error (maybe fixed) : 0
Duplicated bytes error (maybe fixed) : 0
Inconsistency in error sectors : 0

Track 06
Filename : /The Sisters of Mercy - Floodland (0825646839476)/06 The Sisters of Mercy - Flood II.flac

Track gain : -2.24 dB
Peak : 0.999969
CRC32 hash (test run) : DF5380DB
CRC32 hash : DF5380DB
CRC32 hash (skip zero) : 96F8941C
AccurateRip signature : 06612705
->Accurately ripped! (AR2, confidence 6)
Statistics
Read error : 0
Skipped (treated as error) : 0
Edge jitter error (maybe fixed) : 0
Atom jitter error (maybe fixed) : 0
Drift error (maybe fixed) : 0
Dropped bytes error (maybe fixed) : 0
Duplicated bytes error (maybe fixed) : 0
Inconsistency in error sectors : 0

Track 07
Filename : /The Sisters of Mercy - Floodland (0825646839476)/07 The Sisters of Mercy - Driven Like the Snow.flac

Track gain : 2.28 dB
Peak : 0.657623
CRC32 hash (test run) : 94CFD592
CRC32 hash : 94CFD592
CRC32 hash (skip zero) : 63F7C10E
AccurateRip signature : 0B2F31EB
->Accurately ripped! (AR2, confidence 6)
Statistics
Read error : 0
Skipped (treated as error) : 0
Edge jitter error (maybe fixed) : 0
Atom jitter error (maybe fixed) : 0
Drift error (maybe fixed) : 0
Dropped bytes error (maybe fixed) : 0
Duplicated bytes error (maybe fixed) : 0
Inconsistency in error sectors : 0

Track 08
Filename : /The Sisters of Mercy - Floodland (0825646839476)/08 The Sisters of Mercy - Never Land (A Fragment).flac

Track gain : 0.23 dB
Peak : 0.866638
CRC32 hash (test run) : B527E1C6
CRC32 hash : B527E1C6
CRC32 hash (skip zero) : BA381386
AccurateRip signature : 46D00ADC
->Accurately ripped! (AR2, confidence 6)
Statistics
Read error : 0
Skipped (treated as error) : 0
Edge jitter error (maybe fixed) : 0
Atom jitter error (maybe fixed) : 0
Drift error (maybe fixed) : 0
Dropped bytes error (maybe fixed) : 0
Duplicated bytes error (maybe fixed) : 0
Inconsistency in error sectors : 0

Track 09
Filename : /The Sisters of Mercy - Floodland (0825646839476)/09 The Sisters of Mercy - Torch.flac
Pre-gap length : 00:10:12

Track gain : 3.81 dB
Peak : 0.609497
CRC32 hash (test run) : 57B1C7DA
CRC32 hash : 57B1C7DA
CRC32 hash (skip zero) : 93473290
AccurateRip signature : C3A2CFB1
->Accurately ripped! (AR2, confidence 6)
Statistics
Read error : 0
Skipped (treated as error) : 0
Edge jitter error (maybe fixed) : 0
Atom jitter error (maybe fixed) : 0
Drift error (maybe fixed) : 0
Dropped bytes error (maybe fixed) : 0
Duplicated bytes error (maybe fixed) : 0
Inconsistency in error sectors : 0

Track 10
Filename : /The Sisters of Mercy - Floodland (0825646839476)/10 The Sisters of Mercy - Colours.flac

Track gain : 1.11 dB
Peak : 0.667847
CRC32 hash (test run) : 29D8BEF6
CRC32 hash : 29D8BEF6
CRC32 hash (skip zero) : 2816C319
AccurateRip signature : 296DBD8F
->Accurately ripped! (AR2, confidence 6)
Statistics
Read error : 0
Skipped (treated as error) : 0
Edge jitter error (maybe fixed) : 0
Atom jitter error (maybe fixed) : 0
Drift error (maybe fixed) : 0
Dropped bytes error (maybe fixed) : 0
Duplicated bytes error (maybe fixed) : 0
Inconsistency in error sectors : 0

No errors occurred

End of status report

_____________________________________________________________________________
X Lossless Decoder version 20110703 (135.1)

XLD extraction logfile from 2011-08-05 21:50:45 +0000

The Sisters of Mercy / Vision Thing

Used drive : HL-DT-ST DVDRW GS23N (revision SB07)

Ripper mode : CDParanoia III 10.2
Disable audio cache : OK for the drive with a cache less than 2750KiB
Make use of C2 pointers : NO
Read offset correction : 667
Max retry count : 100
Gap status : Analyzed, Appended

TOC of the extracted CD
Track | Start | Length | Start sector | End sector
––––––––––––––––––––––––––––-
1 | 00:00:00 | 04:36:22 | 0 | 20721
2 | 04:36:22 | 05:25:70 | 20722 | 45166
3 | 10:02:17 | 03:52:25 | 45167 | 62591
4 | 13:54:42 | 04:37:03 | 62592 | 83369
5 | 18:31:45 | 04:54:22 | 83370 | 105441
6 | 23:25:67 | 04:41:68 | 105442 | 126584
7 | 28:07:60 | 08:23:10 | 126585 | 164319
8 | 36:30:70 | 06:03:62 | 164320 | 191606

List of alternate offset correction values
# | Absolute | Relative | Confidence
–––––––––––––––––––––
1 | 2674 | 2007 | 222
2 | 1977 | 1310 | 50
3 | 2680 | 2013 | 2

AccurateRip Summary
Track 01 : OK (AR2, confidence 6)
Track 02 : OK (AR2, confidence 6)
Track 03 : OK (AR2, confidence 6)
Track 04 : OK (AR2, confidence 6)
Track 05 : OK (AR2, confidence 6)
Track 06 : OK (AR2, confidence 6)
Track 07 : OK (AR2, confidence 6)
Track 08 : OK (AR2, confidence 6)
->All tracks accurately ripped.

All Tracks
Album gain : -1.36 dB
Peak : 1.000000
Statistics
Read error : 0
Skipped (treated as error) : 0
Edge jitter error (maybe fixed) : 0
Atom jitter error (maybe fixed) : 0
Drift error (maybe fixed) : 0
Dropped bytes error (maybe fixed) : 0
Duplicated bytes error (maybe fixed) : 0

Track 01
Filename : /The Sisters of Mercy - Vision Thing (0825646839476)/01 The Sisters of Mercy - Vision Thing.flac
Pre-gap length : 00:02:00

Track gain : -2.75 dB
Peak : 1.000000
CRC32 hash (test run) : 25BBF0E2
CRC32 hash : 25BBF0E2
CRC32 hash (skip zero) : 723BC79B
AccurateRip signature : 08B62A6A
->Accurately ripped! (AR2, confidence 6)
Statistics
Read error : 0
Skipped (treated as error) : 0
Edge jitter error (maybe fixed) : 0
Atom jitter error (maybe fixed) : 0
Drift error (maybe fixed) : 0
Dropped bytes error (maybe fixed) : 0
Duplicated bytes error (maybe fixed) : 0
Inconsistency in error sectors : 0

Track 02
Filename : /The Sisters of Mercy - Vision Thing (0825646839476)/02 The Sisters of Mercy - Ribbons.flac

Track gain : -2.74 dB
Peak : 0.919342
CRC32 hash (test run) : DB5AE420
CRC32 hash : DB5AE420
CRC32 hash (skip zero) : 689DEFF5
AccurateRip signature : 1EC10A85
->Accurately ripped! (AR2, confidence 6)
Statistics
Read error : 0
Skipped (treated as error) : 0
Edge jitter error (maybe fixed) : 0
Atom jitter error (maybe fixed) : 0
Drift error (maybe fixed) : 0
Dropped bytes error (maybe fixed) : 0
Duplicated bytes error (maybe fixed) : 0
Inconsistency in error sectors : 0

Track 03
Filename : /The Sisters of Mercy - Vision Thing (0825646839476)/03 The Sisters of Mercy - Detonation Boulevard.flac
Pre-gap length : 00:00:12

Track gain : -0.04 dB
Peak : 0.936279
CRC32 hash (test run) : F84CDA6A
CRC32 hash : F84CDA6A
CRC32 hash (skip zero) : 7CDC2AB3
AccurateRip signature : DB62A5AA
->Accurately ripped! (AR2, confidence 6)
Statistics
Read error : 0
Skipped (treated as error) : 0
Edge jitter error (maybe fixed) : 0
Atom jitter error (maybe fixed) : 0
Drift error (maybe fixed) : 0
Dropped bytes error (maybe fixed) : 0
Duplicated bytes error (maybe fixed) : 0
Inconsistency in error sectors : 0

Track 04
Filename : /The Sisters of Mercy - Vision Thing (0825646839476)/04 The Sisters of Mercy - Something Fast.flac
Pre-gap length : 00:00:32

Track gain : 2.18 dB
Peak : 0.879456
CRC32 hash (test run) : 682D0272
CRC32 hash : 682D0272
CRC32 hash (skip zero) : D7DFADCD
AccurateRip signature : 23D4F090
->Accurately ripped! (AR2, confidence 6)
Statistics
Read error : 0
Skipped (treated as error) : 0
Edge jitter error (maybe fixed) : 0
Atom jitter error (maybe fixed) : 0
Drift error (maybe fixed) : 0
Dropped bytes error (maybe fixed) : 0
Duplicated bytes error (maybe fixed) : 0
Inconsistency in error sectors : 0

Track 05
Filename : /The Sisters of Mercy - Vision Thing (0825646839476)/05 The Sisters of Mercy - When You Don’t See Me.flac
Pre-gap length : 00:00:48

Track gain : 0.71 dB
Peak : 0.732025
CRC32 hash (test run) : 12CCC6A5
CRC32 hash : 12CCC6A5
CRC32 hash (skip zero) : 5BDD0961
AccurateRip signature : E0377AD1
->Accurately ripped! (AR2, confidence 6)
Statistics
Read error : 0
Skipped (treated as error) : 0
Edge jitter error (maybe fixed) : 0
Atom jitter error (maybe fixed) : 0
Drift error (maybe fixed) : 0
Dropped bytes error (maybe fixed) : 0
Duplicated bytes error (maybe fixed) : 0
Inconsistency in error sectors : 0

Track 06
Filename : /The Sisters of Mercy - Vision Thing (0825646839476)/06 The Sisters of Mercy - Doctor Jeep.flac
Pre-gap length : 00:01:12

Track gain : -0.63 dB
Peak : 0.828827
CRC32 hash (test run) : 52E621FF
CRC32 hash : 52E621FF
CRC32 hash (skip zero) : 4ADEBDF7
AccurateRip signature : A6E8AC06
->Accurately ripped! (AR2, confidence 6)
Statistics
Read error : 0
Skipped (treated as error) : 0
Edge jitter error (maybe fixed) : 0
Atom jitter error (maybe fixed) : 0
Drift error (maybe fixed) : 0
Dropped bytes error (maybe fixed) : 0
Duplicated bytes error (maybe fixed) : 0
Inconsistency in error sectors : 0

Track 07
Filename : /The Sisters of Mercy - Vision Thing (0825646839476)/07 The Sisters of Mercy - More.flac
Pre-gap length : 00:01:74

Track gain : -0.18 dB
Peak : 0.649933
CRC32 hash (test run) : A859BA86
CRC32 hash : A859BA86
CRC32 hash (skip zero) : 0E358931
AccurateRip signature : 3903A51F
->Accurately ripped! (AR2, confidence 6)
Statistics
Read error : 0
Skipped (treated as error) : 0
Edge jitter error (maybe fixed) : 0
Atom jitter error (maybe fixed) : 0
Drift error (maybe fixed) : 0
Dropped bytes error (maybe fixed) : 0
Duplicated bytes error (maybe fixed) : 0
Inconsistency in error sectors : 0

Track 08
Filename : /The Sisters of Mercy - Vision Thing (0825646839476)/08 The Sisters of Mercy - I Was Wrong.flac
Pre-gap length : 00:00:10

Track gain : 3.07 dB
Peak : 0.685089
CRC32 hash (test run) : 9D6E44D8
CRC32 hash : 9D6E44D8
CRC32 hash (skip zero) : 731956DB
AccurateRip signature : FD6C954C
->Accurately ripped! (AR2, confidence 6)
Statistics
Read error : 0
Skipped (treated as error) : 0
Edge jitter error (maybe fixed) : 0
Atom jitter error (maybe fixed) : 0
Drift error (maybe fixed) : 0
Dropped bytes error (maybe fixed) : 0
Duplicated bytes error (maybe fixed) : 0
Inconsistency in error sectors : 0

No errors occurred

End of status report

__________________________________________________________________________________
X Lossless Decoder version 20110703 (135.1)

XLD extraction logfile from 2011-08-05 22:32:19 +0000

The Sisters of Mercy / Some Girls Wander by Mistake

Used drive : HL-DT-ST DVDRW GS23N (revision SB07)

Ripper mode : CDParanoia III 10.2
Disable audio cache : OK for the drive with a cache less than 2750KiB
Make use of C2 pointers : NO
Read offset correction : 667
Max retry count : 100
Gap status : Analyzed, Appended

TOC of the extracted CD
Track | Start | Length | Start sector | End sector
––––––––––––––––––––––––––––-
1 | 00:00:00 | 03:34:65 | 0 | 16114
2 | 03:34:65 | 03:40:42 | 16115 | 32656
3 | 07:15:32 | 07:10:48 | 32657 | 64954
4 | 14:26:05 | 02:45:27 | 64955 | 77356
5 | 17:11:32 | 05:55:23 | 77357 | 104004
6 | 23:06:55 | 05:51:00 | 104005 | 130329
7 | 28:57:55 | 04:44:17 | 130330 | 151646
8 | 33:41:72 | 03:41:43 | 151647 | 168264
9 | 37:23:40 | 04:49:45 | 168265 | 189984
10 | 42:13:10 | 00:36:02 | 189985 | 192686
11 | 42:49:12 | 07:42:43 | 192687 | 227379
12 | 50:31:55 | 04:47:15 | 227380 | 248919
13 | 55:18:70 | 05:57:00 | 248920 | 275694
14 | 61:15:70 | 03:03:22 | 275695 | 289441
15 | 64:19:17 | 03:11:65 | 289442 | 303831
16 | 67:31:07 | 00:34:48 | 303832 | 306429
17 | 68:05:55 | 04:18:42 | 306430 | 325821
18 | 72:24:22 | 02:57:28 | 325822 | 339124
19 | 75:21:50 | 04:06:45 | 339125 | 357619

List of alternate offset correction values
# | Absolute | Relative | Confidence
–––––––––––––––––––––
1 | 2000 | 1333 | 223
2 | 1331 | 664 | 72
3 | 1319 | 652 | 2
4 | 2006 | 1339 | 2

AccurateRip Summary
Track 01 : OK (AR2, confidence 6)
Track 02 : OK (AR2, confidence 6)
Track 03 : OK (AR2, confidence 6)
Track 04 : OK (AR2, confidence 6)
Track 05 : OK (AR2, confidence 6)
Track 06 : OK (AR2, confidence 6)
Track 07 : OK (AR2, confidence 6)
Track 08 : OK (AR2, confidence 6)
Track 09 : OK (AR2, confidence 6)
Track 10 : OK (AR2, confidence 6)
Track 11 : OK (AR2, confidence 6)
Track 12 : OK (AR2, confidence 6)
Track 13 : OK (AR2, confidence 6)
Track 14 : OK (AR2, confidence 6)
Track 15 : OK (AR2, confidence 6)
Track 16 : OK (AR2, confidence 6)
Track 17 : OK (AR2, confidence 6)
Track 18 : OK (AR2, confidence 6)
Track 19 : OK (AR2, confidence 6)
->All tracks accurately ripped.

All Tracks
Album gain : -3.34 dB
Peak : 1.000000
Statistics
Read error : 0
Skipped (treated as error) : 0
Edge jitter error (maybe fixed) : 0
Atom jitter error (maybe fixed) : 0
Drift error (maybe fixed) : 0
Dropped bytes error (maybe fixed) : 0
Duplicated bytes error (maybe fixed) : 0

Track 01
Filename : /The Sisters of Mercy - Some Girls Wander by Mistake (0825646839476)/01 The Sisters of Mercy - Alice.flac
Pre-gap length : 00:02:00

Track gain : -4.34 dB
Peak : 0.848083
CRC32 hash (test run) : B3907E51
CRC32 hash : B3907E51
CRC32 hash (skip zero) : 2BEC2317
AccurateRip signature : C16CE687
->Accurately ripped! (AR2, confidence 6)
Statistics
Read error : 0
Skipped (treated as error) : 0
Edge jitter error (maybe fixed) : 0
Atom jitter error (maybe fixed) : 0
Drift error (maybe fixed) : 0
Dropped bytes error (maybe fixed) : 0
Duplicated bytes error (maybe fixed) : 0
Inconsistency in error sectors : 0

Track 02
Filename : /The Sisters of Mercy - Some Girls Wander by Mistake (0825646839476)/02 The Sisters of Mercy - Floorshow.flac
Pre-gap length : 00:03:10

Track gain : -4.51 dB
Peak : 0.978699
CRC32 hash (test run) : 5B9E355F
CRC32 hash : 5B9E355F
CRC32 hash (skip zero) : 6DB82A21
AccurateRip signature : 5E0AADF0
->Accurately ripped! (AR2, confidence 6)
Statistics
Read error : 0
Skipped (treated as error) : 0
Edge jitter error (maybe fixed) : 0
Atom jitter error (maybe fixed) : 0
Drift error (maybe fixed) : 0
Dropped bytes error (maybe fixed) : 0
Duplicated bytes error (maybe fixed) : 0
Inconsistency in error sectors : 0

Track 03
Filename : /The Sisters of Mercy - Some Girls Wander by Mistake (0825646839476)/03 The Sisters of Mercy - Phantom.flac
Pre-gap length : 00:01:32

Track gain : 0.65 dB
Peak : 0.812256
CRC32 hash (test run) : 619DB579
CRC32 hash : 619DB579
CRC32 hash (skip zero) : 79F5C7F6
AccurateRip signature : D2E3AFC9
->Accurately ripped! (AR2, confidence 6)
Statistics
Read error : 0
Skipped (treated as error) : 0
Edge jitter error (maybe fixed) : 0
Atom jitter error (maybe fixed) : 0
Drift error (maybe fixed) : 0
Dropped bytes error (maybe fixed) : 0
Duplicated bytes error (maybe fixed) : 0
Inconsistency in error sectors : 0

Track 04
Filename : /The Sisters of Mercy - Some Girls Wander by Mistake (0825646839476)/04 The Sisters of Mercy - 1969.flac
Pre-gap length : 00:00:73

Track gain : -4.56 dB
Peak : 0.999969
CRC32 hash (test run) : 9F55B217
CRC32 hash : 9F55B217
CRC32 hash (skip zero) : 03BCD86B
AccurateRip signature : 0717D622
->Accurately ripped! (AR2, confidence 6)
Statistics
Read error : 0
Skipped (treated as error) : 0
Edge jitter error (maybe fixed) : 0
Atom jitter error (maybe fixed) : 0
Drift error (maybe fixed) : 0
Dropped bytes error (maybe fixed) : 0
Duplicated bytes error (maybe fixed) : 0
Inconsistency in error sectors : 0

Track 05
Filename : /The Sisters of Mercy - Some Girls Wander by Mistake (0825646839476)/05 The Sisters of Mercy - Kiss the Carpet.flac
Pre-gap length : 00:01:07

Track gain : -2.94 dB
Peak : 1.000000
CRC32 hash (test run) : A8143C14
CRC32 hash : A8143C14
CRC32 hash (skip zero) : 69CDD0EC
AccurateRip signature : 3A0755C1
->Accurately ripped! (AR2, confidence 6)
Statistics
Read error : 0
Skipped (treated as error) : 0
Edge jitter error (maybe fixed) : 0
Atom jitter error (maybe fixed) : 0
Drift error (maybe fixed) : 0
Dropped bytes error (maybe fixed) : 0
Duplicated bytes error (maybe fixed) : 0
Inconsistency in error sectors : 0

Track 06
Filename : /The Sisters of Mercy - Some Girls Wander by Mistake (0825646839476)/06 The Sisters of Mercy - Lights.flac
Pre-gap length : 00:00:73

Track gain : -2.55 dB
Peak : 0.999969
CRC32 hash (test run) : 9FCDCAFE
CRC32 hash : 9FCDCAFE
CRC32 hash (skip zero) : 2B4A4C21
AccurateRip signature : 4B502FB4
->Accurately ripped! (AR2, confidence 6)
Statistics
Read error : 0
Skipped (treated as error) : 0
Edge jitter error (maybe fixed) : 0
Atom jitter error (maybe fixed) : 0
Drift error (maybe fixed) : 0
Dropped bytes error (maybe fixed) : 0
Duplicated bytes error (maybe fixed) : 0
Inconsistency in error sectors : 0

Track 07
Filename : /The Sisters of Mercy - Some Girls Wander by Mistake (0825646839476)/07 The Sisters of Mercy - Valentine.flac
Pre-gap length : 00:00:73

Track gain : -2.72 dB
Peak : 0.928375
CRC32 hash (test run) : AD90850D
CRC32 hash : AD90850D
CRC32 hash (skip zero) : 14D414F9
AccurateRip signature : E93C36BC
->Accurately ripped! (AR2, confidence 6)
Statistics
Read error : 0
Skipped (treated as error) : 0
Edge jitter error (maybe fixed) : 0
Atom jitter error (maybe fixed) : 0
Drift error (maybe fixed) : 0
Dropped bytes error (maybe fixed) : 0
Duplicated bytes error (maybe fixed) : 0
Inconsistency in error sectors : 0

Track 08
Filename : /The Sisters of Mercy - Some Girls Wander by Mistake (0825646839476)/08 The Sisters of Mercy - Fix.flac
Pre-gap length : 00:02:30

Track gain : -1.49 dB
Peak : 0.842773
CRC32 hash (test run) : E910E24D
CRC32 hash : E910E24D
CRC32 hash (skip zero) : 825A6616
AccurateRip signature : D1F65990
->Accurately ripped! (AR2, confidence 6)
Statistics
Read error : 0
Skipped (treated as error) : 0
Edge jitter error (maybe fixed) : 0
Atom jitter error (maybe fixed) : 0
Drift error (maybe fixed) : 0
Dropped bytes error (maybe fixed) : 0
Duplicated bytes error (maybe fixed) : 0
Inconsistency in error sectors : 0

Track 09
Filename : /The Sisters of Mercy - Some Girls Wander by Mistake (0825646839476)/09 The Sisters of Mercy - Burn.flac
Pre-gap length : 00:00:73

Track gain : -2.88 dB
Peak : 0.988281
CRC32 hash (test run) : 189DA867
CRC32 hash : 189DA867
CRC32 hash (skip zero) : 896A13AA
AccurateRip signature : FDC7B623
->Accurately ripped! (AR2, confidence 6)
Statistics
Read error : 0
Skipped (treated as error) : 0
Edge jitter error (maybe fixed) : 0
Atom jitter error (maybe fixed) : 0
Drift error (maybe fixed) : 0
Dropped bytes error (maybe fixed) : 0
Duplicated bytes error (maybe fixed) : 0
Inconsistency in error sectors : 0

Track 10
Filename : /The Sisters of Mercy - Some Girls Wander by Mistake (0825646839476)/10 The Sisters of Mercy - Kiss the Carpet (reprise).flac
Pre-gap length : 00:01:48

Track gain : 14.48 dB
Peak : 0.148804
CRC32 hash (test run) : 8E48882F
CRC32 hash : 8E48882F
CRC32 hash (skip zero) : 090AA429
AccurateRip signature : 64E10C73
->Accurately ripped! (AR2, confidence 6)
Statistics
Read error : 0
Skipped (treated as error) : 0
Edge jitter error (maybe fixed) : 0
Atom jitter error (maybe fixed) : 0
Drift error (maybe fixed) : 0
Dropped bytes error (maybe fixed) : 0
Duplicated bytes error (maybe fixed) : 0
Inconsistency in error sectors : 0

Track 11
Filename : /The Sisters of Mercy - Some Girls Wander by Mistake (0825646839476)/11 The Sisters of Mercy - Temple of Love (extended version).flac
Pre-gap length : 00:00:45

Track gain : -3.07 dB
Peak : 0.937317
CRC32 hash (test run) : 43496800
CRC32 hash : 43496800
CRC32 hash (skip zero) : B72DD495
AccurateRip signature : 9AD5CA8F
->Accurately ripped! (AR2, confidence 6)
Statistics
Read error : 0
Skipped (treated as error) : 0
Edge jitter error (maybe fixed) : 0
Atom jitter error (maybe fixed) : 0
Drift error (maybe fixed) : 0
Dropped bytes error (maybe fixed) : 0
Duplicated bytes error (maybe fixed) : 0
Inconsistency in error sectors : 0

Track 12
Filename : /The Sisters of Mercy - Some Girls Wander by Mistake (0825646839476)/12 The Sisters of Mercy - Heartland.flac
Pre-gap length : 00:02:32

Track gain : -3.63 dB
Peak : 0.973846
CRC32 hash (test run) : 5846A188
CRC32 hash : 5846A188
CRC32 hash (skip zero) : 45EE4326
AccurateRip signature : 744AB033
->Accurately ripped! (AR2, confidence 6)
Statistics
Read error : 0
Skipped (treated as error) : 0
Edge jitter error (maybe fixed) : 0
Atom jitter error (maybe fixed) : 0
Drift error (maybe fixed) : 0
Dropped bytes error (maybe fixed) : 0
Duplicated bytes error (maybe fixed) : 0
Inconsistency in error sectors : 0

Track 13
Filename : /The Sisters of Mercy - Some Girls Wander by Mistake (0825646839476)/13 The Sisters of Mercy - Gimme Shelter.flac
Pre-gap length : 00:02:53

Track gain : -2.89 dB
Peak : 0.897339
CRC32 hash (test run) : 0ECE12A7
CRC32 hash : 0ECE12A7
CRC32 hash (skip zero) : E8878563
AccurateRip signature : 05BA42DB
->Accurately ripped! (AR2, confidence 6)
Statistics
Read error : 0
Skipped (treated as error) : 0
Edge jitter error (maybe fixed) : 0
Atom jitter error (maybe fixed) : 0
Drift error (maybe fixed) : 0
Dropped bytes error (maybe fixed) : 0
Duplicated bytes error (maybe fixed) : 0
Inconsistency in error sectors : 0

Track 14
Filename : /The Sisters of Mercy - Some Girls Wander by Mistake (0825646839476)/14 The Sisters of Mercy - The Damage Done.flac
Pre-gap length : 00:00:63

Track gain : -4.61 dB
Peak : 0.787689
CRC32 hash (test run) : 7ABF5441
CRC32 hash : 7ABF5441
CRC32 hash (skip zero) : 2B2F6C2E
AccurateRip signature : A6D6CE56
->Accurately ripped! (AR2, confidence 6)
Statistics
Read error : 0
Skipped (treated as error) : 0
Edge jitter error (maybe fixed) : 0
Atom jitter error (maybe fixed) : 0
Drift error (maybe fixed) : 0
Dropped bytes error (maybe fixed) : 0
Duplicated bytes error (maybe fixed) : 0
Inconsistency in error sectors : 0

Track 15
Filename : /The Sisters of Mercy - Some Girls Wander by Mistake (0825646839476)/15 The Sisters of Mercy - Watch.flac
Pre-gap length : 00:00:55

Track gain : -2.67 dB
Peak : 0.831055
CRC32 hash (test run) : E7EF43EC
CRC32 hash : E7EF43EC
CRC32 hash (skip zero) : D0E599DC
AccurateRip signature : B0C0CA6C
->Accurately ripped! (AR2, confidence 6)
Statistics
Read error : 0
Skipped (treated as error) : 0
Edge jitter error (maybe fixed) : 0
Atom jitter error (maybe fixed) : 0
Drift error (maybe fixed) : 0
Dropped bytes error (maybe fixed) : 0
Duplicated bytes error (maybe fixed) : 0
Inconsistency in error sectors : 0

Track 16
Filename : /The Sisters of Mercy - Some Girls Wander by Mistake (0825646839476)/16 The Sisters of Mercy - Home of the Hit-Men.flac
Pre-gap length : 00:01:00

Track gain : 9.18 dB
Peak : 0.240448
CRC32 hash (test run) : A874BADF
CRC32 hash : A874BADF
CRC32 hash (skip zero) : 2A842A7A
AccurateRip signature : 429CBAAE
->Accurately ripped! (AR2, confidence 6)
Statistics
Read error : 0
Skipped (treated as error) : 0
Edge jitter error (maybe fixed) : 0
Atom jitter error (maybe fixed) : 0
Drift error (maybe fixed) : 0
Dropped bytes error (maybe fixed) : 0
Duplicated bytes error (maybe fixed) : 0
Inconsistency in error sectors : 0

Track 17
Filename : /The Sisters of Mercy - Some Girls Wander by Mistake (0825646839476)/17 The Sisters of Mercy - Body Electric.flac
Pre-gap length : 00:03:00

Track gain : -1.43 dB
Peak : 0.910095
CRC32 hash (test run) : 5FC4F1F4
CRC32 hash : 5FC4F1F4
CRC32 hash (skip zero) : 8D15A3A1
AccurateRip signature : 1B8F81A9
->Accurately ripped! (AR2, confidence 6)
Statistics
Read error : 0
Skipped (treated as error) : 0
Edge jitter error (maybe fixed) : 0
Atom jitter error (maybe fixed) : 0
Drift error (maybe fixed) : 0
Dropped bytes error (maybe fixed) : 0
Duplicated bytes error (maybe fixed) : 0
Inconsistency in error sectors : 0

Track 18
Filename : /The Sisters of Mercy - Some Girls Wander by Mistake (0825646839476)/18 The Sisters of Mercy - Adrenochrome.flac
Pre-gap length : 00:00:65

Track gain : -4.17 dB
Peak : 0.945190
CRC32 hash (test run) : 1FCE6DB5
CRC32 hash : 1FCE6DB5
CRC32 hash (skip zero) : EE924E42
AccurateRip signature : 2F9F29F2
->Accurately ripped! (AR2, confidence 6)
Statistics
Read error : 0
Skipped (treated as error) : 0
Edge jitter error (maybe fixed) : 0
Atom jitter error (maybe fixed) : 0
Drift error (maybe fixed) : 0
Dropped bytes error (maybe fixed) : 0
Duplicated bytes error (maybe fixed) : 0
Inconsistency in error sectors : 0

Track 19
Filename : /The Sisters of Mercy - Some Girls Wander by Mistake (0825646839476)/19 The Sisters of Mercy - Anaconda.flac
Pre-gap length : 00:01:20

Track gain : -2.53 dB
Peak : 0.999969
CRC32 hash (test run) : 80571514
CRC32 hash : 80571514
CRC32 hash (skip zero) : D3D3C9E4
AccurateRip signature : D15B7E13
->Accurately ripped! (AR2, confidence 6)
Statistics
Read error : 0
Skipped (treated as error) : 0
Edge jitter error (maybe fixed) : 0
Atom jitter error (maybe fixed) : 0
Drift error (maybe fixed) : 0
Dropped bytes error (maybe fixed) : 0
Duplicated bytes error (maybe fixed) : 0
Inconsistency in error sectors : 0

No errors occurred

End of status report

_____________________________________________________________________________________
X Lossless Decoder version 20110703 (135.1)

XLD extraction logfile from 2011-08-06 21:34:18 +0000

The Sisters of Mercy / A Slight Case of Overbombing: Greatest Hits, Volume One

Used drive : HL-DT-ST DVDRW GS23N (revision SB07)

Ripper mode : CDParanoia III 10.2
Disable audio cache : OK for the drive with a cache less than 2750KiB
Make use of C2 pointers : NO
Read offset correction : 667
Max retry count : 100
Gap status : Analyzed, Appended

TOC of the extracted CD
Track | Start | Length | Start sector | End sector
––––––––––––––––––––––––––––-
1 | 00:00:00 | 05:43:02 | 0 | 25726
2 | 05:43:02 | 08:07:45 | 25727 | 62296
3 | 13:50:47 | 07:34:38 | 62297 | 96384
4 | 21:25:10 | 03:50:37 | 96385 | 113671
5 | 25:15:47 | 03:02:65 | 113672 | 127386
6 | 28:18:37 | 08:24:38 | 127387 | 165224
7 | 36:43:00 | 08:44:12 | 165225 | 204536
8 | 45:27:12 | 07:03:28 | 204537 | 236289
9 | 52:30:40 | 10:17:50 | 236290 | 282614
10 | 62:48:15 | 03:57:65 | 282615 | 300454
11 | 66:46:05 | 03:24:00 | 300455 | 315754
12 | 70:10:05 | 03:30:60 | 315755 | 331564

List of alternate offset correction values
# | Absolute | Relative | Confidence
–––––––––––––––––––––
1 | 2000 | 1333 | 230
2 | 1331 | 664 | 140
3 | 1881 | 1214 | 7
4 | 2006 | 1339 | 2

AccurateRip Summary
Track 01 : OK (AR2, confidence 5)
Track 02 : OK (AR2, confidence 5)
Track 03 : OK (AR2, confidence 5)
Track 04 : OK (AR2, confidence 5)
Track 05 : OK (AR2, confidence 5)
Track 06 : OK (AR2, confidence 5)
Track 07 : OK (AR2, confidence 5)
Track 08 : OK (AR2, confidence 5)
Track 09 : OK (AR2, confidence 5)
Track 10 : OK (AR2, confidence 5)
Track 11 : OK (AR2, confidence 5)
Track 12 : OK (AR2, confidence 5)
->All tracks accurately ripped.

All Tracks
Album gain : -3.94 dB
Peak : 1.000000
Statistics
Read error : 0
Skipped (treated as error) : 0
Edge jitter error (maybe fixed) : 0
Atom jitter error (maybe fixed) : 0
Drift error (maybe fixed) : 0
Dropped bytes error (maybe fixed) : 0
Duplicated bytes error (maybe fixed) : 0

Track 01
Filename : /The Sisters of Mercy - A Slight Case of Overbombing; Greatest Hits, Volume One (0825646839476)/01 The Sisters of Mercy - Under the Gun.flac
Pre-gap length : 00:02:00

Track gain : -2.76 dB
Peak : 0.915283
CRC32 hash (test run) : FA4B1632
CRC32 hash : FA4B1632
CRC32 hash (skip zero) : 75B50582
AccurateRip signature : 7D6BC6A1
->Accurately ripped! (AR2, confidence 5)
Statistics
Read error : 0
Skipped (treated as error) : 0
Edge jitter error (maybe fixed) : 0
Atom jitter error (maybe fixed) : 0
Drift error (maybe fixed) : 0
Dropped bytes error (maybe fixed) : 0
Duplicated bytes error (maybe fixed) : 0
Inconsistency in error sectors : 0

Track 02
Filename : /The Sisters of Mercy - A Slight Case of Overbombing; Greatest Hits, Volume One (0825646839476)/02 The Sisters of Mercy - Temple of Love (1992).flac
Pre-gap length : 00:01:40

Track gain : -4.61 dB
Peak : 1.000000
CRC32 hash (test run) : 26283900
CRC32 hash : 26283900
CRC32 hash (skip zero) : 473B45CD
AccurateRip signature : FEC271A4
->Accurately ripped! (AR2, confidence 5)
Statistics
Read error : 0
Skipped (treated as error) : 0
Edge jitter error (maybe fixed) : 0
Atom jitter error (maybe fixed) : 0
Drift error (maybe fixed) : 0
Dropped bytes error (maybe fixed) : 0
Duplicated bytes error (maybe fixed) : 0
Inconsistency in error sectors : 0

Track 03
Filename : /The Sisters of Mercy - A Slight Case of Overbombing; Greatest Hits, Volume One (0825646839476)/03 The Sisters of Mercy - Vision Thing.flac
Pre-gap length : 00:02:05

Track gain : -4.28 dB
Peak : 0.935822
CRC32 hash (test run) : 382FAF29
CRC32 hash : 382FAF29
CRC32 hash (skip zero) : 570565D3
AccurateRip signature : 38623DE8
->Accurately ripped! (AR2, confidence 5)
Statistics
Read error : 0
Skipped (treated as error) : 0
Edge jitter error (maybe fixed) : 0
Atom jitter error (maybe fixed) : 0
Drift error (maybe fixed) : 0
Dropped bytes error (maybe fixed) : 0
Duplicated bytes error (maybe fixed) : 0
Inconsistency in error sectors : 0

Track 04
Filename : /The Sisters of Mercy - A Slight Case of Overbombing; Greatest Hits, Volume One (0825646839476)/04 The Sisters of Mercy - Detonation Boulevard.flac
Pre-gap length : 00:01:45

Track gain : -3.65 dB
Peak : 0.890320
CRC32 hash (test run) : 8F030E87
CRC32 hash : 8F030E87
CRC32 hash (skip zero) : 3D9A8257
AccurateRip signature : 021D52FC
->Accurately ripped! (AR2, confidence 5)
Statistics
Read error : 0
Skipped (treated as error) : 0
Edge jitter error (maybe fixed) : 0
Atom jitter error (maybe fixed) : 0
Drift error (maybe fixed) : 0
Dropped bytes error (maybe fixed) : 0
Duplicated bytes error (maybe fixed) : 0
Inconsistency in error sectors : 0

Track 05
Filename : /The Sisters of Mercy - A Slight Case of Overbombing; Greatest Hits, Volume One (0825646839476)/05 The Sisters of Mercy - Doctor Jeep.flac
Pre-gap length : 00:01:67

Track gain : -2.82 dB
Peak : 0.911194
CRC32 hash (test run) : 4144688E
CRC32 hash : 4144688E
CRC32 hash (skip zero) : EC8F619E
AccurateRip signature : CDBC7BE1
->Accurately ripped! (AR2, confidence 5)
Statistics
Read error : 0
Skipped (treated as error) : 0
Edge jitter error (maybe fixed) : 0
Atom jitter error (maybe fixed) : 0
Drift error (maybe fixed) : 0
Dropped bytes error (maybe fixed) : 0
Duplicated bytes error (maybe fixed) : 0
Inconsistency in error sectors : 0

Track 06
Filename : /The Sisters of Mercy - A Slight Case of Overbombing; Greatest Hits, Volume One (0825646839476)/06 The Sisters of Mercy - More.flac
Pre-gap length : 00:02:20

Track gain : -2.56 dB
Peak : 0.856781
CRC32 hash (test run) : BEC4D49F
CRC32 hash : BEC4D49F
CRC32 hash (skip zero) : 421C8BAB
AccurateRip signature : AB783062
->Accurately ripped! (AR2, confidence 5)
Statistics
Read error : 0
Skipped (treated as error) : 0
Edge jitter error (maybe fixed) : 0
Atom jitter error (maybe fixed) : 0
Drift error (maybe fixed) : 0
Dropped bytes error (maybe fixed) : 0
Duplicated bytes error (maybe fixed) : 0
Inconsistency in error sectors : 0

Track 07
Filename : /The Sisters of Mercy - A Slight Case of Overbombing; Greatest Hits, Volume One (0825646839476)/07 The Sisters of Mercy - Lucretia My Reflection.flac
Pre-gap length : 00:01:30

Track gain : -4.61 dB
Peak : 0.907288
CRC32 hash (test run) : DB8CAD12
CRC32 hash : DB8CAD12
CRC32 hash (skip zero) : AEDD0F72
AccurateRip signature : B5945E90
->Accurately ripped! (AR2, confidence 5)
Statistics
Read error : 0
Skipped (treated as error) : 0
Edge jitter error (maybe fixed) : 0
Atom jitter error (maybe fixed) : 0
Drift error (maybe fixed) : 0
Dropped bytes error (maybe fixed) : 0
Duplicated bytes error (maybe fixed) : 0
Inconsistency in error sectors : 0

Track 08
Filename : /The Sisters of Mercy - A Slight Case of Overbombing; Greatest Hits, Volume One (0825646839476)/08 The Sisters of Mercy - Dominion / Mother Russia.flac
Pre-gap length : 00:00:62

Track gain : -3.94 dB
Peak : 0.846405
CRC32 hash (test run) : 08CB1419
CRC32 hash : 08CB1419
CRC32 hash (skip zero) : 8EE0C220
AccurateRip signature : E4905DBA
->Accurately ripped! (AR2, confidence 5)
Statistics
Read error : 0
Skipped (treated as error) : 0
Edge jitter error (maybe fixed) : 0
Atom jitter error (maybe fixed) : 0
Drift error (maybe fixed) : 0
Dropped bytes error (maybe fixed) : 0
Duplicated bytes error (maybe fixed) : 0
Inconsistency in error sectors : 0

Track 09
Filename : /The Sisters of Mercy - A Slight Case of Overbombing; Greatest Hits, Volume One (0825646839476)/09 The Sisters of Mercy - This Corrosion.flac
Pre-gap length : 00:02:20

Track gain : -4.01 dB
Peak : 0.928345
CRC32 hash (test run) : F1856356
CRC32 hash : F1856356
CRC32 hash (skip zero) : FE51215B
AccurateRip signature : 4B3B6B9E
->Accurately ripped! (AR2, confidence 5)
Statistics
Read error : 0
Skipped (treated as error) : 0
Edge jitter error (maybe fixed) : 0
Atom jitter error (maybe fixed) : 0
Drift error (maybe fixed) : 0
Dropped bytes error (maybe fixed) : 0
Duplicated bytes error (maybe fixed) : 0
Inconsistency in error sectors : 0

Track 10
Filename : /The Sisters of Mercy - A Slight Case of Overbombing; Greatest Hits, Volume One (0825646839476)/10 The Sisters of Mercy - No Time to Cry.flac
Pre-gap length : 00:01:44

Track gain : -2.48 dB
Peak : 0.896729
CRC32 hash (test run) : D9AA2186
CRC32 hash : D9AA2186
CRC32 hash (skip zero) : E0EE3BBC
AccurateRip signature : A4177962
->Accurately ripped! (AR2, confidence 5)
Statistics
Read error : 0
Skipped (treated as error) : 0
Edge jitter error (maybe fixed) : 0
Atom jitter error (maybe fixed) : 0
Drift error (maybe fixed) : 0
Dropped bytes error (maybe fixed) : 0
Duplicated bytes error (maybe fixed) : 0
Inconsistency in error sectors : 0

Track 11
Filename : /The Sisters of Mercy - A Slight Case of Overbombing; Greatest Hits, Volume One (0825646839476)/11 The Sisters of Mercy - Walk Away.flac
Pre-gap length : 00:01:73

Track gain : -4.44 dB
Peak : 0.933136
CRC32 hash (test run) : 25518CE8
CRC32 hash : 25518CE8
CRC32 hash (skip zero) : 9085FED9
AccurateRip signature : 2EE20368
->Accurately ripped! (AR2, confidence 5)
Statistics
Read error : 0
Skipped (treated as error) : 0
Edge jitter error (maybe fixed) : 0
Atom jitter error (maybe fixed) : 0
Drift error (maybe fixed) : 0
Dropped bytes error (maybe fixed) : 0
Duplicated bytes error (maybe fixed) : 0
Inconsistency in error sectors : 0

Track 12
Filename : /The Sisters of Mercy - A Slight Case of Overbombing; Greatest Hits, Volume One (0825646839476)/12 The Sisters of Mercy - Body and Soul.flac
Pre-gap length : 00:01:55

Track gain : -1.13 dB
Peak : 0.958282
CRC32 hash (test run) : D3191070
CRC32 hash : D3191070
CRC32 hash (skip zero) : 35615B4D
AccurateRip signature : 5E5449EB
->Accurately ripped! (AR2, confidence 5)
Statistics
Read error : 0
Skipped (treated as error) : 0
Edge jitter error (maybe fixed) : 0
Atom jitter error (maybe fixed) : 0
Drift error (maybe fixed) : 0
Dropped bytes error (maybe fixed) : 0
Duplicated bytes error (maybe fixed) : 0
Inconsistency in error sectors : 0

No errors occurred

End of status report

The Sisters Of Mercy - Original Album Series (2009) [5CDs Box] {Rhino}


Thanks to the original ripper