Subcategories

The Soft Machine - Jet-Propelled Photographs [Recorded 1967] (2003)

Posted By: gribovar
The Soft Machine - Jet-Propelled Photographs [Recorded 1967] (2003)

The Soft Machine - Jet-Propelled Photographs [Recorded 1967] (2003)
EAC Rip | WavPack (image+.cue+log) - 161 MB | MP3 CBR 320 kbps (LAME 3.93) - 72 MB | Covers - 75 MB
Genre: Progressive Rock/Canterbury Scene | RAR 3% Rec. | Label: Charly/Snapper Music (SNAP 133 CD)

Jet-Propelled Photographs is the latest-available CD version of a title which has been repackaged and retitled several times over the last 30 years. Recorded in London in April 1967, and produced by the legendary Giorgio Gomelsky, these nine demos feature the original Soft Machine lineup of Robert Wyatt, Kevin Ayers, Mike Ratledge, and Daevid Allen. Although not intended for release, these rough but accomplished performances show the band at their most pop- and song-oriented. Not far removed from Syd Barrett-era Pink Floyd, the jazzy chord changes, unpredictable bursts of scat singing, glib free-association lyrics, ominous buzzing organ, and Robert Wyatt's soulful rasp convey the freewheeling abandon and giddy high spirits that characterized the best early British psychedelia.

Tracklist:
01. That's How Much I Need You Now
02. Save Yourself
03. I Should've Known
04. Jet-Propelled Photographs (a.k.a. Shotting at the Moon)
05. When I Don't Want You
06. Memories
07. You Don't Remember
08. She's Gone
09. I'd Rather Be With You

Total time: 30:45

Exact Audio Copy V1.0 beta 3 from 29. August 2011

EAC extraction logfile from 7. December 2012, 17:55

Soft Machine / At The Beginning

Used drive : HL-DT-STBDDVDRW GBC-H20N Adapter: 1 ID: 0

Read mode : Secure
Utilize accurate stream : Yes
Defeat audio cache : Yes
Make use of C2 pointers : No

Read offset correction : 667
Overread into Lead-In and Lead-Out : No
Fill up missing offset samples with silence : Yes
Delete leading and trailing silent blocks : No
Null samples used in CRC calculations : Yes
Used interface : Native Win32 interface for Win NT & 2000

Used output format : User Defined Encoder
Selected bitrate : 1024 kBit/s
Quality : High
Add ID3 tag : No
Command line compressor : C:\Program Files\Exact Audio Copy\wavpack.exe
Additional command line options : -hm %source% %dest%


TOC of the extracted CD

Track | Start | Length | Start sector | End sector
––––––––––––––––––––––––––––-
1 | 0:00.00 | 2:29.17 | 0 | 11191
2 | 2:29.17 | 2:45.05 | 11192 | 23571
3 | 5:14.22 | 7:30.50 | 23572 | 57371
4 | 12:44.72 | 2:33.58 | 57372 | 68904
5 | 15:18.55 | 2:49.07 | 68905 | 81586
6 | 18:07.62 | 2:59.43 | 81587 | 95054
7 | 21:07.30 | 3:45.72 | 95055 | 112001
8 | 24:53.27 | 2:11.50 | 112002 | 121876
9 | 27:05.02 | 3:40.00 | 121877 | 138376


Range status and errors

Selected range

Filename C:\Users\ProgDog\Music\ZALIVKI\Jet\Soft Machine - At The Beginning.wav

Peak level 95.7 %
Extraction speed 5.3 X
Range quality 100.0 %
Test CRC 9A354EB4
Copy CRC 9A354EB4
Copy OK

No errors occurred


AccurateRip summary

Track 1 accurately ripped (confidence 3) [1BF7DF9F] (AR v1)
Track 2 accurately ripped (confidence 3) [E6A34375] (AR v1)
Track 3 accurately ripped (confidence 3) [EEEF127A] (AR v1)
Track 4 accurately ripped (confidence 3) [B03C55C5] (AR v1)
Track 5 accurately ripped (confidence 3) [F27EF4F5] (AR v1)
Track 6 accurately ripped (confidence 3) [2E96FF28] (AR v1)
Track 7 accurately ripped (confidence 3) [9813A438] (AR v1)
Track 8 accurately ripped (confidence 3) [51CEBF60] (AR v1)
Track 9 accurately ripped (confidence 3) [C400B41C] (AR v1)

All tracks accurately ripped

End of status report

–– CUETools DB Plugin V2.1.3

[CTDB TOCID: Erk6G9Fzbx7ZsQ475FKkIhT85.s-] found, Submit result: already submitted
[e9e4edd5] (3/3) Accurately ripped


==== Log checksum 7641D5102689176C894E6D03603E5B6F53563D13AA8FFDDBB66BB9C3C2B1075B ====

[CUETools log; Date: 28.08.2019 21:42:14; Version: 2.1.4]
[CTDB TOCID: Erk6G9Fzbx7ZsQ475FKkIhT85.s-] found.
Track | CTDB Status
1 | (51/51) Accurately ripped
2 | (51/51) Accurately ripped
3 | (51/51) Accurately ripped
4 | (51/51) Accurately ripped
5 | (51/51) Accurately ripped
6 | (51/51) Accurately ripped
7 | (51/51) Accurately ripped
8 | (51/51) Accurately ripped
9 | (51/51) Accurately ripped
[AccurateRip ID: 000ad533-004f536c-78073509] found.
Track [ CRC | V2 ] Status
01 [1bf7df9f|8461d167] (03+05/39) Accurately ripped
02 [e6a34375|4932fd44] (03+05/39) Accurately ripped
03 [eeef127a|9a1b5e94] (03+05/39) Accurately ripped
04 [b03c55c5|32805bac] (03+05/39) Accurately ripped
05 [f27ef4f5|b2bf8664] (03+04/38) Accurately ripped
06 [2e96ff28|ccb6e179] (03+05/39) Accurately ripped
07 [9813a438|3857f480] (03+05/39) Accurately ripped
08 [51cebf60|3125fc97] (03+05/39) Accurately ripped
09 [c400b41c|4699c740] (03+05/39) Accurately ripped
Offsetted by -241:
01 [b74863f9] (05/39) Accurately ripped
02 [55e2c39e] (05/39) Accurately ripped
03 [9a610773] (05/39) Accurately ripped
04 [9c6bff1f] (05/39) Accurately ripped
05 [85c777e3] (05/38) Accurately ripped
06 [b26bbb91] (05/39) Accurately ripped
07 [4780bf59] (05/39) Accurately ripped
08 [b4b9cf7a] (05/39) Accurately ripped
09 [6912caf6] (05/39) Accurately ripped
Offsetted by 664:
01 [03b2ff2f] (09/39) Accurately ripped
02 [67a5b39d] (09/39) Accurately ripped
03 [8a5acf22] (09/39) Accurately ripped
04 [202ffd55] (09/39) Accurately ripped
05 [3016c6a5] (09/38) Accurately ripped
06 [a5a0c950] (09/39) Accurately ripped
07 [90a0ed20] (07/39) Accurately ripped
08 [14a7c4f0] (07/39) Accurately ripped
09 [b82817ac] (09/39) Accurately ripped
Offsetted by -1569:
01 [e7d224d9] (00/39) No match (V2 was not tested)
02 [53dde34e] (00/39) No match (V2 was not tested)
03 [63898e23] (00/39) No match (V2 was not tested)
04 [bc84afff] (00/39) No match (V2 was not tested)
05 [0a97d483] (00/38) No match (V2 was not tested)
06 [c4582741] (00/39) No match (V2 was not tested)
07 [56662d89] (00/39) No match (V2 was not tested)
08 [2f07c45a] (00/39) No match (V2 was not tested)
09 [80c403d6] (00/39) No match (V2 was not tested)
Offsetted by 1323:
01 [a00bf0a1] (00/39) No match (V2 was not tested)
02 [1ce3e162] (00/39) No match (V2 was not tested)
03 [5a321277] (00/39) No match (V2 was not tested)
04 [aa48bfc7] (00/39) No match (V2 was not tested)
05 [2331b15b] (00/38) No match (V2 was not tested)
06 [965f5255] (00/39) No match (V2 was not tested)
07 [1d48e7fd] (00/39) No match (V2 was not tested)
08 [8c030322] (00/39) No match (V2 was not tested)
09 [c3eaf19e] (00/39) No match (V2 was not tested)

Track Peak [ CRC32 ] [W/O NULL] [ LOG ]
– 95,7 [9A354EB4] [A1FD21E9] CRC32
01 88,6 [7AEAA6EB] [C60A6DFD]
02 88,3 [15D8CC8C] [34A03AA2]
03 88,1 [D7602CAA] [89836103]
04 95,7 [6BCA002E] [FDE51236]
05 89,5 [5A290633] [7DFC8598]
06 89,0 [0E1905FD] [11965667]
07 90,1 [3554DE61] [500A4EF9]
08 88,6 [596D3421] [FF3B9A59]
09 89,0 [8E6C2988] [7FD1550A]

Thanks to arizonadream

See also: