Subcategories

The Soundtrack Factory: Casablanca (1942/2002)

Posted By: Designol
The Soundtrack Factory: Casablanca (1942/2002)

The Soundtrack Factory: Casablanca (1942/2002)
EAC | FLAC | Image (Cue&Log) ~ 201 Mb (incl 5%) | Mp3 (CBR320/Stereo) ~ 147 Mb (incl 5%) | Scans included
Genre: Soundtrack, Score | Label: Disconforme | # SFCD33568 | Time: 00:41:11

Piano solos and songs were recorded in May, June and July, 1942, and the orchestral score was recorded in September, 1942. A great deal of Casablanca's allure throughout the years can be attributed directly to the film's music; few songs strike so resonant a chord with moviegoers as does "As Time Goes By," and Dooley Wilson's performance of the tune remains its definitive reading.
The Soundtrack Factory: Casablanca (1942/2002)



Tracklist:

01. Casablanca (Main Title) (04:07)
02. It Had to Be You - Shine (02:11)
03. Knock on Wood (01:20)
04. Parlez-Moi d'Amour-Tango Della Rosa (01:36)
05. As Time Goes By (01:59)
06. Casablanca [Medley] (08:44)
07. As Time Goes By-Die Watch Am Rhein-La Marsellaise (02:42)
08. Casablanca (Ending) (02:33)
09. Casablanca : As Time Goes By-Perfidia [First Studio Medley: As Time G] (03:50)
10. Casablanca [Second Studio Medley] - Arthur 'Dooley' Wilson (04:46)
11. Dat's What Noah Done (01:20)
12. As Time Goes By [Studio Version] (02:47)
13. Eagle and Me [From Bloomer Girl] (03:10)


Exact Audio Copy V0.99 prebeta 4 from 23. January 2008

EAC extraction logfile from 7. February 2011, 17:24

Max Steiner / Casablanca

Used drive : Optiarc DVD RW AD-7241S Adapter: 1 ID: 1

Read mode : Secure
Utilize accurate stream : Yes
Defeat audio cache : Yes
Make use of C2 pointers : No

Read offset correction : 48
Overread into Lead-In and Lead-Out : No
Fill up missing offset samples with silence : Yes
Delete leading and trailing silent blocks : No
Null samples used in CRC calculations : Yes
Used interface : Installed external ASPI interface
Gap handling : Appended to previous track

Used output format : User Defined Encoder
Selected bitrate : 1024 kBit/s
Quality : High
Add ID3 tag : No
Command line compressor : C:\Program Files\Exact Audio Copy\Flac\flac.exe
Additional command line options : -8 -V -T "ARTIST=%a" -T "TITLE=%t" -T "ALBUM=%g" -T "DATE=%y" -T "TRACKNUMBER=%n" -T "GENRE=%m" -T "COMMENT=EAC FLAC -8" %s


TOC of the extracted CD

Track | Start | Length | Start sector | End sector
––––––––––––––––––––––––––––-
1 | 0:00.00 | 4:07.10 | 0 | 18534
2 | 4:07.10 | 2:11.15 | 18535 | 28374
3 | 6:18.25 | 1:20.36 | 28375 | 34410
4 | 7:38.61 | 1:36.68 | 34411 | 41678
5 | 9:15.54 | 1:59.73 | 41679 | 50676
6 | 11:15.52 | 8:44.68 | 50677 | 90044
7 | 20:00.45 | 2:42.39 | 90045 | 102233
8 | 22:43.09 | 2:33.17 | 102234 | 113725
9 | 25:16.26 | 3:50.26 | 113726 | 131001
10 | 29:06.52 | 4:46.13 | 131002 | 152464
11 | 33:52.65 | 1:20.67 | 152465 | 158531
12 | 35:13.57 | 2:47.45 | 158532 | 171101
13 | 38:01.27 | 3:10.09 | 171102 | 185360


Track 1

Filename F:\torrent\Casablanca_OST\score\01. Max Steiner – Casablanca (Main Title).wav

Pre-gap length 0:00:02.00

Peak level 99.9 %
Track quality 100.0 %
Test CRC 4D3BFCB6
Copy CRC 4D3BFCB6
Accurately ripped (confidence 2) [C84E6BA5]
Copy OK

Track 2

Filename F:\torrent\Casablanca_OST\score\02. Max Steiner – It Had to Be You - Shine.wav

Pre-gap length 0:00:02.04

Peak level 99.9 %
Track quality 100.0 %
Test CRC 26B1B988
Copy CRC 26B1B988
Accurately ripped (confidence 2) [8A6C0530]
Copy OK

Track 3

Filename F:\torrent\Casablanca_OST\score\03. Max Steiner – Knock on Wood.wav

Pre-gap length 0:00:03.05

Peak level 99.9 %
Track quality 100.0 %
Test CRC 3547D7B6
Copy CRC 3547D7B6
Accurately ripped (confidence 2) [7F2A9439]
Copy OK

Track 4

Filename F:\torrent\Casablanca_OST\score\04. Max Steiner – Parlez-Moi d'Amour-Tango Della Rosa.wav

Pre-gap length 0:00:03.05

Peak level 99.9 %
Track quality 100.0 %
Test CRC D680315B
Copy CRC D680315B
Accurately ripped (confidence 2) [7CC6FA74]
Copy OK

Track 5

Filename F:\torrent\Casablanca_OST\score\05. Max Steiner – As Time Goes By.wav

Pre-gap length 0:00:02.04

Peak level 99.9 %
Track quality 100.0 %
Test CRC CAC391B3
Copy CRC CAC391B3
Accurately ripped (confidence 2) [9D94BD50]
Copy OK

Track 6

Filename F:\torrent\Casablanca_OST\score\06. Max Steiner – Casablanca [Medley].wav

Pre-gap length 0:00:04.06

Peak level 99.9 %
Track quality 100.0 %
Test CRC F3E4C00E
Copy CRC F3E4C00E
Accurately ripped (confidence 2) [D00B662A]
Copy OK

Track 7

Filename F:\torrent\Casablanca_OST\score\07. Max Steiner – As Time Goes By-Die Watch Am Rhein-La Marsellaise.wav

Pre-gap length 0:00:02.04

Peak level 99.9 %
Track quality 100.0 %
Test CRC 8D15EFC6
Copy CRC 8D15EFC6
Accurately ripped (confidence 2) [BC09BB4F]
Copy OK

Track 8

Filename F:\torrent\Casablanca_OST\score\08. Max Steiner – Casablanca (Ending).wav

Pre-gap length 0:00:02.04

Peak level 99.9 %
Track quality 100.0 %
Test CRC 3030C3AE
Copy CRC 3030C3AE
Accurately ripped (confidence 2) [AE6AFCCA]
Copy OK

Track 9

Filename F:\torrent\Casablanca_OST\score\09. Max Steiner – Casablanca - As Time Goes By-Perfidia [First Studio Medley- As Time G].wav

Pre-gap length 0:00:05.08

Peak level 100.0 %
Track quality 100.0 %
Test CRC 8C63CEE5
Copy CRC 8C63CEE5
Accurately ripped (confidence 2) [91D150EF]
Copy OK

Track 10

Filename F:\torrent\Casablanca_OST\score\10. Max Steiner – Casablanca [Second Studio Medley] - Arthur 'Dooley' Wilson.wav

Pre-gap length 0:00:02.04

Peak level 98.8 %
Track quality 100.0 %
Test CRC 2DD64E50
Copy CRC 2DD64E50
Accurately ripped (confidence 2) [E4E0F7E7]
Copy OK

Track 11

Filename F:\torrent\Casablanca_OST\score\11. Max Steiner – Dat's What Noah Done.wav

Pre-gap length 0:00:02.04

Peak level 96.2 %
Track quality 100.0 %
Test CRC A0F9EA5B
Copy CRC A0F9EA5B
Accurately ripped (confidence 2) [0E5FDEAF]
Copy OK

Track 12

Filename F:\torrent\Casablanca_OST\score\12. Max Steiner – As Time Goes By [Studio Version].wav

Pre-gap length 0:00:02.04

Peak level 88.3 %
Track quality 100.0 %
Test CRC FF5DB473
Copy CRC FF5DB473
Accurately ripped (confidence 2) [12F5F275]
Copy OK

Track 13

Filename F:\torrent\Casablanca_OST\score\13. Max Steiner – Eagle and Me [From Bloomer Girl].wav

Pre-gap length 0:00:03.05

Peak level 99.9 %
Track quality 100.0 %
Test CRC B8A05887
Copy CRC B8A05887
Accurately ripped (confidence 2) [6787867D]
Copy OK


All tracks accurately ripped

No errors occurred

End of status report

foobar2000 1.2.1 / Dynamic Range Meter 1.1.1
log date: 2013-01-24 22:43:30

––––––––––––––––––––––––––––––––––––––––
Analyzed: Max Steiner / Casablanca
––––––––––––––––––––––––––––––––––––––––

DR Peak RMS Duration Track
––––––––––––––––––––––––––––––––––––––––
DR11 0.00 dB -15.26 dB 4:07 01-Casablanca (Main Title)
DR12 0.00 dB -15.92 dB 2:11 02-It Had to Be You - Shine
DR11 0.00 dB -18.27 dB 1:20 03-Knock on Wood
DR13 0.00 dB -18.60 dB 1:37 04-Parlez-Moi d'Amour-Tango Della Rosa
DR12 0.00 dB -16.63 dB 2:00 05-As Time Goes By
DR13 0.00 dB -18.81 dB 8:45 06-Casablanca [Medley]
DR12 0.00 dB -15.73 dB 2:43 07-As Time Goes By-Die Watch Am Rhein-La Marsellaise
DR10 0.00 dB -14.15 dB 2:33 08-Casablanca (Ending)
DR10 0.00 dB -13.07 dB 3:50 09-Casablanca : As Time Goes By-Perfidia [First Studio Medley: As Time G]
DR13 -0.10 dB -15.77 dB 4:46 10-Casablanca [Second Studio Medley] - Arthur 'Dooley' Wilson
DR11 -0.33 dB -13.28 dB 1:21 11-Dat's What Noah Done
DR11 -1.08 dB -15.60 dB 2:48 12-As Time Goes By [Studio Version]
DR15 0.00 dB -19.40 dB 3:10 13-Eagle and Me [From Bloomer Girl]
––––––––––––––––––––––––––––––––––––––––

Number of tracks: 13
Official DR value: DR12

Samplerate: 44100 Hz
Channels: 2
Bits per sample: 16
Bitrate: 348 kbps
Codec: FLAC
================================================================================

The Soundtrack Factory: Casablanca (1942/2002)

The Soundtrack Factory: Casablanca (1942/2002)

All thanks to original releaser - Sarant

More interesting music in My Blog