Subcategories

The Temprees - Love Maze (1973) [1995, Remastered with Bonus Tracks]

Posted By: BlondStyle
The Temprees - Love Maze (1973) [1995, Remastered with Bonus Tracks]

The Temprees - Love Maze (1973) [1995, Remastered with Bonus Tracks]
R&B, Soul/Funk, Memphis Soul | EAC Rip | FLAC, Img+CUE+LOG+Scans (TIF) | 01:01:17 | 417,84 Mb
Label: We Produce Records/Stax/Fantasy, Inc. (USA) | Cat.# SCD-88025-2 | Released: 1995-04-28 (1973)
The Temprees - Love Maze (1973) [1995, Remastered with Bonus Tracks]

The title track "Love Maze" features a heart-piercing lead, and impeccable backing harmonies; tender sweeties "Let Me Be the One" and "Passion" travel the same romantic road. Most prefer the Temprees doing dripping, slow ballads, and there's not enough of them on this multi-styled, rag-tag disc. Selections like "Something So Right" and "Come On Y'all" might not appeal to those who enjoy southern soul. The Temprees emulate the Stylistics on "Trust In Me," and "People Make the World Go 'Round," featuring their clear vocals and the Stax gang at their finest.
~Review by Andrew Hamilton

The Temprees - Love Maze (1973) [1995, Remastered with Bonus Tracks]

The Temprees - Love Maze (1973) [1995, Remastered with Bonus Tracks]




Release of the album: 1973 [LP We Produce Records, Cat.# XPS-1903, USA]
Release of this CD: 1995, April, 28 [CD We Produce Records/Stax (USA), Cat.# SCD-88025-2 / UPC: 025218882521]
℗&© 1995 Fantasy, Inc.
Printed/Made in USA

Notes: Digital Remastering by Phil De Lancie (Fantasy Studios, Berkeley).
Tracks 1-10 originally released as Love Maze (We Produce 1903); track 11 on We Produce single XPA-1810; track 12 released on It's Christmas Time Again (Stax 8519). "Passion" and "I Don't Love Nobody But You" are previously unreleased.
Recorded in Memphis 1972-1973.

Credits:

Bass – Errol Thomas
Drums – Bobbie Hunt, Willie Hall
Guitar – Bobby Manuel, Michael Toles
Horns – The South Memphis Horns
Keyboards – Greg Davis, Marvel Thomas
Producer – Jo Bridges, Tom Nixon
Producer, Keyboards – Lester Snell
Remastered By – Phil De Lancie
Strings – The Memphis Symphony


Tracklist:

01. Love's Maze (05:24)
02. Wrap Me In Love (02:38)
03. Let Me Be The One (04:13)
04. Something So Right (06:06)
05. At Last (03:00)
06. You Make The Sunshine (05:00)
07. You Make Me Love You (03:16)
08. Come On Y'All (04:14)
09. Trust In Me (03:52)
10. People Make The World Go Around (06:41)
Bonus Tracks:
11. Chalk It Up To Experience (03:07)
12. It's Christmas Time Again (The Christmas Song) (04:16)
13. Passion (04:19)
14. I Don't Love Nobody But You (05:12)

Exact Audio Copy V1.3 from 2. September 2016

EAC extraction logfile from 21. March 2020, 11:47

The Temprees / Love Maze

Used drive : Memorex 52MAXX 3252AJ1 Adapter: 1 ID: 2

Read mode : Secure
Utilize accurate stream : Yes
Defeat audio cache : Yes
Make use of C2 pointers : Yes

Read offset correction : 6
Overread into Lead-In and Lead-Out : No
Fill up missing offset samples with silence : Yes
Delete leading and trailing silent blocks : No
Null samples used in CRC calculations : Yes
Used interface : Native Win32 interface for Win NT & 2000

Used output format : User Defined Encoder
Selected bitrate : 768 kBit/s
Quality : High
Add ID3 tag : Yes
Command line compressor : C:\Program Files (x86)\Exact Audio Copy\FLAC\FLAC.EXE
Additional command line options : -6 -V -T "ARTIST=%artist%" -T "TITLE=%title%" -T "ALBUM=%albumtitle%" -T "DATE=%year%" -T "TRACKNUMBER=%tracknr%" -T "GENRE=%genre%" -T "COMMENT=%comment%" -T "BAND=%albuminterpret%" -T "ALBUMARTIST=%albuminterpret%" -T "COMPOSER=%composer%" %haslyrics%–tag-from-file=LYRICS="%lyricsfile%"%haslyrics% -T "DISCNUMBER=%cdnumber%" -T "TOTALDISCS=%totalcds%" -T "TOTALTRACKS=%numtracks%" %hascover%–picture="%coverfile%"%hascover% %source% -o %dest%


TOC of the extracted CD

Track | Start | Length | Start sector | End sector
––––––––––––––––––––––––––––-
1 | 0:00.00 | 5:24.23 | 0 | 24322
2 | 5:24.23 | 2:37.40 | 24323 | 36137
3 | 8:01.63 | 4:12.42 | 36138 | 55079
4 | 12:14.30 | 6:06.25 | 55080 | 82554
5 | 18:20.55 | 3:00.08 | 82555 | 96062
6 | 21:20.63 | 4:59.52 | 96063 | 118539
7 | 26:20.40 | 3:15.40 | 118540 | 133204
8 | 29:36.05 | 4:14.20 | 133205 | 152274
9 | 33:50.25 | 3:52.18 | 152275 | 169692
10 | 37:42.43 | 6:40.42 | 169693 | 199734
11 | 44:23.10 | 3:06.50 | 199735 | 213734
12 | 47:29.60 | 4:16.00 | 213735 | 232934
13 | 51:45.60 | 4:19.25 | 232935 | 252384
14 | 56:05.10 | 5:12.35 | 252385 | 275819


Range status and errors

Selected range

Filename C:\Users\M@ce\Music\Archives\Rips\The Temprees - Love Maze.wav

Peak level 100.0 %
Extraction speed 3.7 X
Range quality 100.0 %
Test CRC 1966AD7F
Copy CRC 1966AD7F
Copy OK

No errors occurred


AccurateRip summary

Track 1 accurately ripped (confidence 1) [41F14548] (AR v1)
Track 2 accurately ripped (confidence 1) [93FD2279] (AR v1)
Track 3 accurately ripped (confidence 1) [B2A58BBC] (AR v1)
Track 4 accurately ripped (confidence 1) [D9193F4F] (AR v1)
Track 5 accurately ripped (confidence 1) [ACF94B0E] (AR v1)
Track 6 accurately ripped (confidence 1) [402DCE28] (AR v1)
Track 7 accurately ripped (confidence 1) [6D98E23B] (AR v1)
Track 8 accurately ripped (confidence 1) [00CDDD64] (AR v1)
Track 9 accurately ripped (confidence 1) [910BF743] (AR v1)
Track 10 accurately ripped (confidence 1) [470B038D] (AR v1)
Track 11 accurately ripped (confidence 1) [98F7625C] (AR v1)
Track 12 accurately ripped (confidence 1) [F26F44D9] (AR v1)
Track 13 accurately ripped (confidence 1) [08821712] (AR v1)
Track 14 accurately ripped (confidence 1) [A761A790] (AR v1)

All tracks accurately ripped

End of status report

–– CUETools DB Plugin V2.1.6

[CTDB TOCID: p7glV70VCG6N2CJu4ThThiz397Q-] found
Submit result: p7glV70VCG6N2CJu4ThThiz397Q- has been confirmed
Track | CTDB Status
1 | (2/2) Accurately ripped
2 | (2/2) Accurately ripped
3 | (2/2) Accurately ripped
4 | (2/2) Accurately ripped
5 | (2/2) Accurately ripped
6 | (2/2) Accurately ripped
7 | (2/2) Accurately ripped
8 | (2/2) Accurately ripped
9 | (2/2) Accurately ripped
10 | (2/2) Accurately ripped
11 | (2/2) Accurately ripped
12 | (2/2) Accurately ripped
13 | (2/2) Accurately ripped
14 | (2/2) Accurately ripped


==== Log checksum D74A1D171D1AED4F44A6C0C9EE4B161B25FE162529974E5C3F5508703E145E3C ====

––––––––––––––––––––––––––––––––––––––––
Analyzed: The Temprees / Love Maze
––––––––––––––––––––––––––––––––––––––––

DR Peak RMS Duration Track
––––––––––––––––––––––––––––––––––––––––
DR13 0.00 dB -15.04 dB 5:24 01-Love's Maze
DR13 0.00 dB -14.48 dB 2:38 02-Wrap Me In Love
DR14 0.00 dB -17.19 dB 4:13 03-Let Me Be The One
DR12 0.00 dB -14.69 dB 6:06 04-Something So Right
DR11 0.00 dB -13.77 dB 3:00 05-At Last
DR12 0.00 dB -14.73 dB 5:00 06-You Make The Sunshine
DR12 0.00 dB -13.41 dB 3:16 07-You Make Me Love You
DR12 0.00 dB -13.35 dB 4:14 08-Come On Y'All
DR14 -0.53 dB -18.10 dB 3:52 09-Trust In Me
DR12 0.00 dB -15.39 dB 6:41 10-People Make The World Go Around
DR14 -0.02 dB -15.35 dB 3:07 11-Chalk It Up To Experience
DR13 0.00 dB -17.10 dB 4:16 12-It's Christmas Time Again (The Christmas Song)
DR11 -3.91 dB -17.34 dB 4:19 13-Passion
DR12 -0.08 dB -13.79 dB 5:12 14-I Don't Love Nobody But You
––––––––––––––––––––––––––––––––––––––––

Number of tracks: 14
Official DR value: DR12

Samplerate: 44100 Hz
Channels: 2
Bits per sample: 16
Bitrate: 813 kbps
Codec: FLAC
================================================================================

Thanks to my friend, M@ce

See also:
The Temprees - The Best Of The Temprees (1984) [1987, Reissue]

♫~Welcome To My Blog~♫

password: BlondStyle