Subcategories
Please register here if you want to download anything!

If domain in your address bar is different from the list below
PLEASE LEAVE THAT SITE IMMEDIATELY
❗IT'S A DANGEROUS FAKE❗



Spicy Magazines for Men! ;-)

The Temptations - Puzzle People (1969) [1992, Reissue]

Posted By: BlondStyle
The Temptations - Puzzle People (1969) [1992, Reissue]

The Temptations - Puzzle People (1969) [1992, Reissue]
R&B, Psychedelic Soul, Motown | EAC Rip | FLAC, Img+CUE+LOG+Scans (PNG) | 42:37 | 408,43 Mb
Label: Motown (USA) | Cat.# 3746351722 | Released: 1992-04-13 (1969-09-23)
The Temptations - Puzzle People (1969) [1992, Reissue]

"Puzzle People" is the 11th studio album released by American soul quintet The Temptations for the Gordy (Motown) label in 1969. Produced entirely by Norman Whitfield, "Puzzle People" takes the next step along the path that "Cloud Nine" started, and takes the Temptations further away from a classic soul sound, and more towards the realm of psychedelic soul. Although a few ballads, including "Running Away (Ain't Gonna Help You)," are still present, the album is primarily composed of Sly & the Family Stone/James Brown-derived proto-funk tracks such as the lead single "Don't Let the Joneses Get You Down," and the #1 Billboard Pop hit "I Can't Get Next to You." Also included are psychedelic-styled covers (recorded with distorted guitars, clavinets, and spacy reverb and sound effects) of contemporary songs such as The Isley Brothers' "It's Your Thing," The Beatles' "Hey Jude," and Roger Miller's "Little Green Apples." As opposed to the recordings of the David Ruffin/"Classic 5" era, the lead vocals here are frequently traded back and forth between the group members, with each of the two singles featuring all five Temptations on lead, and Dennis Edwards, Eddie Kendricks, and Paul Williams dominating most of the leads on the album tracks. The lyrics on some of the original numbers, written by former Motown artist Barrett Strong, were becoming increasingly socially conscious and political. "Slave" deals with the injustice in the prison system, while "Message From a Black Man" is a Black power song with a militant refrain: "no matter how hard you try/you can't stop me now." "Message From a Black Man" was a popular radio request in 1969, although the Temptations themselves, who thought the record too forward, never performed it live. "Puzzle People" was released on the same day (September 23, 1969) as "Together", a duets album of covers by the Temptations and labelmates Diana Ross & the Supremes. It peaked into the Top 5 on the Billboard Pop Albums chart, and spent fifteen weeks at #1 on the R&B Albums chart.
~Wikipedia

The Temptations - Puzzle People (1969) [1992, Reissue]

The Temptations - Puzzle People (1969) [1992, Reissue]




Release of the album: 1969, September, 23 [LP Gordy, Cat.# S-949, USA]
Release of this CD: 1992, April, 13 [CD Motown Record Company (USA), Cat.# 3746351722 / UPC: 737463517225]
© 1969 Motown Record Company
Manufactured and Distributed by Motown Record Company, L.P.
Printed/Made in U.S.A.


Note: AAD, Reissue

Credits:

Design [Cover & Liner] – Curtis McNair
Photography By – P. Bass
Producer – Norman Whitfield
Written-By – N. Whitfield, B. Strong (tracks: 1, 3, 4, 7 to 11)


Tracklist:

01. I Can't Get Next To You (02:54)
(B. Strong, N. Whitfield)
02. Hey Jude (03:29)
(J. Lennon, P. McCartney)
03. Don't Let The Joneses Get You Down (04:45)
(B. Strong, N. Whitfield)
04. Message From A Black Man (06:01)
(B. Strong, N. Whitfield)
05. It's Your Thing (03:13)
(O. Isley, R. Isley, R. Isley)
06. Little Green Apples (03:44)
(Bobby Russell)
07. You Don't Love Me No More (02:29)
(B. Strong, N. Whitfield, R. Penzabene)
08. Since I've Lost You (02:39)
(B. Strong, N. Whitfield)
09. Running Away (Ain't Gonna Help You) (02:46)
(B. Strong, N. Whitfield)
10. That's The Way Love Is (03:14)
(B. Strong, N. Whitfield)
11. Slave (07:23)
(B. Strong, N. Whitfield)

Exact Audio Copy V1.3 from 2. September 2016

EAC extraction logfile from 19. February 2019, 22:37

The Temptations / Puzzle People

Used drive : PIONEER BD-RW BDR-208D Adapter: 1 ID: 0

Read mode : Secure
Utilize accurate stream : Yes
Defeat audio cache : Yes
Make use of C2 pointers : No

Read offset correction : 667
Overread into Lead-In and Lead-Out : No
Fill up missing offset samples with silence : Yes
Delete leading and trailing silent blocks : No
Null samples used in CRC calculations : Yes
Used interface : Native Win32 interface for Win NT & 2000

Used output format : Internal WAV Routines
Sample format : 44.100 Hz; 16 Bit; Stereo


TOC of the extracted CD

Track | Start | Length | Start sector | End sector
––––––––––––––––––––––––––––-
1 | 0:00.00 | 2:53.62 | 0 | 13036
2 | 2:53.62 | 3:28.73 | 13037 | 28709
3 | 6:22.60 | 4:45.12 | 28710 | 50096
4 | 11:07.72 | 6:01.23 | 50097 | 77194
5 | 17:09.20 | 3:13.02 | 77195 | 91671
6 | 20:22.22 | 3:43.58 | 91672 | 108454
7 | 24:06.05 | 2:29.02 | 108455 | 119631
8 | 26:35.07 | 2:38.45 | 119632 | 131526
9 | 29:13.52 | 2:46.23 | 131527 | 143999
10 | 32:00.00 | 3:13.62 | 144000 | 158536
11 | 35:13.62 | 7:23.13 | 158537 | 191774


Range status and errors

Selected range

Filename D:\BlondStyle\The Temptations - Puzzle People.wav

Peak level 86.4 %
Extraction speed 6.4 X
Range quality 100.0 %
Test CRC 79C4ECE1
Copy CRC 79C4ECE1
Copy OK

No errors occurred


AccurateRip summary

Track 1 accurately ripped (confidence 2) [C03E7F42] (AR v2)
Track 2 accurately ripped (confidence 2) [75A41DD3] (AR v2)
Track 3 accurately ripped (confidence 2) [3CF95730] (AR v2)
Track 4 accurately ripped (confidence 2) [142841D1] (AR v2)
Track 5 accurately ripped (confidence 2) [90D2703D] (AR v2)
Track 6 accurately ripped (confidence 2) [F0E79B20] (AR v2)
Track 7 accurately ripped (confidence 2) [DE215A16] (AR v2)
Track 8 accurately ripped (confidence 2) [594E1249] (AR v2)
Track 9 accurately ripped (confidence 2) [5B2A392B] (AR v2)
Track 10 accurately ripped (confidence 2) [F0C50165] (AR v2)
Track 11 accurately ripped (confidence 2) [16DAFFE1] (AR v2)

All tracks accurately ripped

End of status report

–– CUETools DB Plugin V2.1.6

[CTDB TOCID: yKOMVZwXRtXp2iXFt8IIttoxwTM-] found
Submit result: already submitted
Track | CTDB Status
1 | (3/3) Accurately ripped
2 | (3/3) Accurately ripped
3 | (3/3) Accurately ripped
4 | (3/3) Accurately ripped
5 | (3/3) Accurately ripped
6 | (3/3) Accurately ripped
7 | (3/3) Accurately ripped
8 | (3/3) Accurately ripped
9 | (3/3) Accurately ripped
10 | (3/3) Accurately ripped
11 | (3/3) Accurately ripped


==== Log checksum 02B5830AD9DAD3D137B0604D2B43AC6C4406F3EC3C0CFDD19F513D24439F3D1F ====

––––––––––––––––––––––––––––––––––––––––
Analyzed: The Temptations / Puzzle People
––––––––––––––––––––––––––––––––––––––––

DR Peak RMS Duration Track
––––––––––––––––––––––––––––––––––––––––
DR11 -1.76 dB -15.24 dB 2:54 01-I Can't Get Next To You
DR11 -2.46 dB -17.34 dB 3:29 02-Hey Jude
DR10 -1.46 dB -14.29 dB 4:45 03-Don't Let The Joneses Get You Down
DR11 -2.71 dB -17.53 dB 6:01 04-Message From A Black Man
DR10 -1.80 dB -14.94 dB 3:13 05-It's Your Thing
DR12 -1.26 dB -16.36 dB 3:44 06-Little Green Apples
DR10 -2.42 dB -15.22 dB 2:29 07-You Don't Love Me No More
DR10 -2.51 dB -15.45 dB 2:39 08-Since I've Lost You
DR11 -1.61 dB -15.58 dB 2:46 09-Running Away (Ain't Gonna Help You)
DR11 -2.53 dB -15.51 dB 3:14 10-That's The Way Love Is
DR11 -2.63 dB -16.55 dB 7:23 11-Slave
––––––––––––––––––––––––––––––––––––––––

Number of tracks: 11
Official DR value: DR11

Samplerate: 44100 Hz
Channels: 2
Bits per sample: 16
Bitrate: 900 kbps
Codec: FLAC
================================================================================

See also:

♫~Welcome To My Blog~♫

password: BlondStyle