Subcategories

The Tomcats - Rock This Town (1998)

Posted By: jclane
The Tomcats - Rock This Town (1998)

The Tomcats - Rock This Town (1998)
EAC Rip | FLAC Image + Cue + Log | Complete Scans Included | 462.7 MB
MP3 CBR @320 kbps (LAME 3.99) | Joint Stereo | 184 MB
Collectables Records | COL-CD-5881 | Rockabilly

Most Successful Bands have a history that extends way beyond their first hit records. The Stray Cats were no Exception, and this collection of their earliest recording offers rare musical insight into the international hitmakers who exploded on the Charts in 1982.
Track Listing:

01. Rock This Town
02. Pink Thunderbird
03. Blue Jean Bop
04. Rockabilly Boogie
05. Be-Bop-A-Lula
06. Rip It Up
07. Pretty, Pretty Baby
08. Drug Store Rock & Roll
09. Ubangi Stomp
10. Round And Round
11. High School Confidential
12. Say Mama
13. Double Talkin' Baby
14. Summertime Blues
15. Red Hot
16. Somethin' Else
17. Stray Cat Strut
18. Mind Your Own Business
19. Cruisin'
20. Twenty Flight Rock
21. Rumble In Brighton (Take 1)
22. Rumble In Brighton (Take 2)


Exact Audio Copy V1.0 beta 2 from 29. April 2011

Отчёт EAC об извлечении, выполненном 14. января 2013, 18:58

The Tomcats / Rock This Town

Дисковод: ATAPI iHAS124 B Adapter: 1 ID: 1

Режим чтения : Достоверность
Использование точного потока : Да
Отключение кэша аудио : Да
Использование указателей C2 : Нет

Коррекция смещения при чтении : 6
Способность читать области Lead-in и Lead-out : Нет
Заполнение пропущенных сэмплов тишиной : Да
Удаление блоков с тишиной в начале и конце : Нет
При вычислениях CRC использовались нулевые сэмплы : Да
Интерфейс : Встроенный Win32-интерфейс для Win NT/2000

Выходной формат : Пользовательский кодировщик
Выбранный битрейт : 1024 kBit/s
Качество : Высокий
Добавление ID3-тега : Нет
Утилита сжатия : C:\Program Files\Exact Audio Copy\FLAC\FLAC.EXE
Дополнительные параметры : -6 -V -T "ARTIST=%artist%" -T "TITLE=%title%" -T "ALBUM=%albumtitle%" -T "DATE=%year%" -T "TRACKNUMBER=%tracknr%" -T "GENRE=%genre%" -T "COMMENT=%comment%" -T "BAND=%albuminterpret%" -T "COMPOSER=%composer%" %haslyrics%–tag-from-

TOC извлечённого CD

Трек | Старт | Длительность | Начальный сектор | Конечный сектор
––––––––––––––––––––––––––––––––––-
1 | 0:00.00 | 3:39.70 | 0 | 16494
2 | 3:39.70 | 2:35.47 | 16495 | 28166
3 | 6:15.42 | 3:13.73 | 28167 | 42714
4 | 9:29.40 | 4:02.40 | 42715 | 60904
5 | 13:32.05 | 4:44.25 | 60905 | 82229
6 | 18:16.30 | 2:10.20 | 82230 | 91999
7 | 20:26.50 | 4:26.40 | 92000 | 111989
8 | 24:53.15 | 4:44.35 | 111990 | 133324
9 | 29:37.50 | 3:33.00 | 133325 | 149299
10 | 33:10.50 | 3:56.57 | 149300 | 167056
11 | 37:07.32 | 3:31.28 | 167057 | 182909
12 | 40:38.60 | 3:21.57 | 182910 | 198041
13 | 44:00.42 | 3:13.40 | 198042 | 212556
14 | 47:14.07 | 5:25.03 | 212557 | 236934
15 | 52:39.10 | 2:43.35 | 236935 | 249194
16 | 55:22.45 | 3:16.62 | 249195 | 263956
17 | 58:39.32 | 3:15.33 | 263957 | 278614
18 | 61:54.65 | 3:00.47 | 278615 | 292161
19 | 64:55.37 | 4:22.48 | 292162 | 311859
20 | 69:18.10 | 4:07.32 | 311860 | 330416
21 | 73:25.42 | 1:21.63 | 330417 | 336554
22 | 74:47.30 | 3:02.42 | 336555 | 350246

Характеристики диапазона извлечения и сообщения об ошибках

Выбранный диапазон

Имя файла D:\Muzika\The Tomcats - Rock This Town (1980)\The Tomcats - Rock This Town.wav

Пиковый уровень 99.9 %
Скорость извлечения 9.6 X
Качество диапазона 99.9 %
CRC теста D44A1C0A
CRC копии D44A1C0A
Копирование… OK

Ошибок не произошло

AccurateRip: сводка

Трек 1 отсутствует в базе данных
Трек 2 отсутствует в базе данных
Трек 3 отсутствует в базе данных
Трек 4 отсутствует в базе данных
Трек 5 отсутствует в базе данных
Трек 6 отсутствует в базе данных
Трек 7 отсутствует в базе данных
Трек 8 отсутствует в базе данных
Трек 9 отсутствует в базе данных
Трек 10 отсутствует в базе данных
Трек 11 отсутствует в базе данных
Трек 12 отсутствует в базе данных
Трек 13 отсутствует в базе данных
Трек 14 отсутствует в базе данных
Трек 15 отсутствует в базе данных
Трек 16 отсутствует в базе данных
Трек 17 отсутствует в базе данных
Трек 18 отсутствует в базе данных
Трек 19 отсутствует в базе данных
Трек 20 отсутствует в базе данных
Трек 21 отсутствует в базе данных
Трек 22 отсутствует в базе данных

Ни одного трека нет в базе AccurateRip

Конец отчёта

==== Контрольная сумма отчёта 3D4581AF2F98602FBE0C94E6FAAF9B0382412D1A1D1DB52A699226FAA98C8525 ====


Personnel:

* Brian Setzer (vocals, guitar)
* Bob Beecher (bass)
* Gary Setzer (drums)

Released Date: 1998
Recorded Date: 1980
Format: CD, Compilation
Length: 55:05

The Tomcats - Rock This Town (1998)
The Tomcats - Rock This Town (1998)

******************************************************

CD Rip by audelas

The files are interchangeable!