Subcategories

The Tony Williams Lifetime - Turn It Over (Redux) (2007) {Bill Laswell Extended Edition}

Posted By: tiburon
The Tony Williams Lifetime - Turn It Over (Redux) (2007) {Bill Laswell Extended Edition}

The Tony Williams Lifetime - Turn It Over (Redux) (2007) {Bill Laswell Extended Edition}
EAC 1.0b3 | FLAC tracks level 8 | Cue+Log+M3U | Full Scans 300dpi | 381MB + 5% Recovery
Genre: Jazz Rock, Fusion

A rare, unreleased verson of The Tony Williams Lifetime album, Turn It Over. Expanded, remixed, and remastered by Bill Laswell from the original Polydor master tapes. This unabridged version of the complete album includes 4 unreleased cuts, and 5 longer unedited versions from album sessions - which was intended as a double LP but only released as an editied single LP. Cover art by Russell Mills, liner notes by John Szwed. Thanks to Bill Laswell for rescuing, and finally giving a proper mastering to match William's original intentions, to this most seminal, groundbreaking recording, mixing jazz, rock, prog and metal years ahead of virtually everyone else!

Track List
01. Vuelta Abajo* (6:33)
02. To Whom It May Concern: Us/Them (7:15)
03. This Night This Song* (3:52)
04. Do That** (2:55)
05. Big Nick* (3:17)
06. Once I Loved (5:09)
07. To Whom** (2:20)
08. Allah Be Praised* (6:13)
09. Right On* (8:05)
10. A Famous Blues (4:15)
11. New Piece** (6:15)

*Unedited version
**Previously unreleased

musicians
Tony Williams - drums, vocals
John McLaughlin - guitar, vocals
Larry Young - organ
Jack Bruce - bass, vocals

Produced by Monte Kay, Jack Lewis, Tony Williams


Exact Audio Copy V1.0 beta 3 from 29. August 2011

EAC extraction logfile from 6. January 2013, 9:59

Unknown Artist / Unknown Title

Used drive : MATSHITADVD+-RW UJ-857G Adapter: 0 ID: 0

Read mode : Secure
Utilize accurate stream : Yes
Defeat audio cache : Yes
Make use of C2 pointers : No

Read offset correction : 102
Overread into Lead-In and Lead-Out : No
Fill up missing offset samples with silence : Yes
Delete leading and trailing silent blocks : No
Null samples used in CRC calculations : Yes
Used interface : Native Win32 interface for Win NT & 2000
Gap handling : Appended to previous track

Used output format : User Defined Encoder
Selected bitrate : 1024 kBit/s
Quality : High
Add ID3 tag : No
Command line compressor : C:\Program Files\FLAC\flac.exe
Additional command line options : -8 -V -T "ARTIST=%artist%" -T "TITLE=%title%" -T "ALBUM=%albumtitle%" -T "DATE=%year%" -T "TRACKNUMBER=%tracknr%" -T "GENRE=%genre%" -T "PERFORMER=%albuminterpret%" -T "COMPOSER=%composer%" %haslyrics%–tag-from-file=LYRICS="%lyricsfile%"%haslyrics% -T "ALBUMARTIST=%albumartist%" -T "ALBUM ARTIST=%albumartist%" -T "DISCNUMBER=%cdnumber%" -T "TOTALDISCS=%totalcds%" -T "TOTALTRACKS=%numtracks%" -T "COMMENT=%comment%" %source% -o %dest%


TOC of the extracted CD

Track | Start | Length | Start sector | End sector
––––––––––––––––––––––––––––-
1 | 0:00.00 | 6:34.05 | 0 | 29554
2 | 6:34.05 | 7:15.50 | 29555 | 62229
3 | 13:49.55 | 3:52.00 | 62230 | 79629
4 | 17:41.55 | 2:55.65 | 79630 | 92819
5 | 20:37.45 | 3:17.15 | 92820 | 107609
6 | 23:54.60 | 5:09.34 | 107610 | 130818
7 | 29:04.19 | 2:20.06 | 130819 | 141324
8 | 31:24.25 | 6:13.00 | 141325 | 169299
9 | 37:37.25 | 8:05.00 | 169300 | 205674
10 | 45:42.25 | 4:15.50 | 205675 | 224849
11 | 49:58.00 | 6:15.65 | 224850 | 253039


Track 1

Filename C:\Tony Williams\01 - Track01.wav

Pre-gap length 0:00:02.00

Peak level 98.8 %
Extraction speed 2.4 X
Track quality 99.9 %
Test CRC 73C5B291
Copy CRC 73C5B291
Track not present in AccurateRip database
Copy OK

Track 2

Filename C:\Tony Williams\02 - Track02.wav

Peak level 98.8 %
Extraction speed 3.0 X
Track quality 100.0 %
Test CRC EFFA5AEC
Copy CRC EFFA5AEC
Track not present in AccurateRip database
Copy OK

Track 3

Filename C:\Tony Williams\03 - Track03.wav

Peak level 98.8 %
Extraction speed 3.0 X
Track quality 100.0 %
Test CRC 2EC11A20
Copy CRC 2EC11A20
Track not present in AccurateRip database
Copy OK

Track 4

Filename C:\Tony Williams\04 - Track04.wav

Peak level 98.8 %
Extraction speed 3.0 X
Track quality 100.0 %
Test CRC 72EC57FB
Copy CRC 72EC57FB
Track not present in AccurateRip database
Copy OK

Track 5

Filename C:\Tony Williams\05 - Track05.wav

Peak level 98.8 %
Extraction speed 2.8 X
Track quality 99.9 %
Test CRC D664C821
Copy CRC D664C821
Track not present in AccurateRip database
Copy OK

Track 6

Filename C:\Tony Williams\06 - Track06.wav

Peak level 63.1 %
Extraction speed 3.5 X
Track quality 100.0 %
Test CRC 4A8743AB
Copy CRC 4A8743AB
Track not present in AccurateRip database
Copy OK

Track 7

Filename C:\Tony Williams\07 - Track07.wav

Peak level 98.8 %
Extraction speed 2.6 X
Track quality 99.9 %
Test CRC E2447301
Copy CRC E2447301
Track not present in AccurateRip database
Copy OK

Track 8

Filename C:\Tony Williams\08 - Track08.wav

Peak level 98.8 %
Extraction speed 3.9 X
Track quality 100.0 %
Test CRC E35F9070
Copy CRC E35F9070
Track not present in AccurateRip database
Copy OK

Track 9

Filename C:\Tony Williams\09 - Track09.wav

Peak level 98.8 %
Extraction speed 4.2 X
Track quality 100.0 %
Test CRC 41619DCE
Copy CRC 41619DCE
Track not present in AccurateRip database
Copy OK

Track 10

Filename C:\Tony Williams\10 - Track10.wav

Peak level 98.8 %
Extraction speed 4.1 X
Track quality 100.0 %
Test CRC 127782D0
Copy CRC 127782D0
Track not present in AccurateRip database
Copy OK

Track 11

Filename C:\Tony Williams\11 - Track11.wav

Peak level 98.8 %
Extraction speed 4.5 X
Track quality 100.0 %
Test CRC FADA04EC
Copy CRC FADA04EC
Track not present in AccurateRip database
Copy OK


None of the tracks are present in the AccurateRip database

No errors occurred

End of status report

–– CUETools DB Plugin V2.1.3

[CTDB TOCID: h1SJKRZK3aiO7Ca90LL_NPwrhDg-] disk not present in database, Submit result: h1SJKRZK3aiO7Ca90LL_NPwrhDg- has been uploaded


==== Log checksum 6A4628B44F2CF706C00644314F2466D25F229241AFA364C6628093FE8A7ECCC0 ====


––––––––––––––––––––––––––––––––––––––––
Analyzed: The Tony Williams Lifetime / Turn It Over (Redux)
––––––––––––––––––––––––––––––––––––––––

DR Peak RMS Duration Track
––––––––––––––––––––––––––––––––––––––––
DR8 -0.10 dB -9.79 dB 6:34 01-Vuelta Abajo
DR9 -0.10 dB -10.98 dB 7:16 02-To Whom It May Concern: Us/Them
DR12 -0.10 dB -13.90 dB 3:52 03-This Night This Song
DR9 -0.10 dB -10.79 dB 2:56 04-Do That
DR9 -0.10 dB -11.28 dB 3:17 05-Big Nick
DR12 -3.99 dB -21.24 dB 5:09 06-Once I Loved
DR9 -0.10 dB -10.91 dB 2:20 07-To Whom
DR9 -0.10 dB -11.40 dB 6:13 08-Allah Be Praised
DR10 -0.10 dB -12.43 dB 8:05 09-Right On
DR9 -0.10 dB -13.66 dB 4:16 10-A Famous Blues
DR8 -0.10 dB -11.91 dB 6:16 11-New Piece
––––––––––––––––––––––––––––––––––––––––

Number of tracks: 11
Official DR value: DR10

Samplerate: 44100 Hz
Channels: 2
Bits per sample: 16
Bitrate: 816 kbps
Codec: FLAC
================================================================================

The Tony Williams Lifetime - Turn It Over (Redux) (2007) {Bill Laswell Extended Edition}
The Tony Williams Lifetime - Turn It Over (Redux) (2007) {Bill Laswell Extended Edition}
The Tony Williams Lifetime - Turn It Over (Redux) (2007) {Bill Laswell Extended Edition}


Rip by caaok