Subcategories

The Velvet Underground - Psychedelic Sounds From The Gymnasium

Posted By: SteveJobs
The Velvet Underground - Psychedelic Sounds From The Gymnasium

The Velvet Underground - Psychedelic Sounds From The Gymnasium (2008)
XLD Rip | Flac (Tracks-6) Cue, Log, m3u, md5, st5, ffp | complete Artwork 300 dpi | 278 MB
Rock | Bootleg | 2008 | XTV-CD 144

More material from the Gymnasium recordings is finally issued in February 2008 on the bootleg LP Live At The Gymnasium. According to Psychedelic Sounds From The Gymnasium liner notes, the reel-to-reel tape was recorded on the final night - Sunday April 30th 1967.

http://olivier.landemaine.free.fr/vu/live/1967/perf67.html


Tracklisting:
01 - I'm Not A Young Man Anymore (7:15)
02 - Guess I'm Falling In Love (4:12)
03 - I'm Waiting For The Man (5:30)
04 - Run Run Run (6:55)
05 - Sister Ray (18:51)
06 - Booker T. (6:37)


X Lossless Decoder version 20080926 (93.3)

XLD extraction logfile from 2008-10-22 19:56:13 +0200

The Velvet Underground / Psychedelic Sounds From The Gymnasium

Used drive : PIONEER DVD-RW DVR-K06A (revision Q631)

Use cdparanoia mode : YES (CDParanoia III 10.2 engine)
Disable audio cache : OK for the drive with cache less than 2750KB
Make use of C2 pointers : YES
Read offset correction : 48
Max retry count : 100

TOC of the extracted CD
Track | Start | Length | Start sector | End sector
––––––––––––––––––––––––––––-
1 | 00:00:00 | 07:15:71 | 0 | 32695
2 | 07:15:71 | 04:12:05 | 32696 | 51600
3 | 11:28:01 | 05:30:39 | 51601 | 76389
4 | 16:58:40 | 06:55:23 | 76390 | 107537
5 | 23:53:63 | 18:51:65 | 107538 | 192427
6 | 42:45:53 | 06:37:71 | 192428 | 222273

Track 01
Filename : /Users/Gabriel/Desktop/Psychedelic Sounds/Disc/01 The Velvet Underground - Im Not A Young Man Anymore.flac

CRC32 hash (test run) : 9873425E
CRC32 hash : 9873425E
CRC32 hash (skip zero) : EEAEF9F2
AccurateRip signature : EB9E17ED
->Track not present in AccurateRip database.
Statistics
Read error : 0
Skipped (treated as error) : 0
Edge jitter error (maybe fixed) : 0
Atom jitter error (maybe fixed) : 0
Drift error (maybe fixed) : 0
Dropped bytes error (maybe fixed) : 0
Duplicated bytes error (maybe fixed) : 0
Inconsistency in error sectors : 0

Track 02
Filename : /Users/Gabriel/Desktop/Psychedelic Sounds/Disc/02 The Velvet Underground - Guess Im Falling In Love.flac

CRC32 hash (test run) : 768F5FF0
CRC32 hash : 768F5FF0
CRC32 hash (skip zero) : 1A433F91
AccurateRip signature : B1D202F3
->Track not present in AccurateRip database.
Statistics
Read error : 0
Skipped (treated as error) : 0
Edge jitter error (maybe fixed) : 0
Atom jitter error (maybe fixed) : 0
Drift error (maybe fixed) : 0
Dropped bytes error (maybe fixed) : 0
Duplicated bytes error (maybe fixed) : 0
Inconsistency in error sectors : 0

Track 03
Filename : /Users/Gabriel/Desktop/Psychedelic Sounds/Disc/03 The Velvet Underground - Im Waiting For The Man.flac

CRC32 hash (test run) : F25C7189
CRC32 hash : F25C7189
CRC32 hash (skip zero) : 69FD1C03
AccurateRip signature : 041D278D
->Track not present in AccurateRip database.
Statistics
Read error : 0
Skipped (treated as error) : 0
Edge jitter error (maybe fixed) : 0
Atom jitter error (maybe fixed) : 0
Drift error (maybe fixed) : 0
Dropped bytes error (maybe fixed) : 0
Duplicated bytes error (maybe fixed) : 0
Inconsistency in error sectors : 0

Track 04
Filename : /Users/Gabriel/Desktop/Psychedelic Sounds/Disc/04 The Velvet Underground - Run Run Run.flac

CRC32 hash (test run) : 3B948EEF
CRC32 hash : 3B948EEF
CRC32 hash (skip zero) : 94F9EA80
AccurateRip signature : 58722BED
->Track not present in AccurateRip database.
Statistics
Read error : 0
Skipped (treated as error) : 0
Edge jitter error (maybe fixed) : 0
Atom jitter error (maybe fixed) : 0
Drift error (maybe fixed) : 0
Dropped bytes error (maybe fixed) : 0
Duplicated bytes error (maybe fixed) : 0
Inconsistency in error sectors : 0

Track 05
Filename : /Users/Gabriel/Desktop/Psychedelic Sounds/Disc/05 The Velvet Underground - Sister Ray.flac

CRC32 hash (test run) : 991976D7
CRC32 hash : 991976D7
CRC32 hash (skip zero) : D7ABF2CF
AccurateRip signature : 0561D3B7
->Track not present in AccurateRip database.
Statistics
Read error : 0
Skipped (treated as error) : 0
Edge jitter error (maybe fixed) : 0
Atom jitter error (maybe fixed) : 0
Drift error (maybe fixed) : 0
Dropped bytes error (maybe fixed) : 0
Duplicated bytes error (maybe fixed) : 0
Inconsistency in error sectors : 0

Track 06
Filename : /Users/Gabriel/Desktop/Psychedelic Sounds/Disc/06 The Velvet Underground - BookerT.flac

CRC32 hash (test run) : 702386D3
CRC32 hash : 702386D3
CRC32 hash (skip zero) : 28B2FE56
AccurateRip signature : 3B813042
->Track not present in AccurateRip database.
Statistics
Read error : 0
Skipped (treated as error) : 0
Edge jitter error (maybe fixed) : 0
Atom jitter error (maybe fixed) : 0
Drift error (maybe fixed) : 0
Dropped bytes error (maybe fixed) : 0
Duplicated bytes error (maybe fixed) : 0
Inconsistency in error sectors : 0

No errors occurred

End of status report