Subcategories

The Who - A Quick One (1966) [2012, Japanese 2 SHM-CDs] {Collector's Edition}

Posted By: BlondStyle
The Who - A Quick One (1966) [2012, Japanese 2 SHM-CDs] {Collector's Edition}

The Who - A Quick One (1966) [2012, Japanese 2 SHM-CDs] {Collector's Edition}
Pop/Rock, Mod, British Invasion | EAC Rip | FLAC, Tracks+CUE+LOG+Scans (JPEG) | 02:07:03 h. | 873,57 Mb
Label: Universal Music LLC (Japan) | Cat.# UICY-94804~5 | Released: 2012-06-27 (1966-12-09)

"A Quick One" is the second studio album by the English rock band The Who, released on 9 December 1966. The album was also released under the title "Happy Jack" on Decca Records in April 1967 in the United States, where the song "Happy Jack" was a top 40 hit. The Who's second studio album departs from the R&B emphasis of the first. Part of the marketing push for the album was a requirement that each band member should write at least two of the songs on it, though Roger Daltrey only wrote one ("See My Way"), so this is The Who album least dominated by Pete Townshend's songwriting. It was recorded at IBC Studios, Pye Studios, and Regent Sound in London England in 1966 by record producer Kit Lambert. Townshend said that this push for equal contribution led to the exclusion of the band's singles that he had written. "Boris the Spider" was written after John Entwistle had been out drinking with The Rolling Stones' bass guitarist Bill Wyman. They were making up funny names for animals when Entwistle came up with the song. "Boris the Spider" quickly became Entwistle's most popular song, still performed decades later: in later years he often wore a spider necklace. "Heat Wave", the only cover-version and the only reversion to the group's soul influences, a song by Tamla's Holland–Dozier–Holland team, was replaced by "Happy Jack" on the original US release but included on the 1974 double album repackaging of A Quick One and The Who Sell Out. "A Quick One, While He's Away", the title track of the album, is a nine-minute suite of song snippets telling a story of infidelity and reconciliation, a first foray into extended form that led to the so-called "rock operas" Tommy and Quadrophenia. Keith Moon's "I Need You", was originally titled "I Need You (Like I Need a Hole in the Head)". Moon thought The Beatles spoke in a secret language behind his back, and this song was his way of getting back at them. Although Moon denied that a vocal part in the song was a John Lennon imitation, Entwistle said that, in fact, it was. "Cobwebs and Strange" was originally called "Showbiz Sonata", though Entwistle claimed that the melody came from the UK television series Man From Interpol. The mod/pop number "So Sad About Us", according to AllMusic, is "one of the Who's most covered songs". The Merseys, Shaun Cassidy, Primal Scream, The Breeders and The Jam have recorded studio versions. Each band member played a wind instrument on "Cobwebs and Strange": Townshend played the penny-whistle, Entwistle on the trumpet, Daltrey on the trombone, and Moon on the tuba.
~Wikipedia
The Who's second album is a less impressive outing than their debut, primarily because, at the urging of their managers, all four members penned original material (though Pete Townshend wrote more than anyone else). The pure adrenaline of My Generation also subsided somewhat as the band began to grapple with more complex melodic and lyrical themes, especially on the erratic mini-opera "A Quick One While He's Away." Still, there's some great madness on Keith Moon's instrumental "Cobwebs and Strange," and Townshend delivered some solid mod pop with "Run Run Run" and "So Sad About Us." John Entwistle was also revealed to be a writer of considerable talent (and a morbid bent) on "Whiskey Man" and "Boris the Spider."
~Review by Richie Unterberger

The Who - A Quick One (1966) [2012, Japanese 2 SHM-CDs] {Collector's Edition}

The Who - A Quick One (1966) [2012, Japanese 2 SHM-CDs] {Collector's Edition}

The Who - A Quick One (1966) [2012, Japanese 2 SHM-CDs] {Collector's Edition}


Release of this album: 1966, December, 9 [LP Reaction Records, Cat.# 593 002, UK]
Release of this 2CDs Set: 2012, June, 27 [CDs Universal Music LLC (Japan), Cat.# UICY-94804~5 / EAN: 4988005715784]
This compilation ℗ 2008 & © 1966 Polydor Ltd. (UK).
Universal International, a Universal Music Company.
Marketed and Distributed by Universal Music LLC.
Made in Japan


Notes: 2012 Japanese double SHM-CD in three replica mini-LPs (UK 1966 mono cover with CD 1, US "Happy Jack" 1966 cover with CD 2, Germany 1966 cover with booklet).

Credits:

Bass Guitar, Vocals – John Entwistle
Coordinator [Artwork] – Chihiro Nozaki, Takeshi Doke
Drums, Vocals – Keith Moon
Guitar, Vocals – Pete Townshend
Producer – Kit Lambert
Product Manager – Naoki Shiokawa
Remastered By [24bit/96kHz Remastered] – Jon Astley
Vocals – Roger Daltrey


The Who - A Quick One (1966) [2012, Japanese 2 SHM-CDs] {Collector's Edition}


Disc 1 (Mono)

The Original Album

01. Run Run Run (02:33)
02. Boris The Spider (02:34)
03. I Need You (02:30)
04. Whiskey Man (03:00)
05. Heatwave (02:02)
06. Cobwebs And Strange (02:34)
07. Don't Look Away (02:57)
08. See My Way (01:58)
09. So Sad About Us (03:08)
10. A Quick One, While He's Away (09:12)

Bonus Tracks

11. Substitute (03:49)
12. Circles (02:30)
13. I'm A Boy (02:40)
14. In The City (02:24)
15. Batman (01:27)
16. Bucket T (02:11)
17. Barbara Ann (02:02)
18. Disguises (03:12)
19. Happy Jack (02:13)
20. I've Been Away (02:10)
21. Substitute (US Single Version) (02:59)
22. I'm A Boy (Alternate Version) (03:20)
23. Batman (Instrmental) (01:15)
24. Happy Jack (Acoustic Version) (02:26)
25. Happy Jack (Alternate Mix) (02:14)

Exact Audio Copy V1.0 beta 3 from 29. August 2011

EAC extraction logfile from 14. November 2016, 17:14

The Who / A Quick One Disc 1 Mono

Used drive : HL-DT-STDVDRAM GH24NS90 Adapter: 1 ID: 0

Read mode : Secure
Utilize accurate stream : Yes
Defeat audio cache : Yes
Make use of C2 pointers : No

Read offset correction : 6
Overread into Lead-In and Lead-Out : No
Fill up missing offset samples with silence : Yes
Delete leading and trailing silent blocks : No
Null samples used in CRC calculations : Yes
Used interface : Native Win32 interface for Win NT & 2000
Gap handling : Appended to previous track

Used output format : User Defined Encoder
Selected bitrate : 1024 kBit/s
Quality : High
Add ID3 tag : No
Command line compressor : C:\Program Files (x86)\FLAC\metaflac.exe
Additional command line options : -8


TOC of the extracted CD

Track | Start | Length | Start sector | End sector
––––––––––––––––––––––––––––-
1 | 0:00.00 | 2:32.38 | 0 | 11437
2 | 2:32.38 | 2:33.70 | 11438 | 22982
3 | 5:06.33 | 2:30.30 | 22983 | 34262
4 | 7:36.63 | 3:00.27 | 34263 | 47789
5 | 10:37.15 | 2:02.00 | 47790 | 56939
6 | 12:39.15 | 2:34.37 | 56940 | 68526
7 | 15:13.52 | 2:56.54 | 68527 | 81780
8 | 18:10.31 | 1:57.62 | 81781 | 90617
9 | 20:08.18 | 3:08.30 | 90618 | 104747
10 | 23:16.48 | 9:11.59 | 104748 | 146131
11 | 32:28.32 | 3:48.73 | 146132 | 163304
12 | 36:17.30 | 2:30.10 | 163305 | 174564
13 | 38:47.40 | 2:39.60 | 174565 | 186549
14 | 41:27.25 | 2:24.20 | 186550 | 197369
15 | 43:51.45 | 1:27.07 | 197370 | 203901
16 | 45:18.52 | 2:11.05 | 203902 | 213731
17 | 47:29.57 | 2:02.13 | 213732 | 222894
18 | 49:31.70 | 3:12.26 | 222895 | 237320
19 | 52:44.21 | 2:13.04 | 237321 | 247299
20 | 54:57.25 | 2:09.39 | 247300 | 257013
21 | 57:06.64 | 2:59.32 | 257014 | 270470
22 | 60:06.21 | 3:20.18 | 270471 | 285488
23 | 63:26.39 | 1:14.57 | 285489 | 291095
24 | 64:41.21 | 2:55.52 | 291096 | 304272
25 | 67:36.73 | 2:14.14 | 304273 | 314336


Track 1

Filename C:\Exact Audio Copy\The Who\A Quick One Disc 1 Mono\01. Run Run Run.wav

Pre-gap length 0:00:02.00

Peak level 97.9 %
Extraction speed 1.0 X
Track quality 100.0 %
Test CRC 6B6F74F4
Copy CRC 6B6F74F4
Accurately ripped (confidence 10) [1C93E4F9] (AR v2)
Copy OK

Track 2

Filename C:\Exact Audio Copy\The Who\A Quick One Disc 1 Mono\02. Boris The Spider.wav

Peak level 99.8 %
Extraction speed 1.1 X
Track quality 100.0 %
Test CRC 32BE6EB2
Copy CRC 32BE6EB2
Accurately ripped (confidence 10) [412E70E6] (AR v2)
Copy OK

Track 3

Filename C:\Exact Audio Copy\The Who\A Quick One Disc 1 Mono\03. I Need You.wav

Pre-gap length 0:00:05.19

Peak level 99.8 %
Extraction speed 1.0 X
Track quality 99.9 %
Test CRC D47350F3
Copy CRC D47350F3
Accurately ripped (confidence 10) [E9E5D9D6] (AR v2)
Copy OK

Track 4

Filename C:\Exact Audio Copy\The Who\A Quick One Disc 1 Mono\04. Whiskey Man.wav

Pre-gap length 0:00:06.19

Peak level 99.6 %
Extraction speed 1.3 X
Track quality 100.0 %
Test CRC 7B161813
Copy CRC 7B161813
Accurately ripped (confidence 10) [060CC146] (AR v2)
Copy OK

Track 5

Filename C:\Exact Audio Copy\The Who\A Quick One Disc 1 Mono\05. Heat Wave.wav

Pre-gap length 0:00:03.74

Peak level 99.8 %
Extraction speed 1.2 X
Track quality 100.0 %
Test CRC 784A9F17
Copy CRC 784A9F17
Accurately ripped (confidence 10) [E0050658] (AR v2)
Copy OK

Track 6

Filename C:\Exact Audio Copy\The Who\A Quick One Disc 1 Mono\06. Cobwebs And Strange.wav

Pre-gap length 0:00:06.06

Peak level 97.9 %
Extraction speed 1.3 X
Track quality 100.0 %
Test CRC B8FAAF1F
Copy CRC B8FAAF1F
Accurately ripped (confidence 10) [2A057F0F] (AR v2)
Copy OK

Track 7

Filename C:\Exact Audio Copy\The Who\A Quick One Disc 1 Mono\07. Don't Look Away.wav

Pre-gap length 0:00:04.59

Peak level 99.8 %
Extraction speed 1.4 X
Track quality 100.0 %
Test CRC 42F6B505
Copy CRC 42F6B505
Accurately ripped (confidence 10) [9E35081D] (AR v2)
Copy OK

Track 8

Filename C:\Exact Audio Copy\The Who\A Quick One Disc 1 Mono\08. See My Way.wav

Pre-gap length 0:00:05.05

Peak level 99.8 %
Extraction speed 1.1 X
Track quality 99.9 %
Test CRC 8281D4C2
Copy CRC 8281D4C2
Accurately ripped (confidence 10) [5125ECA7] (AR v2)
Copy OK

Track 9

Filename C:\Exact Audio Copy\The Who\A Quick One Disc 1 Mono\09. So Sad About Us.wav

Pre-gap length 0:00:05.60

Peak level 94.8 %
Extraction speed 1.6 X
Track quality 100.0 %
Test CRC 43AB73A4
Copy CRC 43AB73A4
Accurately ripped (confidence 10) [347A0DC3] (AR v2)
Copy OK

Track 10

Filename C:\Exact Audio Copy\The Who\A Quick One Disc 1 Mono\10. A Quick One, While He's Away.wav

Pre-gap length 0:00:07.18

Peak level 99.8 %
Extraction speed 1.8 X
Track quality 99.9 %
Test CRC FF2886D2
Copy CRC FF2886D2
Accurately ripped (confidence 10) [107C7517] (AR v2)
Copy OK

Track 11

Filename C:\Exact Audio Copy\The Who\A Quick One Disc 1 Mono\11. Substitute (Bonus Tk).wav

Pre-gap length 0:00:04.38

Peak level 99.8 %
Extraction speed 1.8 X
Track quality 100.0 %
Test CRC F8AE2D91
Copy CRC F8AE2D91
Accurately ripped (confidence 10) [EF98FDBC] (AR v2)
Copy OK

Track 12

Filename C:\Exact Audio Copy\The Who\A Quick One Disc 1 Mono\12. Circles (Bonus Tk).wav

Pre-gap length 0:00:01.30

Peak level 99.8 %
Extraction speed 1.8 X
Track quality 100.0 %
Test CRC 1D9E1929
Copy CRC 1D9E1929
Accurately ripped (confidence 10) [5C4450E6] (AR v2)
Copy OK

Track 13

Filename C:\Exact Audio Copy\The Who\A Quick One Disc 1 Mono\13. I'm A Boy (Bonus Tk).wav

Pre-gap length 0:00:01.43

Peak level 99.3 %
Extraction speed 1.8 X
Track quality 100.0 %
Test CRC EB1DAE95
Copy CRC EB1DAE95
Accurately ripped (confidence 10) [5B137BC6] (AR v2)
Copy OK

Track 14

Filename C:\Exact Audio Copy\The Who\A Quick One Disc 1 Mono\14. In The City (Bonus Tk).wav

Pre-gap length 0:00:02.52

Peak level 99.8 %
Extraction speed 1.8 X
Track quality 100.0 %
Test CRC 886E175C
Copy CRC 886E175C
Accurately ripped (confidence 9) [16A8F131] (AR v2)
Copy OK

Track 15

Filename C:\Exact Audio Copy\The Who\A Quick One Disc 1 Mono\15. Batman (Bonus Tk).wav

Pre-gap length 0:00:01.44

Peak level 96.7 %
Extraction speed 1.6 X
Track quality 100.0 %
Test CRC F81742A0
Copy CRC F81742A0
Accurately ripped (confidence 9) [C3BC3080] (AR v2)
Copy OK

Track 16

Filename C:\Exact Audio Copy\The Who\A Quick One Disc 1 Mono\16. Bucket T (Bonus Tk).wav

Pre-gap length 0:00:01.44

Peak level 90.1 %
Extraction speed 1.8 X
Track quality 100.0 %
Test CRC 72431179
Copy CRC 72431179
Accurately ripped (confidence 10) [FD8182BE] (AR v2)
Copy OK

Track 17

Filename C:\Exact Audio Copy\The Who\A Quick One Disc 1 Mono\17. Barbara Ann (Bonus Tk).wav

Pre-gap length 0:00:02.40

Peak level 96.9 %
Extraction speed 1.5 X
Track quality 99.9 %
Test CRC 20E8E2AB
Copy CRC 20E8E2AB
Accurately ripped (confidence 10) [8C8AE42D] (AR v2)
Copy OK

Track 18

Filename C:\Exact Audio Copy\The Who\A Quick One Disc 1 Mono\18. Disguises (Bonus Tk).wav

Pre-gap length 0:00:02.54

Peak level 99.6 %
Extraction speed 2.1 X
Track quality 100.0 %
Test CRC 9E38904C
Copy CRC 9E38904C
Accurately ripped (confidence 10) [44A5055D] (AR v2)
Copy OK

Track 19

Filename C:\Exact Audio Copy\The Who\A Quick One Disc 1 Mono\19. Happy Jack (Bonus Tk).wav

Pre-gap length 0:00:01.26

Peak level 99.8 %
Extraction speed 2.0 X
Track quality 100.0 %
Test CRC 7EEF7FB2
Copy CRC 7EEF7FB2
Accurately ripped (confidence 10) [FB357155] (AR v2)
Copy OK

Track 20

Filename C:\Exact Audio Copy\The Who\A Quick One Disc 1 Mono\20. I've Been Away (Bonus Tk).wav

Pre-gap length 0:00:01.51

Peak level 99.5 %
Extraction speed 2.0 X
Track quality 100.0 %
Test CRC 79A3C986
Copy CRC 79A3C986
Accurately ripped (confidence 10) [77D0D49F] (AR v2)
Copy OK

Track 21

Filename C:\Exact Audio Copy\The Who\A Quick One Disc 1 Mono\21. Substitute (US Single Version).wav

Pre-gap length 0:00:02.21

Peak level 99.8 %
Extraction speed 2.2 X
Track quality 100.0 %
Test CRC FD59B374
Copy CRC FD59B374
Accurately ripped (confidence 10) [18785C04] (AR v2)
Copy OK

Track 22

Filename C:\Exact Audio Copy\The Who\A Quick One Disc 1 Mono\22. I'm A Boy (Alt Version).wav

Pre-gap length 0:00:01.24

Peak level 90.7 %
Extraction speed 2.2 X
Track quality 100.0 %
Test CRC FD7B8746
Copy CRC FD7B8746
Accurately ripped (confidence 10) [23FB6F67] (AR v2)
Copy OK

Track 23

Filename C:\Exact Audio Copy\The Who\A Quick One Disc 1 Mono\23. Batman (Instrumental).wav

Pre-gap length 0:00:02.29

Peak level 86.8 %
Extraction speed 1.8 X
Track quality 100.0 %
Test CRC A816897F
Copy CRC A816897F
Accurately ripped (confidence 10) [92DCDE8B] (AR v2)
Copy OK

Track 24

Filename C:\Exact Audio Copy\The Who\A Quick One Disc 1 Mono\24. Happy Jack (Acoustic Version).wav

Pre-gap length 0:00:01.66

Peak level 99.8 %
Extraction speed 2.3 X
Track quality 100.0 %
Test CRC 0A9F0DAF
Copy CRC 0A9F0DAF
Accurately ripped (confidence 10) [ECE13420] (AR v2)
Copy OK

Track 25

Filename C:\Exact Audio Copy\The Who\A Quick One Disc 1 Mono\25. Happy Jack (Alt Mix).wav

Pre-gap length 0:00:03.53

Peak level 99.9 %
Extraction speed 2.2 X
Track quality 100.0 %
Test CRC 8CB7FA00
Copy CRC 8CB7FA00
Accurately ripped (confidence 10) [4995A9FB] (AR v2)
Copy OK


All tracks accurately ripped

No errors occurred

End of status report

–– CUETools DB Plugin V2.1.6

[CTDB TOCID: 05ehY3lNn1_8eIoqfln9CTLYg98-] found
Submit result: 05ehY3lNn1_8eIoqfln9CTLYg98- has been confirmed
Track | CTDB Status
1 | (6/6) Accurately ripped
2 | (6/6) Accurately ripped
3 | (6/6) Accurately ripped
4 | (6/6) Accurately ripped
5 | (6/6) Accurately ripped
6 | (6/6) Accurately ripped
7 | (6/6) Accurately ripped
8 | (6/6) Accurately ripped
9 | (6/6) Accurately ripped
10 | (6/6) Accurately ripped
11 | (6/6) Accurately ripped
12 | (6/6) Accurately ripped
13 | (6/6) Accurately ripped
14 | (6/6) Accurately ripped
15 | (6/6) Accurately ripped
16 | (6/6) Accurately ripped
17 | (6/6) Accurately ripped
18 | (6/6) Accurately ripped
19 | (6/6) Accurately ripped
20 | (6/6) Accurately ripped
21 | (5/6) Accurately ripped
22 | (6/6) Accurately ripped
23 | (6/6) Accurately ripped
24 | (6/6) Accurately ripped
25 | (6/6) Accurately ripped


==== Log checksum 82B16B6B1E2B85E28E795C63C71E1B09954FD8137AEBD4B5367380C000A81E3C ====

––––––––––––––––––––––––––––––––––––––––
Analyzed: The Who / A Quick One Disc 1
––––––––––––––––––––––––––––––––––––––––

DR Peak RMS Duration Track
––––––––––––––––––––––––––––––––––––––––
DR7 -0.18 dB -10.10 dB 2:33 01-Run Run Run
DR8 -0.01 dB -9.56 dB 2:34 02-Boris The Spider
DR8 -0.01 dB -11.06 dB 2:30 03-I Need You
DR12 -0.03 dB -14.53 dB 3:00 04-Whiskey Man
DR8 -0.01 dB -9.70 dB 2:02 05-Heat Wave
DR9 -0.18 dB -12.57 dB 2:34 06-Cobwebs And Strange
DR11 -0.01 dB -13.26 dB 2:57 07-Don't Look Away
DR10 -0.01 dB -12.10 dB 1:58 08-See My Way
DR9 -0.46 dB -11.24 dB 3:08 09-So Sad About Us
DR11 -0.01 dB -12.72 dB 9:12 10-A Quick One, While He's Away
DR10 -0.01 dB -11.85 dB 3:49 11-Substitute (Bonus Tk)
DR9 -0.01 dB -10.09 dB 2:30 12-Circles (Bonus Tk)
DR8 -0.05 dB -9.55 dB 2:40 13-I'm A Boy (Bonus Tk)
DR9 -0.01 dB -10.19 dB 2:24 14-In The City (Bonus Tk)
DR8 -0.29 dB -11.07 dB 1:27 15-Batman (Bonus Tk)
DR8 -0.90 dB -10.95 dB 2:11 16-Bucket T (Bonus Tk)
DR9 -0.27 dB -10.96 dB 2:02 17-Barbara Ann (Bonus Tk)
DR9 -0.03 dB -10.02 dB 3:12 18-Disguises (Bonus Tk)
DR8 -0.01 dB -10.95 dB 2:13 19-Happy Jack (Bonus Tk)
DR11 -0.04 dB -13.05 dB 2:10 20-I've Been Away (Bonus Tk)
DR10 -0.01 dB -11.06 dB 2:59 21-Substitute (US Single Version)
DR10 -0.85 dB -11.95 dB 3:20 22-I'm A Boy (Alt Version)
DR8 -1.22 dB -9.97 dB 1:15 23-Batman (Instrumental)
DR8 -0.01 dB -12.16 dB 2:56 24-Happy Jack (Acoustic Version)
DR12 -0.01 dB -13.64 dB 2:14 25-Happy Jack (Alt Mix)
––––––––––––––––––––––––––––––––––––––––

Number of tracks: 25
Official DR value: DR9

Samplerate: 44100 Hz
Channels: 2
Bits per sample: 16
Bitrate: 792 kbps
Codec: FLAC
================================================================================

The Who - A Quick One (1966) [2012, Japanese 2 SHM-CDs] {Collector's Edition}


Disc 2 (Stereo)

The Original Album

01. Run Run Run (02:33)
02. Boris The Spider (02:34)
03. I Need You (02:30)
04. Whiskey Man (03:00)
05. Heatwave (02:02)
06. Cobwebs And Strange (02:34)
07. Don't Look Away (02:57)
08. See My Way (01:58)
09. So Sad About Us (03:08)
10. A Quick One, While He's Away (09:12)

Bonus Tracks

11. I'm A Boy (02:39)
12. In The City (02:24)
13. Batman (01:36)
14. Bucket T (02:09)
15. Barbara Ann (02:02)
16. Disguises (03:21)
17. I've Been Away (02:10)
18. Man With Money (02:46)
19. My Generation / Land Of Hope And Glory (02:04)
20. I'm A Boy (Alternate Version) (03:44)

Exact Audio Copy V1.0 beta 3 from 29. August 2011

EAC extraction logfile from 14. November 2016, 18:51

The Who / A Quick One Disc 2 Stereo

Used drive : HL-DT-STDVDRAM GH24NS90 Adapter: 1 ID: 0

Read mode : Secure
Utilize accurate stream : Yes
Defeat audio cache : Yes
Make use of C2 pointers : No

Read offset correction : 6
Overread into Lead-In and Lead-Out : No
Fill up missing offset samples with silence : Yes
Delete leading and trailing silent blocks : No
Null samples used in CRC calculations : Yes
Used interface : Native Win32 interface for Win NT & 2000
Gap handling : Appended to previous track

Used output format : User Defined Encoder
Selected bitrate : 1024 kBit/s
Quality : High
Add ID3 tag : No
Command line compressor : C:\Program Files (x86)\FLAC\metaflac.exe
Additional command line options : -8


TOC of the extracted CD

Track | Start | Length | Start sector | End sector
––––––––––––––––––––––––––––-
1 | 0:00.00 | 2:47.06 | 0 | 12530
2 | 2:47.06 | 2:29.35 | 12531 | 23740
3 | 5:16.41 | 2:25.58 | 23741 | 34673
4 | 7:42.24 | 3:00.08 | 34674 | 48181
5 | 10:42.32 | 1:56.47 | 48182 | 56928
6 | 12:39.04 | 2:33.19 | 56929 | 68422
7 | 15:12.23 | 2:55.15 | 68423 | 81562
8 | 18:07.38 | 1:55.47 | 81563 | 90234
9 | 20:03.10 | 3:02.51 | 90235 | 103935
10 | 23:05.61 | 9:12.63 | 103936 | 145398
11 | 32:18.49 | 2:39.17 | 145399 | 157340
12 | 34:57.66 | 2:23.59 | 157341 | 168124
13 | 37:21.50 | 1:36.20 | 168125 | 175344
14 | 38:57.70 | 2:08.39 | 175345 | 184983
15 | 41:06.34 | 2:02.35 | 184984 | 194168
16 | 43:08.69 | 3:21.32 | 194169 | 209275
17 | 46:30.26 | 2:09.54 | 209276 | 219004
18 | 48:40.05 | 2:46.16 | 219005 | 231470
19 | 51:26.21 | 2:04.37 | 231471 | 240807
20 | 53:30.58 | 3:44.00 | 240808 | 257607


Track 1

Filename C:\Exact Audio Copy\The Who\A Quick One Disc 2 Stereo\01. Run Run Run.wav

Pre-gap length 0:00:02.00

Peak level 99.8 %
Extraction speed 0.9 X
Track quality 100.0 %
Test CRC 900EDB4D
Copy CRC 900EDB4D
Accurately ripped (confidence 10) [15F819EF] (AR v2)
Copy OK

Track 2

Filename C:\Exact Audio Copy\The Who\A Quick One Disc 2 Stereo\02. Boris The Spider.wav

Pre-gap length 0:00:03.43

Peak level 99.8 %
Extraction speed 1.0 X
Track quality 100.0 %
Test CRC 0149956E
Copy CRC 0149956E
Accurately ripped (confidence 10) [AEE93B31] (AR v2)
Copy OK

Track 3

Filename C:\Exact Audio Copy\The Who\A Quick One Disc 2 Stereo\03. I Need You.wav

Pre-gap length 0:00:02.28

Peak level 99.8 %
Extraction speed 0.9 X
Track quality 99.9 %
Test CRC 9BD4BB2E
Copy CRC 9BD4BB2E
Accurately ripped (confidence 10) [38FAFB13] (AR v2)
Copy OK

Track 4

Filename C:\Exact Audio Copy\The Who\A Quick One Disc 2 Stereo\04. Whiskey Man.wav

Pre-gap length 0:00:04.34

Peak level 99.8 %
Extraction speed 1.1 X
Track quality 100.0 %
Test CRC F3AD3CA1
Copy CRC F3AD3CA1
Accurately ripped (confidence 10) [310F3794] (AR v2)
Copy OK

Track 5

Filename C:\Exact Audio Copy\The Who\A Quick One Disc 2 Stereo\05. Heat Wave.wav

Pre-gap length 0:00:04.12

Peak level 99.8 %
Extraction speed 1.1 X
Track quality 100.0 %
Test CRC 985593B1
Copy CRC 985593B1
Accurately ripped (confidence 10) [751A7F6F] (AR v2)
Copy OK

Track 6

Filename C:\Exact Audio Copy\The Who\A Quick One Disc 2 Stereo\06. Cobwebs And Strange.wav

Pre-gap length 0:00:04.05

Peak level 99.7 %
Extraction speed 1.2 X
Track quality 100.0 %
Test CRC C3009530
Copy CRC C3009530
Accurately ripped (confidence 10) [9B86B20F] (AR v2)
Copy OK

Track 7

Filename C:\Exact Audio Copy\The Who\A Quick One Disc 2 Stereo\07. Don't Look Away.wav

Pre-gap length 0:00:03.65

Peak level 99.9 %
Extraction speed 1.3 X
Track quality 100.0 %
Test CRC E97181C5
Copy CRC E97181C5
Accurately ripped (confidence 10) [0B95DA97] (AR v2)
Copy OK

Track 8

Filename C:\Exact Audio Copy\The Who\A Quick One Disc 2 Stereo\08. See My Way.wav

Pre-gap length 0:00:03.15

Peak level 98.8 %
Extraction speed 1.0 X
Track quality 99.9 %
Test CRC 03312F3D
Copy CRC 03312F3D
Accurately ripped (confidence 10) [1AA7E04A] (AR v2)
Copy OK

Track 9

Filename C:\Exact Audio Copy\The Who\A Quick One Disc 2 Stereo\09. So Sad About Us.wav

Pre-gap length 0:00:03.66

Peak level 100.0 %
Extraction speed 1.4 X
Track quality 100.0 %
Test CRC 6D7CFB35
Copy CRC 6D7CFB35
Accurately ripped (confidence 10) [E28BA5F3] (AR v2)
Copy OK

Track 10

Filename C:\Exact Audio Copy\The Who\A Quick One Disc 2 Stereo\10. A Quick One, While He's Away.wav

Pre-gap length 0:00:03.28

Peak level 99.8 %
Extraction speed 1.7 X
Track quality 100.0 %
Test CRC 7C0BA162
Copy CRC 7C0BA162
Accurately ripped (confidence 10) [2FDE85BC] (AR v2)
Copy OK

Track 11

Filename C:\Exact Audio Copy\The Who\A Quick One Disc 2 Stereo\11. I'm A Boy (Bonus Tk).wav

Pre-gap length 0:00:03.36

Suspicious position 0:02:38 Fixed

Peak level 98.5 %
Extraction speed 0.8 X
Track quality 99.6 %
Test CRC D32F2AB4
Copy CRC CDD1C6B6
Cannot be verified as accurate (confidence 10) [19693F60], AccurateRip returned [FD99D67F] (AR v2)
Copy finished

Track 12

Filename C:\Exact Audio Copy\The Who\A Quick One Disc 2 Stereo\12. In The City (Bonus Tk).wav

Pre-gap length 0:00:02.59

Peak level 99.8 %
Extraction speed 1.6 X
Track quality 100.0 %
Test CRC 073825E1
Copy CRC 073825E1
Accurately ripped (confidence 10) [DE3F4A94] (AR v2)
Copy OK

Track 13

Filename C:\Exact Audio Copy\The Who\A Quick One Disc 2 Stereo\13. Batman (Bonus Tk).wav

Pre-gap length 0:00:02.24

Peak level 94.7 %
Extraction speed 1.1 X
Track quality 99.8 %
Test CRC BE3A2F42
Copy CRC BE3A2F42
Accurately ripped (confidence 10) [6E6764F8] (AR v2)
Copy OK

Track 14

Filename C:\Exact Audio Copy\The Who\A Quick One Disc 2 Stereo\14. Bucket T (Bonus Tk).wav

Pre-gap length 0:00:01.66

Peak level 66.4 %
Extraction speed 1.6 X
Track quality 100.0 %
Test CRC 61FAC5D2
Copy CRC 61FAC5D2
Accurately ripped (confidence 10) [CD90FDE9] (AR v2)
Copy OK

Track 15

Filename C:\Exact Audio Copy\The Who\A Quick One Disc 2 Stereo\15. Barbara Ann (Bonus Tk).wav

Pre-gap length 0:00:01.37

Peak level 99.8 %
Extraction speed 1.3 X
Track quality 99.9 %
Test CRC DACB12AD
Copy CRC DACB12AD
Accurately ripped (confidence 10) [27F2C317] (AR v2)
Copy OK

Track 16

Filename C:\Exact Audio Copy\The Who\A Quick One Disc 2 Stereo\16. Disguises (Bonus Tk).wav

Pre-gap length 0:00:03.26

Peak level 98.8 %
Extraction speed 1.8 X
Track quality 100.0 %
Test CRC E862E149
Copy CRC E862E149
Accurately ripped (confidence 10) [A8BD000E] (AR v2)
Copy OK

Track 17

Filename C:\Exact Audio Copy\The Who\A Quick One Disc 2 Stereo\17. I've Been Away (Bonus Tk).wav

Pre-gap length 0:00:02.13

Peak level 99.8 %
Extraction speed 1.7 X
Track quality 100.0 %
Test CRC E6C8A850
Copy CRC E6C8A850
Accurately ripped (confidence 10) [0933D97A] (AR v2)
Copy OK

Track 18

Filename C:\Exact Audio Copy\The Who\A Quick One Disc 2 Stereo\18. Man With Money (Bonus Tk).wav

Pre-gap length 0:00:02.62

Peak level 99.8 %
Extraction speed 1.8 X
Track quality 100.0 %
Test CRC C2BA475D
Copy CRC C2BA475D
Accurately ripped (confidence 10) [E50FB24D] (AR v2)
Copy OK

Track 19

Filename C:\Exact Audio Copy\The Who\A Quick One Disc 2 Stereo\19. My Generation ~ Land Of Hope And Glory (Bonus Tk).wav

Pre-gap length 0:00:02.34

Peak level 99.8 %
Extraction speed 1.4 X
Track quality 99.9 %
Test CRC 2A6B9D35
Copy CRC 2A6B9D35
Accurately ripped (confidence 10) [96F608F3] (AR v2)
Copy OK

Track 20

Filename C:\Exact Audio Copy\The Who\A Quick One Disc 2 Stereo\20. I'm A Boy (Alt Version).wav

Pre-gap length 0:00:00.60

Peak level 99.9 %
Extraction speed 2.0 X
Track quality 100.0 %
Test CRC EC040F86
Copy CRC EC040F86
Accurately ripped (confidence 10) [2E0DE12D] (AR v2)
Copy OK


19 track(s) accurately ripped
1 track(s) could not be verified as accurate

Some tracks could not be verified as accurate

There were errors

End of status report

–– CUETools DB Plugin V2.1.6

[CTDB TOCID: eJCmJ4.UqZ2hx1kuM6QPo7C7nTs-] found
Submit result: insufficient quality
Track | CTDB Status
1 | (6/6) Accurately ripped
2 | (6/6) Accurately ripped
3 | (6/6) Accurately ripped
4 | (6/6) Accurately ripped
5 | (6/6) Accurately ripped
6 | (6/6) Accurately ripped
7 | (6/6) Accurately ripped
8 | (6/6) Accurately ripped
9 | (6/6) Accurately ripped
10 | (6/6) Accurately ripped
11 | (6/6) Differs in 35564 samples @02:38:41-02:38:71
12 | (6/6) Accurately ripped
13 | (6/6) Accurately ripped
14 | (6/6) Accurately ripped
15 | (6/6) Accurately ripped
16 | (6/6) Accurately ripped
17 | (6/6) Accurately ripped
18 | (6/6) Accurately ripped
19 | (6/6) Accurately ripped
20 | (6/6) Accurately ripped
If you are sure that your rip contains errors, you can use CUETools to repair it.


==== Log checksum 8F45C2FD655157E7F94F7BF87E73B0335C27013CBA48459E8B4605FB9829F4AD ====

––––––––––––––––––––––––––––––––––––––––
Analyzed: The Who / A Quick One Disc 2
––––––––––––––––––––––––––––––––––––––––

DR Peak RMS Duration Track
––––––––––––––––––––––––––––––––––––––––
DR9 -0.01 dB -10.79 dB 2:47 01-Run Run Run
DR10 -0.01 dB -11.14 dB 2:29 02-Boris The Spider
DR10 -0.01 dB -12.60 dB 2:26 03-I Need You
DR11 -0.01 dB -13.82 dB 3:00 04-Whiskey Man
DR10 -0.01 dB -10.90 dB 1:57 05-Heat Wave
DR11 -0.03 dB -13.58 dB 2:33 06-Cobwebs And Strange
DR11 -0.01 dB -13.74 dB 2:55 07-Don't Look Away
DR9 -0.10 dB -12.00 dB 1:56 08-See My Way
DR11 0.00 dB -12.44 dB 3:03 09-So Sad About Us
DR12 -0.01 dB -14.05 dB 9:13 10-A Quick One, While He's Away
DR10 -0.13 dB -11.82 dB 2:37 11-I'm A Boy (Bonus Tk)
DR11 -0.01 dB -12.19 dB 2:24 12-In The City (Bonus Tk)
DR10 -0.47 dB -13.21 dB 1:36 13-Batman (Bonus Tk)
DR7 -3.55 dB -11.68 dB 2:09 14-Bucket T (Bonus Tk)
DR10 -0.01 dB -11.31 dB 2:02 15-Barbara Ann (Bonus Tk)
DR10 -0.10 dB -12.00 dB 3:21 16-Disguises (Bonus Tk)
DR12 -0.01 dB -13.93 dB 2:10 17-I've Been Away (Bonus Tk)
DR11 -0.01 dB -12.47 dB 2:46 18-Man With Money (Bonus Tk)
DR10 -0.01 dB -11.78 dB 2:04 19-My Generation ~ Land Of Hope And Glory (Bonus Tk)
DR10 -0.01 dB -11.95 dB 3:44 20-I'm A Boy (Alt Version)
––––––––––––––––––––––––––––––––––––––––

Number of tracks: 20
Official DR value: DR10

Samplerate: 44100 Hz
Channels: 2
Bits per sample: 16
Bitrate: 837 kbps
Codec: FLAC
================================================================================

Thanks to saintsmon


See also:
The Who - My Generation (1965) [2012, Japanese 2 SHM-CDs] {Collector's Edition}

password: BlondStyle