Subcategories

Then Jerico - The Big Area (1989) [Japan]

Posted By: BlondStyle
Then Jerico - The Big Area (1989) [Japan]

Then Jerico - The Big Area (1989) [Japan]
Pop/Rock, Acid Rock, New Wave | EAC Rip | FLAC, Img+CUE+LOG+Full Scans (JPEG) | 46:35 Min. | 386,82 Mb
Label: London Records / Polydor K.K. (Japan) | Cat.# POOL-20110 | Released: 1989-04-07

The second and, as far as most listeners were concerned, final album from London's Then Jerico stands as the group's defining moment, containing their biggest hit (the rousing, synth-rocking title track) and best presentation, courtesy of former Roxy Music producer Rhett Davies. His polished, sweeping soundscapes match the band's anthemic songwriting well, even if they do remove some of the live excitement that was also a staple of Then Jerico's appeal. The highs here are higher than on First (The Sound of Music), as singer Mark Shaw turns "Sugar Box" into the sort of epic ballad that eluded him previously, and overall is much less mannered than on the band's debut. As for the lows, there are less of them (the album clocks in at a reasonable 40 minutes), and Davies turns any potential problem spots having Belinda Carlisle match Shaw warble for warble on "What Does It Take" probably wasn't the best idea into very listenable, likeable arena rock. Not surprisingly, the album was very successful, although the group disbanded after touring behind it. Shaw later recruited a new Then Jerico lineup in the late 90's and released a third album, Orgasmaphobia.
~Review by Dan LeRoy

Then Jerico - The Big Area (1989) [Japan]

Then Jerico - The Big Area (1989) [Japan]


Release of the album: 1989 [LP London Records, Cat.# LIB 5172, UK]
Release of this CD: 1989, April, 7 [CD London Records / Polydor K.K. (Japan), Cat.# POOL-20110 / EAN: 4988005047656]
℗© 1989 FFRR Records Ltd.
Made in Japan by Polydor K.K. Japan

Credits:

Arranged By [Strings] – Paul Buckmaster (tracks: 6, 8)
Bass Guitar – Stainthorpe
Drums, Percussion [Rhythm] – Wren
Engineer [2nd] – Jim Champagne, Michael Ade, Owen Davies Ltd., Scott McLain
Engineer [Mixing] – Bruce Lampcov (tracks: 1, 3, 4), Mike Shipley (tracks: 6 to 8), Peter Henderson (tracks: 2, 5, 10), Rhett Davies (tracks: 3, 4), Rick Nowels (tracks: 2)
Engineer [Recording] – John Brough, Peter Henderson, Richard Sullivan
Illustration, Cover – Nexus
Keyboards, Programmed By – Charles Judge, Chris Youdell
Lead Guitar – Downes
Photography – Ray Robinson, Robert Erdmann
Producer – Gary Langan (tracks: 1), Peter Henderson (tracks: 5, 10), Rick Nowels (tracks: 2, 6 to 9)
Producer, Engineer [Mixing] – Mark Shaw (tracks: 5, 10)
Rhythm Guitar – Taylor
Vocals, Cover – Shaw
Written By – Shaw (tracks: 5), Taylor (tracks: 5), Then Jerico (tracks: 1, 3, 4, 6 to 10)
Written-By – Youdell (tracks: 5), Munday (tracks: 2), Stewart (tracks: 2)


Tracklist:

01. Big Area (04:49)
02. What Does It Take? (03:51)
03. You Ought to Know (04:14)
04. Song for the Brokenhearted (04:32)
05. Darkest Hour (04:34)
06. Reeling (05:39)
07. Where You Lie (04:57)
08. Sugar Box (03:47)
09. Helpless (04:08)
10. Under Fire (06:04)

Exact Audio Copy V1.1 from 23. June 2015

Отчёт EAC об извлечении, выполненном 7. января 2018, 16:11

Then Jerico / The Big Area (Sample CD POOL 20110)

Дисковод: PLEXTOR BD-R PX-B950SA Adapter: 1 ID: 0

Режим чтения : Достоверность
Использование точного потока : Да
Отключение кэша аудио : Да
Использование указателей C2 : Нет

Коррекция смещения при чтении : 6
Способность читать области Lead-in и Lead-out : Нет
Заполнение пропущенных сэмплов тишиной : Да
Удаление блоков с тишиной в начале и конце : Нет
При вычислениях CRC использовались нулевые сэмплы : Да
Интерфейс : Встроенный Win32-интерфейс для Win NT/2000

Выходной формат : Пользовательский кодировщик
Выбранный битрейт : 1024 kBit/s
Качество : Высокий
Добавление ID3-тега : Нет
Утилита сжатия : C:\Program Files (x86)\Exact Audio Copy\FLAC\FLAC.EXE
Дополнительные параметры : -6 -V -T "ARTIST=%artist%" -T "TITLE=%title%" -T "ALBUM=%albumtitle%" -T "DATE=%year%" -T "TRACKNUMBER=%tracknr%" -T "GENRE=%genre%" -T "COMMENT=%comment%" -T "BAND=%albuminterpret%" -T "ALBUMARTIST=%albuminterpret%" -T "COMPOSER=%composer%" %haslyrics%–tag-from-file=LYRICS="%lyricsfile%"%haslyrics% -T "DISCNUMBER=%cdnumber%" -T "TOTALDISCS=%totalcds%" -T "TOTALTRACKS=%numtracks%" %hascover%–picture="%coverfile%"%hascover% %source% -o %dest%


TOC извлечённого CD

Трек | Старт | Длительность | Начальный сектор | Конечный сектор
––––––––––––––––––––––––––––––––––-
1 | 0:00.37 | 4:49.28 | 37 | 21739
2 | 4:49.65 | 3:50.40 | 21740 | 39029
3 | 8:40.30 | 4:13.67 | 39030 | 58071
4 | 12:54.22 | 4:31.38 | 58072 | 78434
5 | 17:25.60 | 4:33.50 | 78435 | 98959
6 | 21:59.35 | 5:39.37 | 98960 | 124421
7 | 27:38.72 | 4:56.38 | 124422 | 146659
8 | 32:35.35 | 3:47.25 | 146660 | 163709
9 | 36:22.60 | 4:08.35 | 163710 | 182344
10 | 40:31.20 | 6:04.05 | 182345 | 209649


Характеристики диапазона извлечения и сообщения об ошибках

Выбранный диапазон

Имя файла G:\RIP\Then Jerico 1989 Japanese Pressing FLAC by alzal\Then Jerico - The Big Area (Sample CD POOL 20110).wav

Пиковый уровень 100.0 %
Скорость извлечения 8.9 X
Качество диапазона 100.0 %
CRC теста 6603C7AF
CRC копии 6603C7AF
Копирование… OK

Ошибок не произошло


AccurateRip: сводка

Трек 1 отсутствует в базе данных
Трек 2 отсутствует в базе данных
Трек 3 отсутствует в базе данных
Трек 4 отсутствует в базе данных
Трек 5 отсутствует в базе данных
Трек 6 отсутствует в базе данных
Трек 7 отсутствует в базе данных
Трек 8 отсутствует в базе данных
Трек 9 отсутствует в базе данных
Трек 10 отсутствует в базе данных

Ни одного трека нет в базе AccurateRip

Конец отчёта

–– CUETools DB Plugin V2.1.6

[CTDB TOCID: hgxWkLvrr9s_yLXjeqsLxbaP7KA-] disk not present in database
Submit result: hgxWkLvrr9s_yLXjeqsLxbaP7KA- has been uploaded


==== Контрольная сумма отчёта 7A771844FA334B8B8A11BCBE21D9F3A7819C1AF094EE18ECCC0B0AD0E4B5BB88 ====

––––––––––––––––––––––––––––––––––––––––
Analyzed: Then Jerico / The Big Area (Sample CD POOL 20110)
––––––––––––––––––––––––––––––––––––––––

DR Peak RMS Duration Track
––––––––––––––––––––––––––––––––––––––––
DR12 -0.82 dB -15.03 dB 4:49 01-Big Area
DR13 0.00 dB -14.90 dB 3:51 02-What Does It Take?
DR13 0.00 dB -14.36 dB 4:14 03-You Ought To Know
DR13 -0.98 dB -16.68 dB 4:32 04-Song For The Brokenhearted
DR13 -0.08 dB -17.04 dB 4:34 05-Darkest Hour
DR13 0.00 dB -15.51 dB 5:39 06-Reeling
DR13 0.00 dB -16.17 dB 4:57 07-Where You Lie
DR12 -0.22 dB -16.73 dB 3:47 08-Sugar Box
DR12 -0.36 dB -15.09 dB 4:08 09-Helpless
DR14 0.00 dB -15.80 dB 6:04 10-Under Fire
––––––––––––––––––––––––––––––––––––––––

Number of tracks: 10
Official DR value: DR13

Samplerate: 44100 Hz
Channels: 2
Bits per sample: 16
Bitrate: 976 kbps
Codec: FLAC
================================================================================

Thanks to alzal

password: BlondStyle