Subcategories

Thibault Gomez Quintet - La Grande Reveuse (2018) {Parallel}

Posted By: tiburon
Thibault Gomez Quintet - La Grande Reveuse (2018) {Parallel}

Thibault Gomez Quintet - La Grande Reveuse (2018) {Parallel}
EAC 1.3 | FLAC tracks level 8 | Cue+Log+M3U | Full Scans 300dpi | 328MB + 5% Recovery
MP3 CBR 320 Kbps | 135MB + 5% Recovery
Genre: Avant-Garde Jazz

If the name Thibault Gomez is unfamiliar to you keep an eye out. Thibault and his quintet won the tenth Keep an Eye International Jazz Award which is awarded to outstanding young vocalists and instrumentalists from the USA, Europe and the Conservatorium van Amsterdam. Thibault began playing piano when he was just 7 years old and later enrolled in the jazz department of CRR de Chambery Annecy, later specialising in improvisation. He is active on the jazz scene, especially lately with his quintet. The quintet are: Robinson Khoury (Michel Becquet, Uptake, Francois Moutin, won the Jay Jay Johnson international prize for trombone and with his band won the Rezzo Focal Jazz a Vienne in 2014) on trombone, Pierre-Marie Lapprand (Live a la Source, MaDam RamDam, Mental Climbers), on saxophones Etienne Renard (Makafunk) on double bass and Benoit Joblot (Luise Volkmann) on drums.
Track List
1. Les escargots n'ont pas d'oreilles (08:13)
2. Voyons monsieur sortez de chez moi et rentrez chez vous (06:20)
3. Rhinocéros pirate (08:02)
4. La grande rêveuse (07:37)
5. La montée des ballons (04:36)
6. Crapauduc (09:20)
7. Prunelle (07:04)
8. Chips, no. 4 (02:16)

musicians
Thibault Gomez - piano
Pierre-Marie Lapprand - saxophones
Robinson Khoury - trombone
Etienne Renard - bass
Benoît Joblot - drums

Produced by Thibault Gomez


Exact Audio Copy V1.3 from 2. September 2016

EAC extraction logfile from 6. December 2018, 18:24

Thibault Gomez Quintet / La Grande Reveuse

Used drive : ATAPI iHBS112 2 Adapter: 1 ID: 1

Read mode : Secure
Utilize accurate stream : Yes
Defeat audio cache : Yes
Make use of C2 pointers : No

Read offset correction : 6
Overread into Lead-In and Lead-Out : No
Fill up missing offset samples with silence : Yes
Delete leading and trailing silent blocks : No
Null samples used in CRC calculations : Yes
Used interface : Native Win32 interface for Win NT & 2000
Gap handling : Appended to previous track

Used output format : User Defined Encoder
Selected bitrate : 768 kBit/s
Quality : High
Add ID3 tag : No
Command line compressor : C:\Program Files (x86)\Exact Audio Copy\Flac\flac.exe
Additional command line options : -8 -V -T "ARTIST=%artist%" -T "TITLE=%title%" -T "ALBUM=%albumtitle%" -T "DATE=%year%" -T "TRACKNUMBER=%tracknr%" -T "GENRE=%genre%" -T "PERFORMER=%albuminterpret%" -T "COMPOSER=%composer%" -T "ALBUMARTIST=%albumartist%" -T "DISCNUMBER=%cdnumber%" -T "TOTALDISCS=%totalcds%" -T "TOTALTRACKS=%numtracks%" -T "COMMENT=EAC Secure Mode, Test & Copy, AccurateRip, FLAC -8" %source% -o %dest%


TOC of the extracted CD

Track | Start | Length | Start sector | End sector
––––––––––––––––––––––––––––-
1 | 0:00.00 | 8:18.00 | 0 | 37349
2 | 8:18.00 | 6:25.00 | 37350 | 66224
3 | 14:43.00 | 8:06.00 | 66225 | 102674
4 | 22:49.00 | 7:42.00 | 102675 | 137324
5 | 30:31.00 | 4:41.00 | 137325 | 158399
6 | 35:12.00 | 9:25.00 | 158400 | 200774
7 | 44:37.00 | 14:20.00 | 200775 | 265274


Track 1

Filename G:\DL\Thibault Gomez Quintet - La Grande Reveuse (2018) [FLAC]\01 - Les escargots n'ont pas d'oreilles.wav

Pre-gap length 0:00:02.00

Peak level 82.2 %
Extraction speed 5.9 X
Track quality 99.9 %
Test CRC 4DC5D744
Copy CRC 4DC5D744
Track not present in AccurateRip database
Copy OK

Track 2

Filename G:\DL\Thibault Gomez Quintet - La Grande Reveuse (2018) [FLAC]\02 - Voyons Monsieur sortez de chez moi et rentrez chez vous.wav

Pre-gap length 0:00:05.00

Peak level 80.6 %
Extraction speed 7.2 X
Track quality 100.0 %
Test CRC BF568CE6
Copy CRC BF568CE6
Track not present in AccurateRip database
Copy OK

Track 3

Filename G:\DL\Thibault Gomez Quintet - La Grande Reveuse (2018) [FLAC]\03 - Rhinoceros Pirate.wav

Pre-gap length 0:00:05.00

Peak level 79.6 %
Extraction speed 7.4 X
Track quality 99.9 %
Test CRC B27BEDB9
Copy CRC B27BEDB9
Track not present in AccurateRip database
Copy OK

Track 4

Filename G:\DL\Thibault Gomez Quintet - La Grande Reveuse (2018) [FLAC]\04 - La montee des ballons.wav

Pre-gap length 0:00:04.00

Peak level 70.2 %
Extraction speed 8.8 X
Track quality 100.0 %
Test CRC 643B0D65
Copy CRC 643B0D65
Track not present in AccurateRip database
Copy OK

Track 5

Filename G:\DL\Thibault Gomez Quintet - La Grande Reveuse (2018) [FLAC]\05 - La grande Reveuse.wav

Pre-gap length 0:00:05.00

Peak level 77.4 %
Extraction speed 8.9 X
Track quality 100.0 %
Test CRC B6569BED
Copy CRC B6569BED
Track not present in AccurateRip database
Copy OK

Track 6

Filename G:\DL\Thibault Gomez Quintet - La Grande Reveuse (2018) [FLAC]\06 - Crapauduc.wav

Pre-gap length 0:00:05.00

Peak level 75.3 %
Extraction speed 10.1 X
Track quality 100.0 %
Test CRC 6E0E7468
Copy CRC 6E0E7468
Track not present in AccurateRip database
Copy OK

Track 7

Filename G:\DL\Thibault Gomez Quintet - La Grande Reveuse (2018) [FLAC]\07 - Prunelle.wav

Pre-gap length 0:00:05.00

Peak level 77.7 %
Extraction speed 11.1 X
Track quality 100.0 %
Test CRC 4058AAD1
Copy CRC 4058AAD1
Track not present in AccurateRip database
Copy OK


None of the tracks are present in the AccurateRip database

No errors occurred

End of status report

–– CUETools DB Plugin V2.1.6

[CTDB TOCID: MUXMAPRV1tDCzZq.ba9QULxgMFA-] found
Submit result: MUXMAPRV1tDCzZq.ba9QULxgMFA- has been confirmed
Track | CTDB Status
1 | (2/2) Accurately ripped
2 | (2/2) Accurately ripped
3 | (2/2) Accurately ripped
4 | (2/2) Accurately ripped
5 | (2/2) Accurately ripped
6 | (2/2) Accurately ripped
7 | (2/2) Accurately ripped


==== Log checksum 2693270F4DAB07B42BF9E449294DD6141F943186EADF4C4B0AA02919F880505C ====

Thibault Gomez Quintet - La Grande Reveuse (2018) {Parallel}


Thanks to the original ripper