Tags
Language
Tags

Thierry David - 3 Albums (1996-2011)

Posted By: gribovar
Thierry David - 3 Albums (1996-2011)

Thierry David - 3 Albums (1996-2011)
EAC Rip | FLAC (tracks/image+.cue+log) - 1 GB | MP3 CBR 320 kbps (LAME 3.93) - 396 MB | Covers - 59 MB
Genre: New Age, World, Downtempo | RAR 3% Rec. | Label: K-Vox Records, Real Music

Thierry David is a French composer and producer releasing albums of new age, ambient-electronic, world, lounge music since more than two decades. The world of this legendary producer is a mysterious one. Subtly developing keyboard motifs, trip-hop and downtempo electronic grooves take you on a journey toward inner peace. Hidden within this slowly unfolding, deeply evocative record lies Thierry David's secret world, waiting to be discovered.

Zen World (2006). Thierry David invites you back into his mystical space of peace and calm with Zen World, the follow-up to his chilled masterpiece Zen Pause. Once again, the mood is mellow, with arrangements that meld light, tripped-out beats with entrancing ambient piano, keyboards and haunting vocals. The album has a very dreamy feel coupled with a sense of sophistication that crosses spa music with something you’d expect to hear in an urban cocktail lounge. It’s great for the listener who wants something cool and suave that makes you want to relax, but that has enough upbeat energy and appeal to keep you stimulated.

The Veil of Whispers (2011). The Veil of Whispers is the third Real Music release from French musician/composer Thierry David, and is a collection of thirteen pieces the artist considers to be his "most significant", re-recorded and compiled to become the soundtrack to David’s own fantasy world. Thierry David has lived for extended periods of time in different parts of the world, including time spent as a student at the prestigious Berklee School of Music in Boston, and the musical influences from various cultures are a natural component of his music. In addition to David’s keyboards and piano, he is joined by by Claude Samard and Nguyen Le on guitars, Steve Shehan on percussion, and Audrey, Jade, Juvie, and Marcia on vocals. The Veil of Whispers is a very enjoyable journey through a vast and diversified musical landscape that features a melding of Eastern and Western musical traditions.

Thierry David - 3 Albums (1996-2011)

Thierry David - Yoma (1996)
EAC Rip | FLAC (tracks+.cue+log) - 293 MB | MP3 CBR 320 kbps (LAME 3.93) - 111 MB | Covers - 27 MB
Genre: New Age, World | RAR 3% Rec. | Label: K-Vox Records (KVR 1011)

Tracklist:
01. Yomasol
02. Kasubason
03. Nyimarev
04. Sanoftob
05. Langashams
06. Jndikham
07. Dyubawia
08. Malhaftab
09. Kuarahinti
10. Suryatav

Total time: 56:14

Exact Audio Copy V1.0 beta 3 from 29. August 2011

EAC extraction logfile from 15. December 2012, 12:42

Thierry David / Yoma

Used drive : HP DVD Writer 1270r Adapter: 1 ID: 0

Read mode : Secure
Utilize accurate stream : Yes
Defeat audio cache : Yes
Make use of C2 pointers : No

Read offset correction : 48
Overread into Lead-In and Lead-Out : No
Fill up missing offset samples with silence : Yes
Delete leading and trailing silent blocks : No
Null samples used in CRC calculations : Yes
Used interface : Installed external ASPI interface
Gap handling : Appended to previous track

Used output format : User Defined Encoder
Selected bitrate : 896 kBit/s
Quality : High
Add ID3 tag : No
Command line compressor : C:\Program Files\Exact Audio Copy 1.0beta3\Flac\flac.exe
Additional command line options : -V -8 -T "Genre=%genre%" -T "Artist=%artist%" -T "Title=%title%" -T "Album=%albumtitle%" -T "Date=%year%" -T "Tracknumber=%tracknr%" -T "Comment=ripped by boccador" %source%


TOC of the extracted CD

Track | Start | Length | Start sector | End sector
––––––––––––––––––––––––––––-
1 | 0:00.30 | 5:14.36 | 30 | 23615
2 | 5:14.66 | 4:11.72 | 23616 | 42512
3 | 9:26.63 | 5:38.60 | 42513 | 67922
4 | 15:05.48 | 4:02.69 | 67923 | 86141
5 | 19:08.42 | 4:05.00 | 86142 | 104516
6 | 23:13.42 | 7:02.19 | 104517 | 136185
7 | 30:15.61 | 2:57.24 | 136186 | 149484
8 | 33:13.10 | 4:54.32 | 149485 | 171566
9 | 38:07.42 | 3:47.40 | 171567 | 188631
10 | 41:55.07 | 5:14.35 | 188632 | 212216


Track 1

Filename D:\torrent\ripped by boccador\01. Thierry David – Yomasol.wav

Pre-gap length 0:00:02.40

Peak level 100.0 %
Extraction speed 2.4 X
Track quality 100.0 %
Test CRC 2FD7EACF
Copy CRC 2FD7EACF
Accurately ripped (confidence 1) [30F482F6] (AR v2)
Copy OK

Track 2

Filename D:\torrent\ripped by boccador\02. Thierry David – Kasubason.wav

Peak level 100.0 %
Extraction speed 2.3 X
Track quality 99.9 %
Test CRC 18697376
Copy CRC 18697376
Accurately ripped (confidence 1) [10A8DD44] (AR v2)
Copy OK

Track 3

Filename D:\torrent\ripped by boccador\03. Thierry David – Nyimarev.wav

Peak level 100.0 %
Extraction speed 3.0 X
Track quality 100.0 %
Test CRC F1271610
Copy CRC F1271610
Accurately ripped (confidence 1) [DD24D4AF] (AR v2)
Copy OK

Track 4

Filename D:\torrent\ripped by boccador\04. Thierry David – Sanoftob.wav

Peak level 100.0 %
Extraction speed 3.0 X
Track quality 100.0 %
Test CRC EC530024
Copy CRC EC530024
Accurately ripped (confidence 1) [E05513CF] (AR v2)
Copy OK

Track 5

Filename D:\torrent\ripped by boccador\05. Thierry David – Langashams.wav

Peak level 100.0 %
Extraction speed 2.9 X
Track quality 99.9 %
Test CRC 3B36410B
Copy CRC 3B36410B
Accurately ripped (confidence 1) [F7F7D893] (AR v2)
Copy OK

Track 6

Filename D:\torrent\ripped by boccador\06. Thierry David – Jndikham.wav

Peak level 100.0 %
Extraction speed 3.7 X
Track quality 100.0 %
Test CRC EE7D6A5E
Copy CRC EE7D6A5E
Accurately ripped (confidence 1) [19A8A4D7] (AR v2)
Copy OK

Track 7

Filename D:\torrent\ripped by boccador\07. Thierry David – Dyubawia.wav

Peak level 100.0 %
Extraction speed 3.5 X
Track quality 100.0 %
Test CRC B17A162E
Copy CRC B17A162E
Accurately ripped (confidence 1) [64568796] (AR v2)
Copy OK

Track 8

Filename D:\torrent\ripped by boccador\08. Thierry David – Malhaftab.wav

Peak level 100.0 %
Extraction speed 3.9 X
Track quality 100.0 %
Test CRC 8B11211D
Copy CRC 8B11211D
Accurately ripped (confidence 1) [85517132] (AR v2)
Copy OK

Track 9

Filename D:\torrent\ripped by boccador\09. Thierry David – Kuarahinti.wav

Peak level 100.0 %
Extraction speed 3.9 X
Track quality 100.0 %
Test CRC A76945EE
Copy CRC A76945EE
Accurately ripped (confidence 1) [FA91F8A6] (AR v2)
Copy OK

Track 10

Filename D:\torrent\ripped by boccador\10. Thierry David – Suryatav.wav

Peak level 100.0 %
Extraction speed 4.3 X
Track quality 100.0 %
Test CRC 13F33757
Copy CRC 13F33757
Accurately ripped (confidence 1) [2D9DDD86] (AR v2)
Copy OK


All tracks accurately ripped

No errors occurred

End of status report

–– CUETools DB Plugin V2.1.4

[CTDB TOCID: c86hLS0KMCo8Zmy6ERZEBhWvF9k-] disk not present in database
Submit result: c86hLS0KMCo8Zmy6ERZEBhWvF9k- has been uploaded


==== Log checksum 6AF0A250121F38AB56F9E242E4DA56C2624ED1DF8EBD215670AA7C78EAE5DD29 ====

[CUETools log; Date: 17.03.2017 19:32:58; Version: 2.1.4]
Pregap length 00:00:30.
[CTDB TOCID: c86hLS0KMCo8Zmy6ERZEBhWvF9k-] found.
Track | CTDB Status
1 | (3/3) Accurately ripped
2 | (3/3) Accurately ripped
3 | (3/3) Accurately ripped
4 | (3/3) Accurately ripped
5 | (3/3) Accurately ripped
6 | (3/3) Accurately ripped
7 | (3/3) Accurately ripped
8 | (3/3) Accurately ripped
9 | (3/3) Accurately ripped
10 | (3/3) Accurately ripped
[AccurateRip ID: 00120c6c-008fb639-950b0d0a] found.
Track [ CRC | V2 ] Status
01 [d8b9efef|30f482f6] (0+2/2) Accurately ripped
02 [d819275d|10a8dd44] (0+2/2) Accurately ripped
03 [8446f708|dd24d4af] (0+2/2) Accurately ripped
04 [ffd7a68f|e05513cf] (0+2/2) Accurately ripped
05 [0c2c9265|f7f7d893] (0+2/2) Accurately ripped
06 [f07bb52c|19a8a4d7] (0+2/2) Accurately ripped
07 [8edef0a4|64568796] (0+2/2) Accurately ripped
08 [655206f3|85517132] (0+2/2) Accurately ripped
09 [5a809e3a|fa91f8a6] (0+2/2) Accurately ripped
10 [23eafb3f|2d9ddd86] (0+2/2) Accurately ripped

Track Peak [ CRC32 ] [W/O NULL] [ LOG ]
– 100,0 [7E49D476] [75D49202]
01 100,0 [2FD7EACF] [958DA401] CRC32
02 100,0 [18697376] [2D1FF7CA] CRC32
03 100,0 [F1271610] [90E90F76] CRC32
04 100,0 [EC530024] [93CDE05D] CRC32
05 100,0 [3B36410B] [5154D4F9] CRC32
06 100,0 [EE7D6A5E] [B47E5596] CRC32
07 100,0 [B17A162E] [B72C94C2] CRC32
08 100,0 [8B11211D] [79BAB3F5] CRC32
09 100,0 [A76945EE] [9EA9DAD6] CRC32
10 100,0 [13F33757] [D5D9103B] CRC32

Thierry David - 3 Albums (1996-2011)

Thierry David - Zen World (2006) [Reissue 2008]
EAC Rip | FLAC (image+.cue+log) - 343 MB | MP3 CBR 320 kbps (LAME 3.93) - 137 MB | Covers - 22 MB
Genre: New Age, Downtempo | RAR 3% Rec. | Label: Real Music (RM4211)

Tracklist:
01. Close To Heaven
02. Asian Rhapsody
03. I Miss You So
04. Walking On Skies
05. Mahal Kita
06. Deep Inside
07. Mystic Trip
08. Forgive Me
09. Song Of Freedom
10. Babel
11. Sometimes
12. Peaceful Dreams
13. Beyond Sadness

Total time: 58:25

Exact Audio Copy V0.99 prebeta 4 from 23. January 2008

EAC extraction logfile from 30. October 2008, 11:02

Thierry David / Zen World

Used drive : PIONEER DVD-RW DVR-112D Adapter: 3 ID: 0

Read mode : Secure
Utilize accurate stream : Yes
Defeat audio cache : Yes
Make use of C2 pointers : No

Read offset correction : 48
Overread into Lead-In and Lead-Out : No
Fill up missing offset samples with silence : Yes
Delete leading and trailing silent blocks : No
Null samples used in CRC calculations : Yes
Used interface : Installed external ASPI interface

Used output format : User Defined Encoder
Selected bitrate : 192 kBit/s
Quality : Low
Add ID3 tag : Yes
Command line compressor : C:\Program Files\E A C Audio\Flac\flac.exe
Additional command line options : -V -8 -T "artist=%a" -T "title=%t" -T "album=%g" -T "date=%y" -T "tracknumber=%n" -T "genre=%m" %s


TOC of the extracted CD

Track | Start | Length | Start sector | End sector
––––––––––––––––––––––––––––-
1 | 0:00.00 | 5:18.12 | 0 | 23861
2 | 5:18.12 | 4:27.06 | 23862 | 43892
3 | 9:45.18 | 4:31.18 | 43893 | 64235
4 | 14:16.36 | 3:15.70 | 64236 | 78930
5 | 17:32.31 | 5:05.03 | 78931 | 101808
6 | 22:37.34 | 4:09.40 | 101809 | 120523
7 | 26:46.74 | 5:04.38 | 120524 | 143361
8 | 31:51.37 | 2:53.68 | 143362 | 156404
9 | 34:45.30 | 5:58.48 | 156405 | 183302
10 | 40:44.03 | 3:40.32 | 183303 | 199834
11 | 44:24.35 | 4:23.00 | 199835 | 219559
12 | 48:47.35 | 6:31.45 | 219560 | 248929
13 | 55:19.05 | 3:06.02 | 248930 | 262881


Range status and errors

Selected range

Filename G:\lossless-room.nnm.ru\Thierry David - Zen World\Thierry David - Zen World\Thierry David - Zen World.wav

Peak level 98.8 %
Range quality 100.0 %
Test CRC 97684433
Copy CRC 97684433
Copy OK

No errors occurred


AccurateRip summary

Track 1 not present in database
Track 2 not present in database
Track 3 not present in database
Track 4 not present in database
Track 5 not present in database
Track 6 not present in database
Track 7 not present in database
Track 8 not present in database
Track 9 not present in database
Track 10 not present in database
Track 11 not present in database
Track 12 not present in database
Track 13 not present in database

None of the tracks are present in the AccurateRip database

End of status report

[CUETools log; Date: 17.03.2017 19:34:27; Version: 2.1.4]
[CTDB TOCID: CsxZmHuS.bxvnIoxh7csar4xEmw-] found.
Track | CTDB Status
1 | (12/12) Accurately ripped
2 | (12/12) Accurately ripped
3 | (12/12) Accurately ripped
4 | (12/12) Accurately ripped
5 | (12/12) Accurately ripped
6 | (12/12) Accurately ripped
7 | (12/12) Accurately ripped
8 | (12/12) Accurately ripped
9 | (12/12) Accurately ripped
10 | (12/12) Accurately ripped
11 | (12/12) Accurately ripped
12 | (12/12) Accurately ripped
13 | (12/12) Accurately ripped
[AccurateRip ID: 001c30ec-01191aa7-bd0db10d] found.
Track [ CRC | V2 ] Status
01 [2f2e5fb4|edca5e4b] (06+06/14) Accurately ripped
02 [eded5d10|f985aa15] (06+06/14) Accurately ripped
03 [ccfae553|f75c7a1b] (06+06/14) Accurately ripped
04 [d1ba724e|36b393d8] (06+06/14) Accurately ripped
05 [86068d98|a3a64504] (06+06/14) Accurately ripped
06 [6409c0df|512cfd82] (06+06/14) Accurately ripped
07 [fc87b4d8|84d8a575] (06+06/14) Accurately ripped
08 [b006f1e9|2dba2036] (06+06/14) Accurately ripped
09 [861c1a8f|3e74fcd5] (06+06/14) Accurately ripped
10 [04f8c6c5|f8858711] (06+06/14) Accurately ripped
11 [ab18246e|20db9171] (06+06/14) Accurately ripped
12 [0c0a934e|dfa6cac6] (06+06/14) Accurately ripped
13 [4a94bf4a|68b1f754] (06+06/14) Accurately ripped
Offsetted by 18:
01 [6c28b566] (00/14) No match (V2 was not tested)
02 [d3f467fb] (00/14) No match (V2 was not tested)
03 [8817f384] (00/14) No match (V2 was not tested)
04 [544013e8] (00/14) No match (V2 was not tested)
05 [b21354a9] (00/14) No match (V2 was not tested)
06 [7b4c6f8d] (00/14) No match (V2 was not tested)
07 [1b4c72b1] (00/14) No match (V2 was not tested)
08 [a0116594] (00/14) No match (V2 was not tested)
09 [3efc86e8] (00/14) No match (V2 was not tested)
10 [4ac11f34] (00/14) No match (V2 was not tested)
11 [5da4e44b] (00/14) No match (V2 was not tested)
12 [5555f1d2] (00/14) No match (V2 was not tested)
13 [daa3bec2] (00/14) No match (V2 was not tested)

Track Peak [ CRC32 ] [W/O NULL] [ LOG ]
– 98,8 [97684433] [017AEE99] CRC32
01 98,3 [6D2D8AD3] [68AF4FA2]
02 98,5 [58775165] [55E17469]
03 98,4 [25A9CB50] [A85F439D]
04 98,3 [434913AF] [9095A2C3]
05 98,8 [AF643512] [D3BF1B88]
06 98,3 [78FB91F6] [3DAC28F3]
07 98,4 [B8016B7B] [D2E04179]
08 98,2 [5EC0628F] [7D93F748]
09 98,3 [5ED90A2D] [0914A5E2]
10 98,3 [7935ED05] [7CD42FC1]
11 98,3 [0D3CFAFC] [6CDB8FB6]
12 98,3 [758895E0] [38887908]
13 98,3 [1948FBA9] [0056C7E1]

Thierry David - 3 Albums (1996-2011)

Thierry David - The Veil of Whispers (2011)
EAC Rip | FLAC (tracks+.cue+log) - 372 MB | MP3 CBR 320 kbps (LAME 3.93) - 148 MB | Covers - 10 MB
Genre: New Age, Downtempo | RAR 3% Rec. | Label: Real Music (RM4212)

Tracklist:
01. Scene Through the Mist
02. L'Invitation Au Mystere
03. Attraction Beckons
04. Ecstasy
05. Pastel Footprints
06. A New Memory
07. Orient Priestess
08. Persuasion's Dance
09. The Veil of Whispers
10. Liquid Melody
11. Sigh of The Goddess
12. Mystery Awakens
13. A Familiar Groove

Total time: 01:02:25

Exact Audio Copy V0.99 prebeta 5 from 4. May 2009

EAC extraction logfile from 4. April 2011, 15:57

Thierry David / The Veil of Whispers

Used drive : TSSTcorpCDDVDW SH-S202N Adapter: 0 ID: 0

Read mode : Secure
Utilize accurate stream : Yes
Defeat audio cache : Yes
Make use of C2 pointers : No

Read offset correction : 6
Overread into Lead-In and Lead-Out : No
Fill up missing offset samples with silence : Yes
Delete leading and trailing silent blocks : No
Null samples used in CRC calculations : Yes
Used interface : Native Win32 interface for Win NT & 2000
Gap handling : Appended to previous track

Used output format : User Defined Encoder
Selected bitrate : 768 kBit/s
Quality : High
Add ID3 tag : No
Command line compressor : C:\Program Files\Exact Audio Copy\Flac\flac.exe
Additional command line options : -8 -V -T "ARTIST=%a" -T "TITLE=%t" -T "ALBUM=%g" -T "DATE=%y" -T "TRACKNUMBER=%n" -T "GENRE=%m" %s


TOC of the extracted CD

Track | Start | Length | Start sector | End sector
––––––––––––––––––––––––––––-
1 | 0:00.00 | 3:08.02 | 0 | 14101
2 | 3:08.02 | 5:47.27 | 14102 | 40153
3 | 8:55.29 | 6:13.40 | 40154 | 68168
4 | 15:08.69 | 6:06.04 | 68169 | 95622
5 | 21:14.73 | 3:48.08 | 95623 | 112730
6 | 25:03.06 | 2:54.67 | 112731 | 125847
7 | 27:57.73 | 4:29.50 | 125848 | 146072
8 | 32:27.48 | 5:56.68 | 146073 | 172840
9 | 38:24.41 | 3:05.67 | 172841 | 186782
10 | 41:30.33 | 6:55.15 | 186783 | 217922
11 | 48:25.48 | 4:00.35 | 217923 | 235957
12 | 52:26.08 | 5:15.37 | 235958 | 259619
13 | 57:41.45 | 5:24.53 | 259620 | 283972


Track 1

Filename D:\by chela\Thierry David - The Veil of Whispers (2011)\01. Thierry David - Scene Through the Mist.wav

Pre-gap length 0:00:02.00

Peak level 100.0 %
Track quality 100.0 %
Test CRC B50042BF
Copy CRC B50042BF
Track not present in AccurateRip database
Copy OK

Track 2

Filename D:\by chela\Thierry David - The Veil of Whispers (2011)\02. Thierry David - L'Invitation Au Mystere.wav

Pre-gap length 0:00:03.44

Peak level 100.0 %
Track quality 99.9 %
Test CRC 5EE1C62F
Copy CRC 5EE1C62F
Track not present in AccurateRip database
Copy OK

Track 3

Filename D:\by chela\Thierry David - The Veil of Whispers (2011)\03. Thierry David - Attraction Beckons.wav

Pre-gap length 0:00:02.41

Peak level 100.0 %
Track quality 100.0 %
Test CRC 77C3D657
Copy CRC 77C3D657
Track not present in AccurateRip database
Copy OK

Track 4

Filename D:\by chela\Thierry David - The Veil of Whispers (2011)\04. Thierry David - Ecstasy.wav

Pre-gap length 0:00:05.92

Peak level 100.0 %
Track quality 100.0 %
Test CRC 1D1181FB
Copy CRC 1D1181FB
Track not present in AccurateRip database
Copy OK

Track 5

Filename D:\by chela\Thierry David - The Veil of Whispers (2011)\05. Thierry David - Pastel Footprints.wav

Pre-gap length 0:00:03.74

Peak level 88.1 %
Track quality 99.9 %
Test CRC 65AD2F21
Copy CRC 65AD2F21
Track not present in AccurateRip database
Copy OK

Track 6

Filename D:\by chela\Thierry David - The Veil of Whispers (2011)\06. Thierry David - A New Memory.wav

Pre-gap length 0:00:04.41

Peak level 96.3 %
Track quality 100.0 %
Test CRC 97D0C3CF
Copy CRC 97D0C3CF
Track not present in AccurateRip database
Copy OK

Track 7

Filename D:\by chela\Thierry David - The Veil of Whispers (2011)\07. Thierry David - Orient Priestess.wav

Pre-gap length 0:00:02.89

Peak level 100.0 %
Track quality 100.0 %
Test CRC A56DB3ED
Copy CRC A56DB3ED
Track not present in AccurateRip database
Copy OK

Track 8

Filename D:\by chela\Thierry David - The Veil of Whispers (2011)\08. Thierry David - Persuasion's Dance.wav

Pre-gap length 0:00:03.22

Peak level 100.0 %
Track quality 100.0 %
Test CRC 4222C180
Copy CRC 4222C180
Track not present in AccurateRip database
Copy OK

Track 9

Filename D:\by chela\Thierry David - The Veil of Whispers (2011)\09. Thierry David - The Veil of Whispers.wav

Pre-gap length 0:00:02.85

Peak level 100.0 %
Track quality 100.0 %
Test CRC CF30BEA0
Copy CRC CF30BEA0
Track not present in AccurateRip database
Copy OK

Track 10

Filename D:\by chela\Thierry David - The Veil of Whispers (2011)\10. Thierry David - Liquid Melody.wav

Pre-gap length 0:00:01.81

Peak level 100.0 %
Track quality 100.0 %
Test CRC 393A505A
Copy CRC 393A505A
Track not present in AccurateRip database
Copy OK

Track 11

Filename D:\by chela\Thierry David - The Veil of Whispers (2011)\11. Thierry David - Sigh of The Goddess.wav

Pre-gap length 0:00:02.69

Peak level 100.0 %
Track quality 100.0 %
Test CRC 6DD68A43
Copy CRC 6DD68A43
Track not present in AccurateRip database
Copy OK

Track 12

Filename D:\by chela\Thierry David - The Veil of Whispers (2011)\12. Thierry David - Mystery Awakens.wav

Pre-gap length 0:00:03.56

Peak level 100.0 %
Track quality 100.0 %
Test CRC 67DFF1E2
Copy CRC 67DFF1E2
Track not present in AccurateRip database
Copy OK

Track 13

Filename D:\by chela\Thierry David - The Veil of Whispers (2011)\13. Thierry David - A Familiar Groove.wav

Pre-gap length 0:00:03.53

Peak level 100.0 %
Track quality 100.0 %
Test CRC 1D4FACAA
Copy CRC 1D4FACAA
Track not present in AccurateRip database
Copy OK


None of the tracks are present in the AccurateRip database

No errors occurred

End of status report

[CUETools log; Date: 17.03.2017 19:35:32; Version: 2.1.4]
[CTDB TOCID: htK.4wYOpQyQiShSwPO3pUb0noM-] found.
Track | CTDB Status
1 | (4/4) Accurately ripped
2 | (4/4) Accurately ripped
3 | (4/4) Accurately ripped
4 | (4/4) Accurately ripped
5 | (4/4) Accurately ripped
6 | (4/4) Accurately ripped
7 | (4/4) Accurately ripped
8 | (4/4) Accurately ripped
9 | (4/4) Accurately ripped
10 | (4/4) Accurately ripped
11 | (4/4) Accurately ripped
12 | (4/4) Accurately ripped
13 | (4/4) Accurately ripped
[AccurateRip ID: 001de776-012b803e-bc0eca0d] found.
Track [ CRC | V2 ] Status
01 [e18abcca|375cf5dd] (0+2/2) Accurately ripped
02 [17b2a7ca|11b24c58] (0+2/2) Accurately ripped
03 [0c794604|34a34d38] (0+2/2) Accurately ripped
04 [7c95aad2|6152380e] (0+2/2) Accurately ripped
05 [d42b2290|3b837e74] (0+2/2) Accurately ripped
06 [326d8176|445ec570] (0+2/2) Accurately ripped
07 [2e7c9e24|b92e9647] (0+2/2) Accurately ripped
08 [f685a8a8|a586c451] (0+2/2) Accurately ripped
09 [839f8311|eefdb5dd] (0+2/2) Accurately ripped
10 [f8a9e41d|60784ebf] (0+2/2) Accurately ripped
11 [f5365a5c|9a0ac4b7] (0+2/2) Accurately ripped
12 [a0ddcda9|f45fd516] (0+2/2) Accurately ripped
13 [2d96bf44|0647532e] (0+2/2) Accurately ripped

Track Peak [ CRC32 ] [W/O NULL] [ LOG ]
– 100,0 [CB71985C] [94485135]
01 100,0 [B50042BF] [A43A680E] CRC32
02 100,0 [5EE1C62F] [5D3C3C2C] CRC32
03 100,0 [77C3D657] [69FB4E1A] CRC32
04 100,0 [1D1181FB] [83D18EE4] CRC32
05 88,1 [65AD2F21] [801C5E39] CRC32
06 96,3 [97D0C3CF] [2299FE9B] CRC32
07 100,0 [A56DB3ED] [4CFBB700] CRC32
08 100,0 [4222C180] [DDEEF01C] CRC32
09 100,0 [CF30BEA0] [C6992D85] CRC32
10 100,0 [393A505A] [DEB6DB18] CRC32
11 100,0 [6DD68A43] [5CDD53ED] CRC32
12 100,0 [67DFF1E2] [980E239B] CRC32
13 100,0 [1D4FACAA] [11EA5722] CRC32

Thanks to boccador, sklon, chela777