Subcategories
Please register here if you want to download anything!

If domain in your address bar is different from the list below
PLEASE LEAVE THAT SITE IMMEDIATELY
❗IT'S A DANGEROUS FAKE❗



Spicy Magazines for Men! ;-)

Thin Lizzy - Live And Dangerous (1978) {Reissue}

Posted By: popsakov
Thin Lizzy - Live And Dangerous (1978) {Reissue}

Thin Lizzy - Live And Dangerous (1978) {Reissue}
EAC Rip | FLAC (Img) + Cue + Log ~ 539 Mb | MP3 CBR320 ~ 193 Mb
Full Scans | RAR 5% Recovery
Hard Rock, Blues Rock, Classic Rock | Vertigo #838 030-2

Released in 1978, just as the hot streak starting with 1975's Fighting and running through 1977's Bad Reputation came to an end, Live and Dangerous was a glorious way to celebrate Thin Lizzy's glory days and one of the best double live LPs of the 70s. Of course, this, like a lot of double-lives of that decade – Kiss' Alive! immediately springs to mind – isn't strictly live; it was overdubbed and colored in the studio (the very presence of studio whiz Tony Visconti as producer should have been an indication that some corrective steering may have been afoot). But even if there was some tweaking in the studio, Live and Dangerous feels live, containing more energy and power than the original LPs, which were already dynamic in their own right. It's this energy, combined with the expert song selection, that makes Live and Dangerous a true live classic.

~ Stephen Thomas Erlewine, All Music

***************

Thin Lizzy - Live And Dangerous (1978) {Reissue}

Thin Lizzy - Live And Dangerous (1978) {Reissue}

Track List:

01. Jailbreak [4:46]
02. Emerald [4:21]
03. Southbound [4:52]
04. Rosalie [4:04]
05. Dancing In The Moonlight [3:54]
06. Massacre [2:56]
07. Still In Love With You [7:42]
08. Johnny The Fox Meets Jimmy The Weed [3:44]
09. Cowboy Song [4:55]
10. The Boys Are Back In Town [4:42]
11. Don't Believe A Word [2:19]
12. Warrior [4:09]
13. Are You Ready [2:43]
14. Suicide [5:18]
15. Sha La La [5:26]
16. Baby Drives Me Crazy [7:19]
17. The Rocker [3:40]

Exact Audio Copy V1.2 from 12. August 2016

EAC extraction logfile from 13. August 2019, 20:44

Thin Lizzy / Live And Dangerous

Used drive : ASUS SDRW-08D1S-U Adapter: 1 ID: 1

Read mode : Secure
Utilize accurate stream : Yes
Defeat audio cache : Yes
Make use of C2 pointers : No

Read offset correction : 667
Overread into Lead-In and Lead-Out : No
Fill up missing offset samples with silence : Yes
Delete leading and trailing silent blocks : No
Null samples used in CRC calculations : Yes
Used interface : Native Win32 interface for Win NT & 2000

Used output format : User Defined Encoder
Selected bitrate : 128 kBit/s
Quality : High
Add ID3 tag : No
Command line compressor : C:\Program Files (x86)\Exact Audio Copy\Flac\flac.exe
Additional command line options : -V -8 -T "Date=%year%" -T "Genre=%genre%" %source%


TOC of the extracted CD

Track | Start | Length | Start sector | End sector
––––––––––––––––––––––––––––-
1 | 0:00.33 | 4:46.37 | 33 | 21519
2 | 4:46.70 | 4:21.13 | 21520 | 41107
3 | 9:08.08 | 4:51.45 | 41108 | 62977
4 | 13:59.53 | 4:03.50 | 62978 | 81252
5 | 18:03.28 | 3:54.37 | 81253 | 98839
6 | 21:57.65 | 2:56.23 | 98840 | 112062
7 | 24:54.13 | 7:42.32 | 112063 | 146744
8 | 32:36.45 | 3:43.70 | 146745 | 163539
9 | 36:20.40 | 4:54.55 | 163540 | 185644
10 | 41:15.20 | 4:41.68 | 185645 | 206787
11 | 45:57.13 | 2:18.57 | 206788 | 217194
12 | 48:15.70 | 4:08.73 | 217195 | 235867
13 | 52:24.68 | 2:43.10 | 235868 | 248102
14 | 55:08.03 | 5:17.67 | 248103 | 271944
15 | 60:25.70 | 5:26.00 | 271945 | 296394
16 | 65:51.70 | 7:19.08 | 296395 | 329327
17 | 73:11.03 | 3:40.30 | 329328 | 345857


Range status and errors

Selected range

Filename C:\Users\Олег\Desktop\Thin Lizzy - Live And Dangerous\Thin Lizzy - Live And Dangerous.wav

Peak level 96.5 %
Extraction speed 4.2 X
Range quality 100.0 %
Test CRC 844930B1
Copy CRC 844930B1
Copy OK

No errors occurred


AccurateRip summary

Track 1 accurately ripped (confidence 9) [369728BD] (AR v2)
Track 2 accurately ripped (confidence 8) [BEB39737] (AR v2)
Track 3 accurately ripped (confidence 9) [E7089755] (AR v2)
Track 4 accurately ripped (confidence 8) [F437B97E] (AR v2)
Track 5 accurately ripped (confidence 9) [6F40A4DE] (AR v2)
Track 6 accurately ripped (confidence 9) [DA7FC226] (AR v2)
Track 7 accurately ripped (confidence 9) [B2087494] (AR v2)
Track 8 accurately ripped (confidence 9) [D9A43185] (AR v2)
Track 9 accurately ripped (confidence 8) [01AF5A91] (AR v2)
Track 10 accurately ripped (confidence 9) [B7173024] (AR v2)
Track 11 accurately ripped (confidence 9) [47AAAAA3] (AR v2)
Track 12 accurately ripped (confidence 9) [90311E50] (AR v2)
Track 13 accurately ripped (confidence 9) [0F5D7640] (AR v2)
Track 14 accurately ripped (confidence 8) [8F361018] (AR v2)
Track 15 accurately ripped (confidence 9) [CB2F818A] (AR v2)
Track 16 accurately ripped (confidence 8) [9CBA249D] (AR v2)
Track 17 accurately ripped (confidence 7) [550ECDFF] (AR v2)

All tracks accurately ripped

End of status report

–– CUETools DB Plugin V2.1.6

[CTDB TOCID: vWbFmcpmI7yYaZtzb7fG6UHP4Lc-] found
Submit result: already submitted
Track | CTDB Status
1 | (26/26) Accurately ripped
2 | (26/26) Accurately ripped
3 | (26/26) Accurately ripped
4 | (26/26) Accurately ripped
5 | (26/26) Accurately ripped
6 | (26/26) Accurately ripped
7 | (26/26) Accurately ripped
8 | (26/26) Accurately ripped
9 | (26/26) Accurately ripped
10 | (26/26) Accurately ripped
11 | (26/26) Accurately ripped
12 | (26/26) Accurately ripped
13 | (26/26) Accurately ripped
14 | (26/26) Accurately ripped
15 | (26/26) Accurately ripped
16 | (26/26) Accurately ripped
17 | (26/26) Accurately ripped


==== Log checksum 79BCB789136B0D8C336B31FA3010E5CFCBBFF576D2BC212D7BCAC31C273475EE ====

[CUETools log; Date: 14.08.2019 3:10:10; Version: 2.1.6]
Pregap length 00:00:33.
[CTDB TOCID: vWbFmcpmI7yYaZtzb7fG6UHP4Lc-] found.
Track | CTDB Status
1 | (26/26) Accurately ripped
2 | (26/26) Accurately ripped
3 | (26/26) Accurately ripped
4 | (26/26) Accurately ripped
5 | (26/26) Accurately ripped
6 | (26/26) Accurately ripped
7 | (26/26) Accurately ripped
8 | (26/26) Accurately ripped
9 | (26/26) Accurately ripped
10 | (26/26) Accurately ripped
11 | (26/26) Accurately ripped
12 | (26/26) Accurately ripped
13 | (26/26) Accurately ripped
14 | (26/26) Accurately ripped
15 | (26/26) Accurately ripped
16 | (26/26) Accurately ripped
17 | (26/26) Accurately ripped
[AccurateRip ID: 002ec575-024f978e-13120311] found.
Track [ CRC | V2 ] Status
01 [6d14371d|369728bd] (09+09/18) Accurately ripped
02 [5738fa12|beb39737] (09+08/17) Accurately ripped
03 [14b74503|e7089755] (09+09/18) Accurately ripped
04 [2a9eb6b3|f437b97e] (09+08/17) Accurately ripped
05 [41d32cff|6f40a4de] (09+09/18) Accurately ripped
06 [7c8613fe|da7fc226] (09+09/18) Accurately ripped
07 [64dc81bb|b2087494] (09+09/18) Accurately ripped
08 [bfb37791|d9a43185] (09+09/18) Accurately ripped
09 [14bb1918|01af5a91] (09+08/17) Accurately ripped
10 [c5659b0f|b7173024] (09+09/18) Accurately ripped
11 [6598f2ad|47aaaaa3] (09+09/18) Accurately ripped
12 [692eab53|90311e50] (09+09/18) Accurately ripped
13 [aebc3152|0f5d7640] (09+09/18) Accurately ripped
14 [7ac48dbe|8f361018] (09+08/17) Accurately ripped
15 [be22f81d|cb2f818a] (09+09/18) Accurately ripped
16 [105b5fc2|9cba249d] (09+08/17) Accurately ripped
17 [032a7adb|550ecdff] (09+07/16) Accurately ripped

Track Peak [ CRC32 ] [W/O NULL] [ LOG ]
– 96,5 [844930B1] [82285A6B] CRC32
01 96,5 [6F3656E2] [097ECA85]
02 90,2 [1CC5D392] [C654FF34]
03 81,8 [1C0BE386] [3BC6ED5A]
04 81,1 [C211EAE3] [6DF3C59E]
05 85,4 [D161D783] [7816162C]
06 81,9 [85605E64] [56D78F2D]
07 89,3 [D9227E7D] [57F77A19]
08 76,2 [BE1AE8A8] [C4D94785]
09 88,4 [B8DEB016] [48E5B867]
10 88,2 [73D0E0AB] [452B3FA7]
11 85,0 [2A56FEE5] [5AD96ACE]
12 94,8 [6317663B] [0ABFA681]
13 73,5 [16ED283C] [F8DBA695]
14 92,3 [6E6398F2] [2B76ED92]
15 79,0 [C401420B] [1F1D0412]
16 87,3 [9F619E04] [001B5E56]
17 80,5 [FA73724A] [80D7A7D1]

Thin Lizzy - Live And Dangerous (1978) {Reissue}

All thanks go to Alex Fal

>>> Thin Lizzy in my Blog <<<

DOWNLOAD: