Subcategories

Think - Variety (1973) [Japanese Edition 2019]

Posted By: gribovar
Think - Variety (1973) [Japanese Edition 2019]

Think - Variety (1973) [Japanese Edition 2019]
EAC Rip | FLAC (image+.cue+log) - 349 MB | MP3 CBR 320 kbps (LAME 3.93) - 125 MB | Covers - 27 MB
Genre: Progressive Rock, Krautrock | RAR 3% Rec. | Label: Belle Antique (BELLE 193201)

Think was one of many German incidents in the early 1970s which produced one album and then disappeared for ever and ever. The band featured skilled musicians, for example two from Hungary and one Czech who some day played in Germany with the Philharmonia Hungarica… and then decided to stay. Soon they found some German mates to build up a six-piece crew and came in contact with the Marl/Ruhrgebiet based label Menga which 1973 released their sole album 'Variety', that fused together radically different cultures into a complex progressive rock featuring flute, violin and guitars in a richly folk and classical intoned style, hinting at Pell Mell and Eden yet original with an atmospheric beauty.

Tracklist:
01. Variety
02. Watercorps
03. Drops
04. Draw Conclusions From
05. Last Door
06. More Drops (Bonus track)
07. All That I Remember (Bonus track)

Total time: 53:07

Exact Audio Copy V1.3 from 2. September 2016

Отчёт EAC об извлечении, выполненном 18. ноября 2019, 15:04

Think / Variety

Дисковод: ASUS DRW-24B3ST Adapter: 1 ID: 0

Режим чтения : Достоверность
Использование точного потока : Да
Отключение кэша аудио : Да
Использование указателей C2 : Нет

Коррекция смещения при чтении : 6
Способность читать области Lead-in и Lead-out : Нет
Заполнение пропущенных сэмплов тишиной : Да
Удаление блоков с тишиной в начале и конце : Нет
При вычислениях CRC использовались нулевые сэмплы : Да
Интерфейс : Встроенный Win32-интерфейс для Win NT/2000

Выходной формат : Пользовательский кодировщик
Выбранный битрейт : 1024 kBit/s
Качество : Высокий
Добавление ID3-тега : Нет
Утилита сжатия : C:\Program Files (x86)\Exact Audio Copy\Flac\flac.exe
Дополнительные параметры : -V -8 -T "Date=%year%" -T "Genre=%genre%" %source%


TOC извлечённого CD

Трек | Старт | Длительность | Начальный сектор | Конечный сектор
––––––––––––––––––––––––––––––––––-
1 | 0:00.00 | 7:37.04 | 0 | 34278
2 | 7:37.04 | 5:07.13 | 34279 | 57316
3 | 12:44.17 | 8:19.08 | 57317 | 94749
4 | 21:03.25 | 13:59.10 | 94750 | 157684
5 | 35:02.35 | 3:21.16 | 157685 | 172775
6 | 38:23.51 | 7:54.19 | 172776 | 208344
7 | 46:17.70 | 6:49.33 | 208345 | 239052


Характеристики диапазона извлечения и сообщения об ошибках

Выбранный диапазон

Имя файла E:\Torrents-seed\Think - 1973 - Variety\Think - Variety.wav

Пиковый уровень 96.4 %
Скорость извлечения 3.0 X
Качество диапазона 100.0 %
CRC теста FCF44E04
CRC копии FCF44E04
Копирование… OK

Ошибок не произошло


AccurateRip: сводка

Трек 1 отсутствует в базе данных
Трек 2 отсутствует в базе данных
Трек 3 отсутствует в базе данных
Трек 4 отсутствует в базе данных
Трек 5 отсутствует в базе данных
Трек 6 отсутствует в базе данных
Трек 7 отсутствует в базе данных

Ни одного трека нет в базе AccurateRip

Конец отчёта

==== Контрольная сумма отчёта 61A2B5C79B00CCDBA8EBE4DDD5BDB605144115701853B2039C595C8241E890D7 ====

[CUETools log; Date: 18.11.2019 16:35:27; Version: 2.1.4]
[CTDB TOCID: vblm8BmfLkVo8GIuGEzIkZmBESw-] disk not present in database.
[AccurateRip ID: 000eb66d-0058bc86-5f0c7307] disk not present in database.

Track Peak [ CRC32 ] [W/O NULL] [ LOG ]
– 96,4 [FCF44E04] [356E6D50] CRC32
01 95,9 [FEE986D1] [4D2B1785]
02 95,1 [39B8A7B2] [DCFECA32]
03 95,8 [5A659391] [83A61F11]
04 96,4 [158A8015] [F91C9A92]
05 94,5 [6CFAC040] [972AF20A]
06 96,2 [D44DAAEB] [6A71523E]
07 96,2 [23271414] [C7AC46A6]

Thanks to Копысов

See also:
Think - Variety (1973) [Reissue 2002]