Subcategories

VA - Th'is Country: Country Stars (2011)

Posted By: v3122
VA - Th'is Country: Country Stars (2011)

VA - Th'is Country: Country Stars (2011)
EAC | Flac(Image) + Cue + Log & iPod M4A(Tracks) & MP3 CBR 320Kbps
3CD | Promo Sound, 6513/3 | ~ 788 or 821 or 474 Mb | Scans(jpg, 600dpi) -> 108 Mb
Country | Compilation | 75 Tracks

Johnny Cash, Bing Crosby, Tennessee Ernie Ford, Eddy Arnold, Carl Smith, Tex Williams and many more

VA - Th'is Country: Country Stars (2011):

VA - Th'is Country: Country Stars (2011)

Tracklist CD1:

01. Johnny Cash - Folsom Prison Blues
02. Carl Smith - Don't Just Stand There
03. Eddy Arnold - Kentucky Waltz
04. Hank Snow With Anita Carter - Bluebird Island
05. Charline Arthur - Burn That Candle
06. Bill Monroe - Blue Moon Of Kentucky
07. Bill Nettles - Wine O'boogie
08. Bob Wills - San Antonio Rose
09. Kitty Wells - How Far Is Heaven
10. Faron Young - Just Out Of Reach
11. Gene Autry - At Mail Call Today
12. Pee Wee King - Slow Poke
13. Hank Snow - One More Ride
14. Roy Acuff - Tennessee Waltz
15. Hank Thompson - The Wild Side Of Life (Honky Tonk Angel)
16. Jim Reeves - Mexican Joe
17. Eddy Arnold - Bouquet Of Roses
18. Kitty Wells And Red Foley - You And Me
19. Johnny Horton - Big Wheels Rollin
20. Hank Snow - The Star Spangled Waltz
21. Carl Smith - Kisses Don't Lie
22. Tex Ritter - Gun Smoke
23. Hank Snow - I'm Movin' On
24. The Weavers - On Top Of Old Smoky
25. Vaughn Monroe - Riders In The Sky

Exact Audio Copy V0.99 prebeta 5 from 4. May 2009

EAC extraction logfile from 11. November 2011, 23:30

Various / Th'is Country. Country Stars

Used drive : LITE-ON DVDRW LH-20A1S Adapter: 4 ID: 0

Read mode : Secure
Utilize accurate stream : Yes
Defeat audio cache : Yes
Make use of C2 pointers : No

Read offset correction : 6
Overread into Lead-In and Lead-Out : No
Fill up missing offset samples with silence : Yes
Delete leading and trailing silent blocks : No
Null samples used in CRC calculations : Yes
Used interface : Native Win32 interface for Win NT & 2000
Gap handling : Appended to previous track

Used output format : Internal WAV Routines
Sample format : 44.100 Hz; 16 Bit; Stereo


TOC of the extracted CD

Track | Start | Length | Start sector | End sector
––––––––––––––––––––––––––––-
1 | 0:00.00 | 2:52.15 | 0 | 12914
2 | 2:52.15 | 2:27.01 | 12915 | 23940
3 | 5:19.16 | 2:35.13 | 23941 | 35578
4 | 7:54.29 | 2:42.62 | 35579 | 47790
5 | 10:37.16 | 2:11.51 | 47791 | 57666
6 | 12:48.67 | 3:05.74 | 57667 | 71615
7 | 15:54.66 | 2:39.38 | 71616 | 83578
8 | 18:34.29 | 2:36.30 | 83579 | 95308
9 | 21:10.59 | 2:54.43 | 95309 | 108401
10 | 24:05.27 | 2:42.11 | 108402 | 120562
11 | 26:47.38 | 2:48.11 | 120563 | 133173
12 | 29:35.49 | 3:04.06 | 133174 | 146979
13 | 32:39.55 | 2:35.28 | 146980 | 158632
14 | 35:15.08 | 2:58.10 | 158633 | 171992
15 | 38:13.18 | 2:44.70 | 171993 | 184362
16 | 40:58.13 | 2:39.63 | 184363 | 196350
17 | 43:38.01 | 2:35.11 | 196351 | 207986
18 | 46:13.12 | 2:50.17 | 207987 | 220753
19 | 49:03.29 | 2:23.37 | 220754 | 231515
20 | 51:26.66 | 2:36.20 | 231516 | 243235
21 | 54:03.11 | 2:44.02 | 243236 | 255537
22 | 56:47.13 | 2:47.08 | 255538 | 268070
23 | 59:34.21 | 2:50.00 | 268071 | 280820
24 | 62:24.21 | 2:43.73 | 280821 | 293118
25 | 65:08.19 | 3:03.67 | 293119 | 306910


Track 1

Filename I:\Brian O'Conner\Музыка\01. Johnny Cash - Folsom Prison Blues.wav

Pre-gap length 0:00:02.00

Peak level 100.0 %
Track quality 100.0 %
Test CRC 87354E7E
Copy CRC 87354E7E
Track not present in AccurateRip database
Copy OK

Track 2

Filename I:\Brian O'Conner\Музыка\02. Carl Smith - Don't Just Stand There.wav

Pre-gap length 0:00:01.00

Peak level 98.4 %
Track quality 100.0 %
Test CRC AFDB99C6
Copy CRC AFDB99C6
Track not present in AccurateRip database
Copy OK

Track 3

Filename I:\Brian O'Conner\Музыка\03. Eddy Arnold - Kentucky Waltz.wav

Pre-gap length 0:00:01.00

Peak level 77.0 %
Track quality 100.0 %
Test CRC 30D2CAFB
Copy CRC 30D2CAFB
Track not present in AccurateRip database
Copy OK

Track 4

Filename I:\Brian O'Conner\Музыка\04. Hank Snow With Anita Carter - Bluebird Island.wav

Pre-gap length 0:00:02.00

Peak level 86.5 %
Track quality 100.0 %
Test CRC 9A01212E
Copy CRC 9A01212E
Track not present in AccurateRip database
Copy OK

Track 5

Filename I:\Brian O'Conner\Музыка\05. Charline Arthur - Burn That Candle.wav

Pre-gap length 0:00:01.00

Peak level 98.6 %
Track quality 100.0 %
Test CRC 2DB72FCD
Copy CRC 2DB72FCD
Track not present in AccurateRip database
Copy OK

Track 6

Filename I:\Brian O'Conner\Музыка\06. Bill Monroe - Blue Moon Of Kentucky.wav

Pre-gap length 0:00:01.00

Peak level 100.0 %
Track quality 100.0 %
Test CRC F7315552
Copy CRC F7315552
Track not present in AccurateRip database
Copy OK

Track 7

Filename I:\Brian O'Conner\Музыка\07. Bill Nettles - Wine O'Boogie.wav

Pre-gap length 0:00:01.00

Peak level 100.0 %
Track quality 100.0 %
Test CRC 8633922D
Copy CRC 8633922D
Track not present in AccurateRip database
Copy OK

Track 8

Filename I:\Brian O'Conner\Музыка\08. Bob Wills - San Antonio Rose.wav

Pre-gap length 0:00:01.00

Peak level 96.8 %
Track quality 99.9 %
Test CRC 0ABB6C8E
Copy CRC 0ABB6C8E
Track not present in AccurateRip database
Copy OK

Track 9

Filename I:\Brian O'Conner\Музыка\09. Kitty Wells - How Far Is Heaven.wav

Pre-gap length 0:00:01.00

Peak level 83.2 %
Track quality 100.0 %
Test CRC D6B8B66D
Copy CRC D6B8B66D
Track not present in AccurateRip database
Copy OK

Track 10

Filename I:\Brian O'Conner\Музыка\10. Faron Young - Just Out Of Reach.wav

Pre-gap length 0:00:01.00

Peak level 81.0 %
Track quality 100.0 %
Test CRC 6B0E8A30
Copy CRC 6B0E8A30
Track not present in AccurateRip database
Copy OK

Track 11

Filename I:\Brian O'Conner\Музыка\11. Gene Autry - At Mail Call Today.wav

Pre-gap length 0:00:01.00

Peak level 95.9 %
Track quality 100.0 %
Test CRC E314BED7
Copy CRC E314BED7
Track not present in AccurateRip database
Copy OK

Track 12

Filename I:\Brian O'Conner\Музыка\12. Pee Wee King - Slow Poke.wav

Pre-gap length 0:00:01.00

Peak level 91.6 %
Track quality 100.0 %
Test CRC 768B75DA
Copy CRC 768B75DA
Track not present in AccurateRip database
Copy OK

Track 13

Filename I:\Brian O'Conner\Музыка\13. Hank Snow - One More Ride.wav

Pre-gap length 0:00:01.00

Peak level 98.9 %
Track quality 99.9 %
Test CRC 2E643C59
Copy CRC 2E643C59
Track not present in AccurateRip database
Copy OK

Track 14

Filename I:\Brian O'Conner\Музыка\14. Roy Acuff - Tennessee Waltz.wav

Pre-gap length 0:00:01.00

Peak level 98.5 %
Track quality 100.0 %
Test CRC 4E68823C
Copy CRC 4E68823C
Track not present in AccurateRip database
Copy OK

Track 15

Filename I:\Brian O'Conner\Музыка\15. Hank Thompson - The Wild Side Of Life (Honky Tonk Angel).wav

Pre-gap length 0:00:01.00

Peak level 98.1 %
Track quality 100.0 %
Test CRC 98E3DEFE
Copy CRC 98E3DEFE
Track not present in AccurateRip database
Copy OK

Track 16

Filename I:\Brian O'Conner\Музыка\16. Jim Reeves - Mexican Joe.wav

Pre-gap length 0:00:01.00

Peak level 100.0 %
Track quality 100.0 %
Test CRC 33EDC1B0
Copy CRC 33EDC1B0
Track not present in AccurateRip database
Copy OK

Track 17

Filename I:\Brian O'Conner\Музыка\17. Eddy Arnold - Bouquet Of Roses.wav

Pre-gap length 0:00:01.00

Peak level 96.1 %
Track quality 100.0 %
Test CRC C1E5399C
Copy CRC C1E5399C
Track not present in AccurateRip database
Copy OK

Track 18

Filename I:\Brian O'Conner\Музыка\18. Kitty Wells And Red Foley - You And Me.wav

Pre-gap length 0:00:01.00

Peak level 85.2 %
Track quality 100.0 %
Test CRC 5CB046EB
Copy CRC 5CB046EB
Track not present in AccurateRip database
Copy OK

Track 19

Filename I:\Brian O'Conner\Музыка\19. Johnny Horton - Big Wheels Rollin.wav

Pre-gap length 0:00:02.00

Peak level 98.1 %
Track quality 100.0 %
Test CRC 443628EB
Copy CRC 443628EB
Track not present in AccurateRip database
Copy OK

Track 20

Filename I:\Brian O'Conner\Музыка\20. Hank Snow - The Star Spangled Waltz.wav

Pre-gap length 0:00:01.00

Peak level 85.7 %
Track quality 100.0 %
Test CRC 82E31876
Copy CRC 82E31876
Track not present in AccurateRip database
Copy OK

Track 21

Filename I:\Brian O'Conner\Музыка\21. Carl Smith - Kisses Don't Lie.wav

Pre-gap length 0:00:01.00

Peak level 98.7 %
Track quality 99.9 %
Test CRC 58BA1C5D
Copy CRC 58BA1C5D
Track not present in AccurateRip database
Copy OK

Track 22

Filename I:\Brian O'Conner\Музыка\22. Tex Ritter - Gun Smoke.wav

Pre-gap length 0:00:01.00

Peak level 94.0 %
Track quality 100.0 %
Test CRC 2F7AD59D
Copy CRC 2F7AD59D
Track not present in AccurateRip database
Copy OK

Track 23

Filename I:\Brian O'Conner\Музыка\23. Hank Snow - I'm Movin' On.wav

Pre-gap length 0:00:01.00

Peak level 79.5 %
Track quality 99.9 %
Test CRC 8248C93A
Copy CRC 8248C93A
Track not present in AccurateRip database
Copy OK

Track 24

Filename I:\Brian O'Conner\Музыка\24. The Weavers - On Top Of Old Smoky.wav

Pre-gap length 0:00:01.00

Peak level 77.9 %
Track quality 100.0 %
Test CRC D4DD33CA
Copy CRC D4DD33CA
Track not present in AccurateRip database
Copy OK

Track 25

Filename I:\Brian O'Conner\Музыка\25. Vaughn Monroe - Riders In The Sky.wav

Pre-gap length 0:00:01.00

Peak level 55.4 %
Track quality 100.0 %
Test CRC AA98EDBD
Copy CRC AA98EDBD
Track not present in AccurateRip database
Copy OK


None of the tracks are present in the AccurateRip database

No errors occurred

End of status report

foobar2000 1.2.9 / Dynamic Range Meter 1.1.1
log date: 2013-11-09 13:07:40

––––––––––––––––––––––––––––––––––––––––
Analyzed: Bill Monroe / Th'is Country. Country Stars (1)
Bill Nettles / Th'is Country. Country Stars (2)
Bob Wills / Th'is Country. Country Stars (3)
––––––––––––––––––––––––––––––––––––––––

DR Peak RMS Duration Track
––––––––––––––––––––––––––––––––––––––––
DR11 0.00 dB -11.71 dB 3:06 06-Blue Moon Of Kentucky
DR11 0.00 dB -12.27 dB 2:40 07-Wine O'Boogie
DR11 -0.28 dB -12.46 dB 2:36 08-San Antonio Rose
––––––––––––––––––––––––––––––––––––––––

Number of tracks: 3
Official DR value: DR11

Samplerate: 44100 Hz
Channels: 2
Bits per sample: 16
Bitrate: 487 kbps
Codec: FLAC
================================================================================

––––––––––––––––––––––––––––––––––––––––
Analyzed: Carl Smith / Th'is Country. Country Stars
––––––––––––––––––––––––––––––––––––––––

DR Peak RMS Duration Track
––––––––––––––––––––––––––––––––––––––––
DR12 -0.14 dB -13.74 dB 2:27 02-Don't Just Stand There
DR15 -0.11 dB -19.06 dB 2:44 21-Kisses Don't Lie
––––––––––––––––––––––––––––––––––––––––

Number of tracks: 2
Official DR value: DR14

Samplerate: 44100 Hz
Channels: 2
Bits per sample: 16
Bitrate: 487 kbps
Codec: FLAC
================================================================================

––––––––––––––––––––––––––––––––––––––––
Statistics for: 05-Burn That Candle
Number of samples: 5807088
Duration: 2:12
––––––––––––––––––––––––––––––––––––––––

Left Right

Peak Value: -0.12 dB –- -0.14 dB
Avg RMS: -12.86 dB –- -12.71 dB
DR channel: 11.14 dB –- 11.04 dB
––––––––––––––––––––––––––––––––––––––––

Official DR Value: DR11

Samplerate: 44100 Hz
Channels: 2
Bits per sample: 16
Bitrate: 487 kbps
Codec: FLAC
================================================================================
––––––––––––––––––––––––––––––––––––––––
Analyzed: Eddy Arnold / Th'is Country. Country Stars
––––––––––––––––––––––––––––––––––––––––

DR Peak RMS Duration Track
––––––––––––––––––––––––––––––––––––––––
DR11 -2.26 dB -14.93 dB 2:35 03-Kentucky Waltz
DR11 -0.34 dB -12.81 dB 2:35 17-Bouquet Of Roses
––––––––––––––––––––––––––––––––––––––––

Number of tracks: 2
Official DR value: DR11

Samplerate: 44100 Hz
Channels: 2
Bits per sample: 16
Bitrate: 487 kbps
Codec: FLAC
================================================================================

––––––––––––––––––––––––––––––––––––––––
Analyzed: Faron Young / Th'is Country. Country Stars (1)
Gene Autry / Th'is Country. Country Stars (2)
––––––––––––––––––––––––––––––––––––––––

DR Peak RMS Duration Track
––––––––––––––––––––––––––––––––––––––––
DR13 -1.82 dB -17.25 dB 2:42 10-Just Out Of Reach
DR12 -0.36 dB -13.86 dB 2:48 11-At Mail Call Today
––––––––––––––––––––––––––––––––––––––––

Number of tracks: 2
Official DR value: DR12

Samplerate: 44100 Hz
Channels: 2
Bits per sample: 16
Bitrate: 487 kbps
Codec: FLAC
================================================================================

––––––––––––––––––––––––––––––––––––––––
Analyzed: Hank Snow With Anita Carter / Th'is Country. Country Stars (1)
Hank Snow / Th'is Country. Country Stars (2-4)
––––––––––––––––––––––––––––––––––––––––

DR Peak RMS Duration Track
––––––––––––––––––––––––––––––––––––––––
DR9 -1.26 dB -12.43 dB 2:43 04-Bluebird Island
DR11 -0.09 dB -13.72 dB 2:35 13-One More Ride
DR11 -1.33 dB -15.35 dB 2:36 20-The Star Spangled Waltz
DR8 -1.99 dB -11.90 dB 2:50 23-I'm Movin' On
––––––––––––––––––––––––––––––––––––––––

Number of tracks: 4
Official DR value: DR10

Samplerate: 44100 Hz
Channels: 2
Bits per sample: 16
Bitrate: 487 kbps
Codec: FLAC
================================================================================

––––––––––––––––––––––––––––––––––––––––
Analyzed: Hank Thompson / Th'is Country. Country Stars (1)
Jim Reeves / Th'is Country. Country Stars (2)
––––––––––––––––––––––––––––––––––––––––

DR Peak RMS Duration Track
––––––––––––––––––––––––––––––––––––––––
DR11 -0.16 dB -12.71 dB 2:45 15-The Wild Side Of Life (Honky Tonk Angel)
DR10 0.00 dB -11.31 dB 2:40 16-Mexican Joe
––––––––––––––––––––––––––––––––––––––––

Number of tracks: 2
Official DR value: DR11

Samplerate: 44100 Hz
Channels: 2
Bits per sample: 16
Bitrate: 487 kbps
Codec: FLAC
================================================================================

––––––––––––––––––––––––––––––––––––––––
Analyzed: Johnny Cash / Th'is Country. Country Stars (1)
Johnny Horton / Th'is Country. Country Stars (2)
––––––––––––––––––––––––––––––––––––––––

DR Peak RMS Duration Track
––––––––––––––––––––––––––––––––––––––––
DR14 0.00 dB -15.64 dB 2:52 01-Folsom Prison Blues
DR11 -0.16 dB -12.46 dB 2:23 19-Big Wheels Rollin
––––––––––––––––––––––––––––––––––––––––

Number of tracks: 2
Official DR value: DR12

Samplerate: 44100 Hz
Channels: 2
Bits per sample: 16
Bitrate: 487 kbps
Codec: FLAC
================================================================================

––––––––––––––––––––––––––––––––––––––––
Statistics for: 18-You And Me
Number of samples: 7506996
Duration: 2:50
––––––––––––––––––––––––––––––––––––––––

Left Right

Peak Value: -1.38 dB –- -1.88 dB
Avg RMS: -16.52 dB –- -16.69 dB
DR channel: 12.35 dB –- 12.29 dB
––––––––––––––––––––––––––––––––––––––––

Official DR Value: DR12

Samplerate: 44100 Hz
Channels: 2
Bits per sample: 16
Bitrate: 487 kbps
Codec: FLAC
================================================================================
––––––––––––––––––––––––––––––––––––––––
Analyzed: Kitty Wells / Th'is Country. Country Stars (1)
Pee Wee King / Th'is Country. Country Stars (2)
Roy Acuff / Th'is Country. Country Stars (3)
Tex Ritter / Th'is Country. Country Stars (4)
The Weavers / Th'is Country. Country Stars (5)
Vaughn Monroe / Th'is Country. Country Stars (6)
––––––––––––––––––––––––––––––––––––––––

DR Peak RMS Duration Track
––––––––––––––––––––––––––––––––––––––––
DR12 -1.60 dB -15.51 dB 2:55 09-How Far Is Heaven
DR15 -0.75 dB -18.13 dB 3:04 12-Slow Poke
DR9 -0.12 dB -10.13 dB 2:58 14-Tennessee Waltz
DR11 -0.53 dB -13.59 dB 2:47 22-Gun Smoke
DR11 -2.16 dB -16.55 dB 2:44 24-On Top Of Old Smoky
DR9 -5.13 dB -16.73 dB 3:04 25-Riders In The Sky
––––––––––––––––––––––––––––––––––––––––

Number of tracks: 6
Official DR value: DR11

Samplerate: 44100 Hz
Channels: 2
Bits per sample: 16
Bitrate: 487 kbps
Codec: FLAC

VA - Th'is Country: Country Stars (2011)

Tracklist CD2:

01. Bill Monroe - Footprints In The Snow
02. Hank Snow - Let Me Go Lover
03. Johnny Horton - Words
04. Curtis Gordon - Baby, Baby Me
05. Bob Wills & The Mckinney Sisters - Rose Of Old Pawnee
06. Kitty Wells And Hank Thompson - It Wasn't God Who Made Honky Tonk Angels
07. Jim Reeves - Butterfly Love
08. Carl Smith - There She Goes
09. Eddie Marshall - Moblin' Baby Of Mine
10. Eddy Arnold - How's The World Treating You
11. Ernest Tubb - Hobo's Meditation
12. Hank Penny - Taxes Taxes Taxes
13. Tex Williams - Smoke, Smoke, Smoke That Cigarette
14. Ferlin Huskey - I Feel Better All Over More Than Anywhere's Else
15. George Jones - Why, Baby, Why
16. Hank Snow - Southern Cannonball
17. Jim Reeves - Teardrops Of Regret
18. Johnny Cash - Hey Porter
19. Lester Flatt & Earl Cruggs - Come Back Darling Jfe
20. Red Foley - Chattanooga Shoe Shine Boy
21. Carl Smith - Go Boy Go
22. Red Foley & Kitty Wells - As Long As I Live
23. Tennessee Ernie Ford - Sixteen Tons
24. Hank Snow - These Things Shall Pass
25. The Weavers With Gordon Jenkins - Goodnight Irene

Exact Audio Copy V0.99 prebeta 5 from 4. May 2009

EAC extraction logfile from 12. November 2011, 16:12

Various / Th'is Country. Country Stars

Used drive : LITE-ON DVDRW LH-20A1S Adapter: 4 ID: 0

Read mode : Secure
Utilize accurate stream : Yes
Defeat audio cache : Yes
Make use of C2 pointers : No

Read offset correction : 6
Overread into Lead-In and Lead-Out : No
Fill up missing offset samples with silence : Yes
Delete leading and trailing silent blocks : No
Null samples used in CRC calculations : Yes
Used interface : Native Win32 interface for Win NT & 2000
Gap handling : Appended to previous track

Used output format : Internal WAV Routines
Sample format : 44.100 Hz; 16 Bit; Stereo


TOC of the extracted CD

Track | Start | Length | Start sector | End sector
––––––––––––––––––––––––––––-
1 | 0:00.00 | 2:41.21 | 0 | 12095
2 | 2:41.21 | 2:29.46 | 12096 | 23316
3 | 5:10.67 | 2:31.58 | 23317 | 34699
4 | 7:42.50 | 2:02.64 | 34700 | 43913
5 | 9:45.39 | 2:43.55 | 43914 | 56193
6 | 12:29.19 | 4:30.22 | 56194 | 76465
7 | 16:59.41 | 2:52.23 | 76466 | 89388
8 | 19:51.64 | 2:40.69 | 89389 | 101457
9 | 22:32.58 | 2:20.29 | 101458 | 111986
10 | 24:53.12 | 2:58.57 | 111987 | 125393
11 | 27:51.69 | 3:09.51 | 125394 | 139619
12 | 31:01.45 | 2:49.07 | 139620 | 152301
13 | 33:50.52 | 2:44.23 | 152302 | 164624
14 | 36:35.00 | 2:35.11 | 164625 | 176260
15 | 39:10.11 | 2:17.52 | 176261 | 186587
16 | 41:27.63 | 2:13.48 | 186588 | 196610
17 | 43:41.36 | 2:33.39 | 196611 | 208124
18 | 46:15.00 | 2:14.54 | 208125 | 218228
19 | 48:29.54 | 2:39.03 | 218229 | 230156
20 | 51:08.57 | 2:50.00 | 230157 | 242906
21 | 53:58.57 | 2:07.55 | 242907 | 252486
22 | 56:06.37 | 2:35.60 | 252487 | 264171
23 | 58:42.22 | 2:35.71 | 264172 | 275867
24 | 61:18.18 | 2:27.31 | 275868 | 286923
25 | 63:45.49 | 3:20.70 | 286924 | 301993


Track 1

Filename I:\Brian O'Conner\Музыка\01. Bill Monroe - Footprints In The Snow.wav

Pre-gap length 0:00:02.00

Peak level 100.0 %
Track quality 100.0 %
Test CRC E85E7F6E
Copy CRC E85E7F6E
Track not present in AccurateRip database
Copy OK

Track 2

Filename I:\Brian O'Conner\Музыка\02. Hank Snow - Let Me Go Over.wav

Pre-gap length 0:00:01.00

Peak level 100.0 %
Track quality 100.0 %
Test CRC 01ADC2C0
Copy CRC 01ADC2C0
Track not present in AccurateRip database
Copy OK

Track 3

Filename I:\Brian O'Conner\Музыка\03. Johnny Horton - Words.wav

Pre-gap length 0:00:02.00

Peak level 86.1 %
Track quality 99.9 %
Test CRC 1D433F63
Copy CRC 1D433F63
Track not present in AccurateRip database
Copy OK

Track 4

Filename I:\Brian O'Conner\Музыка\04. Curtis Gordon - Baby, Baby Me.wav

Pre-gap length 0:00:01.00

Peak level 99.6 %
Track quality 99.9 %
Test CRC BC7BCB53
Copy CRC BC7BCB53
Track not present in AccurateRip database
Copy OK

Track 5

Filename I:\Brian O'Conner\Музыка\05. Bob Wills & The McKinney Sisters - Rose Of Old Pawnee.wav

Pre-gap length 0:00:01.00

Peak level 99.1 %
Track quality 100.0 %
Test CRC 07A061B8
Copy CRC 07A061B8
Track not present in AccurateRip database
Copy OK

Track 6

Filename I:\Brian O'Conner\Музыка\06. Kitty Wells And Hank Thompson - It Wasn't God Who Made Honky Tonk Angels.wav

Pre-gap length 0:00:01.00

Peak level 100.0 %
Track quality 99.9 %
Test CRC 7AC68DA9
Copy CRC 7AC68DA9
Track not present in AccurateRip database
Copy OK

Track 7

Filename I:\Brian O'Conner\Музыка\07. Jim Reeves - Butterfly Love.wav

Pre-gap length 0:00:01.00

Peak level 98.7 %
Track quality 100.0 %
Test CRC D39047F1
Copy CRC D39047F1
Track not present in AccurateRip database
Copy OK

Track 8

Filename I:\Brian O'Conner\Музыка\08. Carl Smith - There She Goes.wav

Pre-gap length 0:00:01.00

Peak level 95.4 %
Track quality 100.0 %
Test CRC 124CF997
Copy CRC 124CF997
Track not present in AccurateRip database
Copy OK

Track 9

Filename I:\Brian O'Conner\Музыка\09. Eddie Marshall - Moblin' Baby Of Mine.wav

Pre-gap length 0:00:01.00

Peak level 98.5 %
Track quality 100.0 %
Test CRC 69C3FF53
Copy CRC 69C3FF53
Track not present in AccurateRip database
Copy OK

Track 10

Filename I:\Brian O'Conner\Музыка\10. Eddy Arnold - How's The World Treating You.wav

Pre-gap length 0:00:01.00

Peak level 100.0 %
Track quality 100.0 %
Test CRC 7C7FAC0C
Copy CRC 7C7FAC0C
Track not present in AccurateRip database
Copy OK

Track 11

Filename I:\Brian O'Conner\Музыка\11. Ernest Tubb - Hobo's Meditation.wav

Pre-gap length 0:00:01.00

Peak level 100.0 %
Track quality 100.0 %
Test CRC 175CC552
Copy CRC 175CC552
Track not present in AccurateRip database
Copy OK

Track 12

Filename I:\Brian O'Conner\Музыка\12. Hank Penny - Taxes Taxes Taxes.wav

Pre-gap length 0:00:01.00

Peak level 100.0 %
Track quality 100.0 %
Test CRC EBDD96F9
Copy CRC EBDD96F9
Track not present in AccurateRip database
Copy OK

Track 13

Filename I:\Brian O'Conner\Музыка\13. Tex Williams - Smoke, Smoke, Smoke That Cigarette.wav

Pre-gap length 0:00:01.00

Peak level 90.3 %
Track quality 100.0 %
Test CRC ADBD6071
Copy CRC ADBD6071
Track not present in AccurateRip database
Copy OK

Track 14

Filename I:\Brian O'Conner\Музыка\14. Ferlin Huskey - I Feel Better All Over More Than Anywhere's Else.wav

Pre-gap length 0:00:01.00

Peak level 93.8 %
Track quality 100.0 %
Test CRC 4DA67C56
Copy CRC 4DA67C56
Track not present in AccurateRip database
Copy OK

Track 15

Filename I:\Brian O'Conner\Музыка\15. George Jones - Why, Baby, Why.wav

Pre-gap length 0:00:01.00

Peak level 99.3 %
Track quality 100.0 %
Test CRC E274562A
Copy CRC E274562A
Track not present in AccurateRip database
Copy OK

Track 16

Filename I:\Brian O'Conner\Музыка\16. Hank Snow - Southern Cannonball.wav

Pre-gap length 0:00:01.00

Peak level 100.0 %
Track quality 100.0 %
Test CRC 383188D5
Copy CRC 383188D5
Track not present in AccurateRip database
Copy OK

Track 17

Filename I:\Brian O'Conner\Музыка\17. Jim Reeves - Teardrops Of Regret.wav

Pre-gap length 0:00:01.00

Peak level 73.8 %
Track quality 100.0 %
Test CRC 2DBA76EE
Copy CRC 2DBA76EE
Track not present in AccurateRip database
Copy OK

Track 18

Filename I:\Brian O'Conner\Музыка\18. Johnny Cash - Hey Porter.wav

Pre-gap length 0:00:01.00

Peak level 100.0 %
Track quality 100.0 %
Test CRC 1F36608E
Copy CRC 1F36608E
Track not present in AccurateRip database
Copy OK

Track 19

Filename I:\Brian O'Conner\Музыка\19. Lester Flatt & Earl Cruggs - Come Back Darling.wav

Pre-gap length 0:00:01.00

Peak level 100.0 %
Track quality 99.9 %
Test CRC 1751773D
Copy CRC 1751773D
Track not present in AccurateRip database
Copy OK

Track 20

Filename I:\Brian O'Conner\Музыка\20. Red Foley - Chattanooga Shoe Shine Boy.wav

Pre-gap length 0:00:01.00

Peak level 100.0 %
Track quality 99.9 %
Test CRC F09B86F9
Copy CRC F09B86F9
Track not present in AccurateRip database
Copy OK

Track 21

Filename I:\Brian O'Conner\Музыка\21. Carl Smith - Go Boy Go.wav

Pre-gap length 0:00:01.00

Peak level 96.9 %
Track quality 100.0 %
Test CRC 7F511B06
Copy CRC 7F511B06
Track not present in AccurateRip database
Copy OK

Track 22

Filename I:\Brian O'Conner\Музыка\22. Red Foley & Kitty Wells - As Long As I Live.wav

Pre-gap length 0:00:01.00

Peak level 73.5 %
Track quality 100.0 %
Test CRC 2E4082D7
Copy CRC 2E4082D7
Track not present in AccurateRip database
Copy OK

Track 23

Filename I:\Brian O'Conner\Музыка\23. Tennessee Ernie Ford - Sixteen Tons.wav

Pre-gap length 0:00:01.00

Peak level 95.7 %
Track quality 100.0 %
Test CRC 20C3E9B9
Copy CRC 20C3E9B9
Track not present in AccurateRip database
Copy OK

Track 24

Filename I:\Brian O'Conner\Музыка\24. Hank Snow - These Things Shall Pass.wav

Pre-gap length 0:00:01.00

Peak level 86.3 %
Track quality 99.9 %
Test CRC 320B6436
Copy CRC 320B6436
Track not present in AccurateRip database
Copy OK

Track 25

Filename I:\Brian O'Conner\Музыка\25. The Weavers With Gordon Jenkins - Goodnight Irene.wav

Pre-gap length 0:00:01.00

Peak level 94.0 %
Track quality 99.9 %
Test CRC C6CAE806
Copy CRC C6CAE806
Track not present in AccurateRip database
Copy OK


None of the tracks are present in the AccurateRip database

No errors occurred

End of status report

foobar2000 1.2.9 / Dynamic Range Meter 1.1.1
log date: 2013-11-09 13:08:01

––––––––––––––––––––––––––––––––––––––––
Analyzed: Bill Monroe / Th'is Country. Country Stars (1)
Bob Wills & The McKinney Sisters / Th'is Country. Country Stars (2)
Carl Smith / Th'is Country. Country Stars (3-4)
––––––––––––––––––––––––––––––––––––––––

DR Peak RMS Duration Track
––––––––––––––––––––––––––––––––––––––––
DR10 0.00 dB -12.78 dB 2:41 01-Footprints In The Snow
DR10 -0.07 dB -12.26 dB 2:44 05-Rose Of Old Pawnee
DR12 -0.41 dB -13.38 dB 2:41 08-There She Goes
DR11 -0.27 dB -13.27 dB 2:08 21-Go Boy Go
––––––––––––––––––––––––––––––––––––––––

Number of tracks: 4
Official DR value: DR11

Samplerate: 44100 Hz
Channels: 2
Bits per sample: 16
Bitrate: 533 kbps
Codec: FLAC
================================================================================

––––––––––––––––––––––––––––––––––––––––
Analyzed: Curtis Gordon / Th'is Country. Country Stars (1)
Eddie Marshall / Th'is Country. Country Stars (2)
Eddy Arnold / Th'is Country. Country Stars (3)
Ernest Tubb / Th'is Country. Country Stars (4)
Ferlin Huskey / Th'is Country. Country Stars (5)
George Jones / Th'is Country. Country Stars (6)
––––––––––––––––––––––––––––––––––––––––

DR Peak RMS Duration Track
––––––––––––––––––––––––––––––––––––––––
DR12 -0.03 dB -13.74 dB 2:03 04-Baby, Baby Me
DR11 -0.13 dB -12.85 dB 2:20 09-Moblin' Baby Of Mine
DR7 0.00 dB -8.25 dB 2:59 10-How's The World Treating You
DR12 0.00 dB -15.12 dB 3:10 11-Hobo's Meditation
DR13 -0.55 dB -16.60 dB 2:35 14-I Feel Better All Over More Than Anywhere's Else
DR12 -0.06 dB -14.02 dB 2:18 15-Why, Baby, Why
––––––––––––––––––––––––––––––––––––––––

Number of tracks: 6
Official DR value: DR11

Samplerate: 44100 Hz
Channels: 2
Bits per sample: 16
Bitrate: 533 kbps
Codec: FLAC
================================================================================

––––––––––––––––––––––––––––––––––––––––
Statistics for: 12-Taxes Taxes Taxes
Number of samples: 7457016
Duration: 2:49
––––––––––––––––––––––––––––––––––––––––

Left Right

Peak Value: -0.98 dB –- 0.00 dB
Avg RMS: -13.04 dB –- -12.15 dB
DR channel: 9.91 dB –- 10.45 dB
––––––––––––––––––––––––––––––––––––––––

Official DR Value: DR10

Samplerate: 44100 Hz
Channels: 2
Bits per sample: 16
Bitrate: 533 kbps
Codec: FLAC
================================================================================
––––––––––––––––––––––––––––––––––––––––
Analyzed: Hank Snow / Th'is Country. Country Stars
––––––––––––––––––––––––––––––––––––––––

DR Peak RMS Duration Track
––––––––––––––––––––––––––––––––––––––––
DR9 0.00 dB -10.64 dB 2:30 02-Let Me Go Over
DR7 0.00 dB -8.17 dB 2:14 16-Southern Cannonball
DR12 -1.28 dB -14.95 dB 2:27 24-These Things Shall Pass
––––––––––––––––––––––––––––––––––––––––

Number of tracks: 3
Official DR value: DR9

Samplerate: 44100 Hz
Channels: 2
Bits per sample: 16
Bitrate: 533 kbps
Codec: FLAC
================================================================================

––––––––––––––––––––––––––––––––––––––––
Analyzed: Jim Reeves / Th'is Country. Country Stars (1-2)
Johnny Cash / Th'is Country. Country Stars (3)
––––––––––––––––––––––––––––––––––––––––

DR Peak RMS Duration Track
––––––––––––––––––––––––––––––––––––––––
DR10 -0.11 dB -11.82 dB 2:52 07-Butterfly Love
DR10 -2.63 dB -14.12 dB 2:34 17-Teardrops Of Regret
DR10 0.00 dB -11.43 dB 2:15 18-Hey Porter
––––––––––––––––––––––––––––––––––––––––

Number of tracks: 3
Official DR value: DR10

Samplerate: 44100 Hz
Channels: 2
Bits per sample: 16
Bitrate: 533 kbps
Codec: FLAC
================================================================================

––––––––––––––––––––––––––––––––––––––––
Analyzed: Johnny Horton / Th'is Country. Country Stars (1)
Kitty Wells And Hank Thompson / Th'is Country. Country Stars (2)
Lester Flatt & Earl Cruggs / Th'is Country. Country Stars (3)
Red Foley & Kitty Wells / Th'is Country. Country Stars (4)
––––––––––––––––––––––––––––––––––––––––

DR Peak RMS Duration Track
––––––––––––––––––––––––––––––––––––––––
DR14 -1.29 dB -20.90 dB 2:32 03-Words
DR10 0.00 dB -11.57 dB 4:30 06-It Wasn't God Who Made Honky Tonk Angels
DR12 0.00 dB -13.58 dB 2:39 19-Come Back Darling
DR13 -2.67 dB -18.03 dB 2:36 22-As Long As I Live
––––––––––––––––––––––––––––––––––––––––

Number of tracks: 4
Official DR value: DR13

Samplerate: 44100 Hz
Channels: 2
Bits per sample: 16
Bitrate: 533 kbps
Codec: FLAC
================================================================================

––––––––––––––––––––––––––––––––––––––––
Analyzed: Red Foley / Th'is Country. Country Stars (1)
Tennessee Ernie Ford / Th'is Country. Country Stars (2)
––––––––––––––––––––––––––––––––––––––––

DR Peak RMS Duration Track
––––––––––––––––––––––––––––––––––––––––
DR17 0.00 dB -19.71 dB 2:50 20-Chattanooga Shoe Shine Boy
DR13 -0.38 dB -16.11 dB 2:36 23-Sixteen Tons
––––––––––––––––––––––––––––––––––––––––

Number of tracks: 2
Official DR value: DR15

Samplerate: 44100 Hz
Channels: 2
Bits per sample: 16
Bitrate: 533 kbps
Codec: FLAC
================================================================================

––––––––––––––––––––––––––––––––––––––––
Analyzed: Tex Williams / Th'is Country. Country Stars (1)
The Weavers With Gordon Jenkins / Th'is Country. Country Stars (2)
––––––––––––––––––––––––––––––––––––––––

DR Peak RMS Duration Track
––––––––––––––––––––––––––––––––––––––––
DR12 -0.88 dB -15.11 dB 2:44 13-Smoke, Smoke, Smoke That Cigarette
DR9 -0.53 dB -12.49 dB 3:21 25-Goodnight Irene
––––––––––––––––––––––––––––––––––––––––

Number of tracks: 2
Official DR value: DR11

Samplerate: 44100 Hz
Channels: 2
Bits per sample: 16
Bitrate: 533 kbps
Codec: FLAC

VA - Th'is Country: Country Stars (2011)

Tracklist CD3:

01. Tennessee Ernie Ford - My Hobby
02. Johnny Cash - Cry, Cry, Cry
03. Bing Crosby - Dear Hearts And Gentle People
04. Eddy Arnold - I'll Hold You In My Heart
05. Faron Young - Almost Persuaded
06. Carl Smith With June Carter - Time's A Wastin'
07. Curtis Gordon - Caffeine And Nicotine
08. Bill Monroe - Rocky Top
09. Tennessee Ernie Ford - The Shot Gun Boogie
10. George Morgan - Room Full Of Roses
11. Hank Thompson - Humpty Dumpty Heart
12. Eddy Arnold - Anytime
13. Kitty Wells - Crying Steel Guitar Waltz
14. Jim Reeves - Echo Bonita
15. Red Foley - Hot Toddy
16. Hank Snow - Music Makin' Mama From Memphis
17. Kitty Wells And Red Foley - One By One
18. Marty Robbins - I Couldn't Keep From Cryin'
19. Carl Smith - Back Up Buddy
20. Rex Allen - Crying In The Chapel
21. The Osborne Brothers - Little Cabin Home On The Hill
22. Hank Snow - The Golden Rocket
23. Smiley Maxedon - Give Me A Red Hot Mama And A Ice Cold Beer
24. Carl Smith - Hey Joe
25. Pee Wee King - I Don't Mind

Exact Audio Copy V0.99 prebeta 5 from 4. May 2009

EAC extraction logfile from 12. November 2011, 17:16

Various / Th'is Country. Country Stars

Used drive : LITE-ON DVDRW LH-20A1S Adapter: 4 ID: 0

Read mode : Secure
Utilize accurate stream : Yes
Defeat audio cache : Yes
Make use of C2 pointers : No

Read offset correction : 6
Overread into Lead-In and Lead-Out : No
Fill up missing offset samples with silence : Yes
Delete leading and trailing silent blocks : No
Null samples used in CRC calculations : Yes
Used interface : Native Win32 interface for Win NT & 2000
Gap handling : Appended to previous track

Used output format : Internal WAV Routines
Sample format : 44.100 Hz; 16 Bit; Stereo


TOC of the extracted CD

Track | Start | Length | Start sector | End sector
––––––––––––––––––––––––––––-
1 | 0:00.00 | 2:34.25 | 0 | 11574
2 | 2:34.25 | 2:25.73 | 11575 | 22522
3 | 5:00.23 | 2:41.03 | 22523 | 34600
4 | 7:41.26 | 2:44.37 | 34601 | 46937
5 | 10:25.63 | 2:59.42 | 46938 | 60404
6 | 13:25.30 | 2:11.69 | 60405 | 70298
7 | 15:37.24 | 2:07.63 | 70299 | 79886
8 | 17:45.12 | 2:38.50 | 79887 | 91786
9 | 20:23.62 | 2:37.68 | 91787 | 103629
10 | 23:01.55 | 2:50.04 | 103630 | 116383
11 | 25:51.59 | 2:24.36 | 116384 | 127219
12 | 28:16.20 | 2:19.33 | 127220 | 137677
13 | 30:35.53 | 2:35.11 | 137678 | 149313
14 | 33:10.64 | 2:50.49 | 149314 | 162112
15 | 36:01.38 | 2:38.64 | 162113 | 174026
16 | 38:40.27 | 2:28.38 | 174027 | 185164
17 | 41:08.65 | 2:57.08 | 185165 | 198447
18 | 44:05.73 | 2:47.30 | 198448 | 211002
19 | 46:53.28 | 2:34.60 | 211003 | 222612
20 | 49:28.13 | 3:09.68 | 222613 | 236855
21 | 52:38.06 | 2:56.19 | 236856 | 250074
22 | 55:34.25 | 2:50.04 | 250075 | 262828
23 | 58:24.29 | 2:22.08 | 262829 | 273486
24 | 60:46.37 | 2:32.22 | 273487 | 284908
25 | 63:18.59 | 2:21.33 | 284909 | 295516


Track 1

Filename I:\Brian O'Conner\Музыка\01. Tennessee Ernie Ford - My Hobby.wav

Pre-gap length 0:00:02.00

Peak level 100.0 %
Track quality 100.0 %
Test CRC 213AA21A
Copy CRC 213AA21A
Track not present in AccurateRip database
Copy OK

Track 2

Filename I:\Brian O'Conner\Музыка\02. Johnny Cash - Cry, Cry, Cry.wav

Pre-gap length 0:00:01.00

Peak level 100.0 %
Track quality 100.0 %
Test CRC EFBC5E4A
Copy CRC EFBC5E4A
Track not present in AccurateRip database
Copy OK

Track 3

Filename I:\Brian O'Conner\Музыка\03. Bing Crosby - Dear Hearts And Gentle People.wav

Pre-gap length 0:00:01.00

Peak level 100.0 %
Track quality 99.9 %
Test CRC E1C2F0C9
Copy CRC E1C2F0C9
Track not present in AccurateRip database
Copy OK

Track 4

Filename I:\Brian O'Conner\Музыка\04. Eddy Arnold - I'll Hold You In My Heart.wav

Pre-gap length 0:00:01.00

Peak level 88.9 %
Track quality 100.0 %
Test CRC F2F628F3
Copy CRC F2F628F3
Track not present in AccurateRip database
Copy OK

Track 5

Filename I:\Brian O'Conner\Музыка\05. Faron Young - Almost Persuaded.wav

Pre-gap length 0:00:01.00

Peak level 93.1 %
Track quality 100.0 %
Test CRC 6C9C3D3C
Copy CRC 6C9C3D3C
Track not present in AccurateRip database
Copy OK

Track 6

Filename I:\Brian O'Conner\Музыка\06. Carl Smith & June Carter - Time's A Wastin'.wav

Pre-gap length 0:00:01.00

Peak level 98.0 %
Track quality 100.0 %
Test CRC 4EFC58D0
Copy CRC 4EFC58D0
Track not present in AccurateRip database
Copy OK

Track 7

Filename I:\Brian O'Conner\Музыка\07. Curtis Gordon - Coffeine And Nicotine.wav

Pre-gap length 0:00:00.98

Peak level 98.8 %
Track quality 99.9 %
Test CRC 8E5EDFD3
Copy CRC 8E5EDFD3
Track not present in AccurateRip database
Copy OK

Track 8

Filename I:\Brian O'Conner\Музыка\08. Bill Monroe - Rocky Top.wav

Pre-gap length 0:00:01.00

Peak level 96.8 %
Track quality 100.0 %
Test CRC E76468EF
Copy CRC E76468EF
Track not present in AccurateRip database
Copy OK

Track 9

Filename I:\Brian O'Conner\Музыка\09. Tennessee Ernie Ford - Shot Gun Boogie.wav

Pre-gap length 0:00:01.00

Peak level 96.8 %
Track quality 100.0 %
Test CRC A2D8E838
Copy CRC A2D8E838
Track not present in AccurateRip database
Copy OK

Track 10

Filename I:\Brian O'Conner\Музыка\10. George Morgan - Room Full Of Roses.wav

Pre-gap length 0:00:01.00

Peak level 84.3 %
Track quality 100.0 %
Test CRC BF89068A
Copy CRC BF89068A
Track not present in AccurateRip database
Copy OK

Track 11

Filename I:\Brian O'Conner\Музыка\11. Hank Thompson - Humpty Dumpty Heart.wav

Pre-gap length 0:00:01.00

Peak level 100.0 %
Track quality 100.0 %
Test CRC A49456C6
Copy CRC A49456C6
Track not present in AccurateRip database
Copy OK

Track 12

Filename I:\Brian O'Conner\Музыка\12. Eddy Arnold - Anytime.wav

Pre-gap length 0:00:01.00

Peak level 98.3 %
Track quality 100.0 %
Test CRC 53426BC6
Copy CRC 53426BC6
Track not present in AccurateRip database
Copy OK

Track 13

Filename I:\Brian O'Conner\Музыка\13. Kitty Wells - Crying Steel Guitar Waltz.wav

Pre-gap length 0:00:01.00

Peak level 83.2 %
Track quality 100.0 %
Test CRC 495B1EB4
Copy CRC 495B1EB4
Track not present in AccurateRip database
Copy OK

Track 14

Filename I:\Brian O'Conner\Музыка\14. Jim Reeves - Echo Bonita.wav

Pre-gap length 0:00:01.00

Peak level 83.3 %
Track quality 99.9 %
Test CRC 2FBC23B9
Copy CRC 2FBC23B9
Track not present in AccurateRip database
Copy OK

Track 15

Filename I:\Brian O'Conner\Музыка\15. Red Foley - Hot Toddy.wav

Pre-gap length 0:00:01.00

Peak level 100.0 %
Track quality 100.0 %
Test CRC B3CEAEE8
Copy CRC B3CEAEE8
Track not present in AccurateRip database
Copy OK

Track 16

Filename I:\Brian O'Conner\Музыка\16. Hank Snow - Music Makin' Mama From Memphis.wav

Pre-gap length 0:00:01.00

Peak level 99.6 %
Track quality 100.0 %
Test CRC 2BCF89E2
Copy CRC 2BCF89E2
Track not present in AccurateRip database
Copy OK

Track 17

Filename I:\Brian O'Conner\Музыка\17. Kitty Wells & Red Foley - One By One.wav

Pre-gap length 0:00:01.00

Peak level 68.4 %
Track quality 100.0 %
Test CRC B561233E
Copy CRC B561233E
Track not present in AccurateRip database
Copy OK

Track 18

Filename I:\Brian O'Conner\Музыка\18. Marty Robbins - I Couldn't Keep From Cryin'.wav

Pre-gap length 0:00:01.00

Peak level 97.4 %
Track quality 100.0 %
Test CRC 267185A2
Copy CRC 267185A2
Track not present in AccurateRip database
Copy OK

Track 19

Filename I:\Brian O'Conner\Музыка\19. Carl Smith - Back Up Buddy.wav

Pre-gap length 0:00:01.00

Peak level 98.3 %
Track quality 100.0 %
Test CRC EA7CFD86
Copy CRC EA7CFD86
Track not present in AccurateRip database
Copy OK

Track 20

Filename I:\Brian O'Conner\Музыка\20. Rex Allen - Crying In The Chapel.wav

Pre-gap length 0:00:01.00

Peak level 88.6 %
Track quality 99.9 %
Test CRC 153AA5EB
Copy CRC 153AA5EB
Track not present in AccurateRip database
Copy OK

Track 21

Filename I:\Brian O'Conner\Музыка\21. The Osborne Brothers - Little Cabin Home On The Hill.wav

Pre-gap length 0:00:01.00

Peak level 94.7 %
Track quality 100.0 %
Test CRC 5B6B3BF0
Copy CRC 5B6B3BF0
Track not present in AccurateRip database
Copy OK

Track 22

Filename I:\Brian O'Conner\Музыка\22. Hank Snow - The Golden Rocket.wav

Pre-gap length 0:00:01.00

Peak level 83.4 %
Track quality 100.0 %
Test CRC D02FBF15
Copy CRC D02FBF15
Track not present in AccurateRip database
Copy OK

Track 23

Filename I:\Brian O'Conner\Музыка\23. Smiley Maxedon - Give Me A Red Hot Mama And A Ice Cold Beer.wav

Pre-gap length 0:00:01.00

Peak level 98.3 %
Track quality 99.9 %
Test CRC D6368004
Copy CRC D6368004
Track not present in AccurateRip database
Copy OK

Track 24

Filename I:\Brian O'Conner\Музыка\24. Carl Smith - Hey Joe.wav

Pre-gap length 0:00:01.00

Peak level 97.3 %
Track quality 100.0 %
Test CRC 0DC07C4D
Copy CRC 0DC07C4D
Track not present in AccurateRip database
Copy OK

Track 25

Filename I:\Brian O'Conner\Музыка\25. Pee Wee King - I Don't Mind.wav

Pre-gap length 0:00:01.00

Peak level 98.7 %
Track quality 99.9 %
Test CRC 7BC9AFCB
Copy CRC 7BC9AFCB
Track not present in AccurateRip database
Copy OK


None of the tracks are present in the AccurateRip database

No errors occurred

End of status report

foobar2000 1.2.9 / Dynamic Range Meter 1.1.1
log date: 2013-11-09 13:08:23

––––––––––––––––––––––––––––––––––––––––
Analyzed: Bing Crosby / Th'is Country. Country Stars (1)
Carl Smith & June Carter / Th'is Country. Country Stars (2)
Carl Smith / Th'is Country. Country Stars (3-4)
––––––––––––––––––––––––––––––––––––––––

DR Peak RMS Duration Track
––––––––––––––––––––––––––––––––––––––––
DR6 0.00 dB -8.62 dB 2:41 03-Dear Hearts And Gentle People
DR13 -0.17 dB -14.64 dB 2:12 06-Time's A Wastin'
DR14 -0.15 dB -16.04 dB 2:35 19-Back Up Buddy
DR11 -0.24 dB -11.92 dB 2:32 24-Hey Joe
––––––––––––––––––––––––––––––––––––––––

Number of tracks: 4
Official DR value: DR11

Samplerate: 44100 Hz
Channels: 2
Bits per sample: 16
Bitrate: 557 kbps
Codec: FLAC
================================================================================

––––––––––––––––––––––––––––––––––––––––
Statistics for: 07-Coffeine And Nicotine
Number of samples: 5637744
Duration: 2:08
––––––––––––––––––––––––––––––––––––––––

Left Right

Peak Value: -0.23 dB –- -0.10 dB
Avg RMS: -14.49 dB –- -14.59 dB
DR channel: 12.55 dB –- 12.51 dB
––––––––––––––––––––––––––––––––––––––––

Official DR Value: DR13

Samplerate: 44100 Hz
Channels: 2
Bits per sample: 16
Bitrate: 557 kbps
Codec: FLAC
================================================================================
––––––––––––––––––––––––––––––––––––––––
Analyzed: Eddy Arnold / Th'is Country. Country Stars
––––––––––––––––––––––––––––––––––––––––

DR Peak RMS Duration Track
––––––––––––––––––––––––––––––––––––––––
DR11 -1.02 dB -13.86 dB 2:44 04-I'll Hold You In My Heart
DR12 -0.14 dB -15.22 dB 2:19 12-Anytime
––––––––––––––––––––––––––––––––––––––––

Number of tracks: 2
Official DR value: DR11

Samplerate: 44100 Hz
Channels: 2
Bits per sample: 16
Bitrate: 557 kbps
Codec: FLAC
================================================================================

––––––––––––––––––––––––––––––––––––––––
Analyzed: Faron Young / Th'is Country. Country Stars (1)
George Morgan / Th'is Country. Country Stars (2)
Hank Snow / Th'is Country. Country Stars (3-4)
––––––––––––––––––––––––––––––––––––––––

DR Peak RMS Duration Track
––––––––––––––––––––––––––––––––––––––––
DR11 -0.62 dB -15.40 dB 3:00 05-Almost Persuaded
DR11 -1.48 dB -14.14 dB 2:50 10-Room Full Of Roses
DR13 -0.03 dB -14.76 dB 2:29 16-Music Makin' Mama From Memphis
DR12 -1.57 dB -15.30 dB 2:50 22-The Golden Rocket
––––––––––––––––––––––––––––––––––––––––

Number of tracks: 4
Official DR value: DR12

Samplerate: 44100 Hz
Channels: 2
Bits per sample: 16
Bitrate: 557 kbps
Codec: FLAC
================================================================================

––––––––––––––––––––––––––––––––––––––––
Analyzed: Hank Thompson / Th'is Country. Country Stars (1)
Jim Reeves / Th'is Country. Country Stars (2)
––––––––––––––––––––––––––––––––––––––––

DR Peak RMS Duration Track
––––––––––––––––––––––––––––––––––––––––
DR11 0.00 dB -13.68 dB 2:24 11-Humpty Dumpty Heart
DR11 -1.58 dB -15.84 dB 2:51 14-Echo Bonita
––––––––––––––––––––––––––––––––––––––––

Number of tracks: 2
Official DR value: DR11

Samplerate: 44100 Hz
Channels: 2
Bits per sample: 16
Bitrate: 557 kbps
Codec: FLAC
================================================================================

––––––––––––––––––––––––––––––––––––––––
Analyzed: Johnny Cash / Th'is Country. Country Stars (1)
Kitty Wells & Red Foley / Th'is Country. Country Stars (2)
––––––––––––––––––––––––––––––––––––––––

DR Peak RMS Duration Track
––––––––––––––––––––––––––––––––––––––––
DR12 0.00 dB -14.06 dB 2:26 02-Cry, Cry, Cry
DR11 -3.29 dB -16.32 dB 2:57 17-One By One
––––––––––––––––––––––––––––––––––––––––

Number of tracks: 2
Official DR value: DR12

Samplerate: 44100 Hz
Channels: 2
Bits per sample: 16
Bitrate: 557 kbps
Codec: FLAC
================================================================================

––––––––––––––––––––––––––––––––––––––––
Analyzed: Kitty Wells / Th'is Country. Country Stars (1)
Marty Robbins / Th'is Country. Country Stars (2)
Pee Wee King / Th'is Country. Country Stars (3)
––––––––––––––––––––––––––––––––––––––––

DR Peak RMS Duration Track
––––––––––––––––––––––––––––––––––––––––
DR10 -1.60 dB -13.85 dB 2:35 13-Crying Steel Guitar Waltz
DR12 -0.23 dB -13.31 dB 2:47 18-I Couldn't Keep From Cryin'
DR10 -0.11 dB -12.31 dB 2:21 25-I Don't Mind
––––––––––––––––––––––––––––––––––––––––

Number of tracks: 3
Official DR value: DR11

Samplerate: 44100 Hz
Channels: 2
Bits per sample: 16
Bitrate: 557 kbps
Codec: FLAC
================================================================================

––––––––––––––––––––––––––––––––––––––––
Analyzed: Red Foley / Th'is Country. Country Stars (1)
Rex Allen / Th'is Country. Country Stars (2)
Smiley Maxedon / Th'is Country. Country Stars (3)
––––––––––––––––––––––––––––––––––––––––

DR Peak RMS Duration Track
––––––––––––––––––––––––––––––––––––––––
DR10 0.00 dB -12.15 dB 2:39 15-Hot Toddy
DR12 -1.04 dB -16.17 dB 3:10 20-Crying In The Chapel
DR13 -0.15 dB -15.42 dB 2:22 23-Give Me A Red Hot Mama And A Ice Cold Beer
––––––––––––––––––––––––––––––––––––––––

Number of tracks: 3
Official DR value: DR12

Samplerate: 44100 Hz
Channels: 2
Bits per sample: 16
Bitrate: 557 kbps
Codec: FLAC
================================================================================

––––––––––––––––––––––––––––––––––––––––
Analyzed: Tennessee Ernie Ford / Th'is Country. Country Stars (1-2)
The Osborne Brothers / Th'is Country. Country Stars (3)
––––––––––––––––––––––––––––––––––––––––

DR Peak RMS Duration Track
––––––––––––––––––––––––––––––––––––––––
DR10 0.00 dB -11.62 dB 2:34 01-My Hobby
DR13 -0.28 dB -14.66 dB 2:38 09-Shot Gun Boogie
DR14 -0.46 dB -16.15 dB 2:56 21-Little Cabin Home On The Hill
––––––––––––––––––––––––––––––––––––––––

Number of tracks: 3
Official DR value: DR12

Samplerate: 44100 Hz
Channels: 2
Bits per sample: 16
Bitrate: 557 kbps
Codec: FLAC

VA - Th'is Country: Country Stars (2011)

All thanks go to Brian_OConner333

Download VA - Th'is Country: Country Stars (2011):