Subcategories

Thompson Twins - Greatest Hits (1996) {Remastered} Repost

Posted By: popsakov
Thompson Twins - Greatest Hits (1996) {Remastered} Repost

Thompson Twins - Greatest Hits (1996) {Remastered}
EAC Rip | FLAC (Tracks) + Cue + m3u + Log ~ 480 Mb | MP3 CBR320 ~ 168 Mb
Scans Included (JPG, 300 dpi) | RAR 5% Recovery
New Wave, Synth-Pop, Pop Rock | Arista #07822-18940-2

During the '80s, Thompson Twins arguably produced the finest synth-pop singles, and Greatest Hits recollects their industrious years with Arista in clear, digitally remastered sound. Numerous collections exist in the Twins' catalog and nearly equal their studio albums, but Greatest Hits prevails as the most essential as it offers a definitive chronology from 1982's infectious debut "In the Name of Love" through 1987's reflective "Long Goodbye." Featuring 16 tracks, this brimming retrospective recalls MTV's formative years ("Lies"), those unforgettable Dr. Pepper commercials ("Doctor! Doctor!"), the anti-Apartheid movement ("The Gap"), and countless other '80s pop culture memories. Nearly flawless, this collection contains only one inferior single, the hokey electronic hoe-down "You Take Me Up," and it also excludes non-Arista releases, which means 1989's minor hit "Sugar Daddy," a Red Eye label recording, is absent. Nevertheless, Thompson Twins' Greatest Hits, along with Orchestral Manoeuvres in the Dark's The Singles and The Best of Howard Jones, remain indispensable for any '80s synth-pop enthusiast.
~ Jacob N. Lunders, All Music

***************

Thompson Twins - Greatest Hits (1996) {Remastered} Repost

Thompson Twins - Greatest Hits (1996) {Remastered} Repost

Track List:

01. In The Name Of Love [3:53]
02. Lies [3:12]
03. We Are Detective [3:06]
04. If You Were Here [2:57]
05. Love On Your Side [4:00]
06. Hold Me Now [4:46]
07. Doctor! Doctor! [4:38]
08. You Take Me Up [4:25]
09. The Gap [4:44]
10. Sister Of Mercy [5:07]
11. Don't Mess With Doctor Dream [4:41]
12. Lay Your Hands On Me [4:04]
13. King For A Day [5:20]
14. Nothing In Common [3:30]
15. Get That Love [3:55]
16. Long Goodbye [4:32]

Exact Audio Copy V1.0 beta 3 from 29. August 2011

EAC extraction logfile from 6. May 2012, 12:34

Thompson Twins / Greatest Hits

Used drive : TEAC DVD+RW DV-W58E Adapter: 1 ID: 1

Read mode : Secure
Utilize accurate stream : Yes
Defeat audio cache : Yes
Make use of C2 pointers : No

Read offset correction : 686
Overread into Lead-In and Lead-Out : No
Fill up missing offset samples with silence : Yes
Delete leading and trailing silent blocks : No
Null samples used in CRC calculations : Yes
Used interface : Native Win32 interface for Win NT & 2000
Gap handling : Appended to previous track

Used output format : User Defined Encoder
Selected bitrate : 128 kBit/s
Quality : High
Add ID3 tag : No
Command line compressor : C:\Program Files\Exact Audio Copy\Flac\flac.exe
Additional command line options : -8 -V -T "ARTIST=%artist%" -T "TITLE=%title%" -T "ALBUM=%albumtitle%" -T "DATE=%year%" -T "TRACKNUMBER=%tracknr2%" -T "GENRE=%genre%" -T "PERFORMER=%albuminterpret%" -T "COMPOSER=%composer%" %haslyrics%–tag-from-file=LYRICS="%lyricsfile%"%haslyrics% -T "ALBUMARTIST=%albumartist%" -T "DISCNUMBER=%cdnumber%" -T "TOTALDISCS=%totalcds%" -T "TOTALTRACKS=%numtracks%" -T "COMMENT=%comment%" %source%


TOC of the extracted CD

Track | Start | Length | Start sector | End sector
––––––––––––––––––––––––––––-
1 | 0:00.00 | 3:54.57 | 0 | 17606
2 | 3:54.57 | 3:13.12 | 17607 | 32093
3 | 7:07.69 | 3:07.11 | 32094 | 46129
4 | 10:15.05 | 2:58.27 | 46130 | 59506
5 | 13:13.32 | 4:01.18 | 59507 | 77599
6 | 17:14.50 | 4:47.10 | 77600 | 99134
7 | 22:01.60 | 4:39.20 | 99135 | 120079
8 | 26:41.05 | 4:26.70 | 120080 | 140099
9 | 31:08.00 | 4:45.17 | 140100 | 161491
10 | 35:53.17 | 5:09.03 | 161492 | 184669
11 | 41:02.20 | 4:40.52 | 184670 | 205721
12 | 45:42.72 | 4:05.45 | 205722 | 224141
13 | 49:48.42 | 5:21.63 | 224142 | 248279
14 | 55:10.30 | 3:31.35 | 248280 | 264139
15 | 58:41.65 | 3:56.12 | 264140 | 281851
16 | 62:38.02 | 4:31.55 | 281852 | 302231


Track 1

Filename I:\EACrips\Thompson Twins - Greatest Hits (1996) [FLAC]\01 - In The Name Of Love.wav

Pre-gap length 0:00:02.00

Peak level 95.5 %
Extraction speed 3.5 X
Track quality 100.0 %
Test CRC C3BB4350
Copy CRC C3BB4350
Accurately ripped (confidence 9) [E4928BC9] (AR v2)
Copy OK

Track 2

Filename I:\EACrips\Thompson Twins - Greatest Hits (1996) [FLAC]\02 - Lies.wav

Pre-gap length 0:00:01.56

Peak level 95.5 %
Extraction speed 3.4 X
Track quality 100.0 %
Test CRC 632F8CAB
Copy CRC 632F8CAB
Accurately ripped (confidence 9) [A4C9D7DD] (AR v2)
Copy OK

Track 3

Filename I:\EACrips\Thompson Twins - Greatest Hits (1996) [FLAC]\03 - We Are Detective.wav

Pre-gap length 0:00:01.56

Peak level 91.2 %
Extraction speed 3.2 X
Track quality 100.0 %
Test CRC 67D218E8
Copy CRC 67D218E8
Accurately ripped (confidence 9) [71811562] (AR v2)
Copy OK

Track 4

Filename I:\EACrips\Thompson Twins - Greatest Hits (1996) [FLAC]\04 - If You Were Here.wav

Pre-gap length 0:00:01.57

Peak level 95.5 %
Extraction speed 3.4 X
Track quality 100.0 %
Test CRC EF80EEA2
Copy CRC EF80EEA2
Accurately ripped (confidence 9) [E1D39A89] (AR v2)
Copy OK

Track 5

Filename I:\EACrips\Thompson Twins - Greatest Hits (1996) [FLAC]\05 - Love On Your Side.wav

Pre-gap length 0:00:01.53

Peak level 95.5 %
Extraction speed 3.4 X
Track quality 100.0 %
Test CRC 762E865C
Copy CRC 762E865C
Accurately ripped (confidence 9) [09F6AF24] (AR v2)
Copy OK

Track 6

Filename I:\EACrips\Thompson Twins - Greatest Hits (1996) [FLAC]\06 - Hold Me Now.wav

Pre-gap length 0:00:01.57

Peak level 95.5 %
Extraction speed 3.2 X
Track quality 99.9 %
Test CRC 3AC9480D
Copy CRC 3AC9480D
Accurately ripped (confidence 9) [5E1BF754] (AR v2)
Copy OK

Track 7

Filename I:\EACrips\Thompson Twins - Greatest Hits (1996) [FLAC]\07 - Doctor! Doctor!.wav

Pre-gap length 0:00:01.57

Peak level 95.5 %
Extraction speed 3.0 X
Track quality 100.0 %
Test CRC EDE6D529
Copy CRC EDE6D529
Accurately ripped (confidence 9) [8FC31A2B] (AR v2)
Copy OK

Track 8

Filename I:\EACrips\Thompson Twins - Greatest Hits (1996) [FLAC]\08 - You Take Me Up.wav

Pre-gap length 0:00:01.57

Peak level 95.5 %
Extraction speed 2.7 X
Track quality 99.9 %
Test CRC ACD297DD
Copy CRC ACD297DD
Accurately ripped (confidence 9) [4D6FEDE1] (AR v2)
Copy OK

Track 9

Filename I:\EACrips\Thompson Twins - Greatest Hits (1996) [FLAC]\09 - The Gap.wav

Pre-gap length 0:00:01.57

Peak level 95.5 %
Extraction speed 3.2 X
Track quality 100.0 %
Test CRC 815B0B44
Copy CRC 815B0B44
Accurately ripped (confidence 9) [3702057E] (AR v2)
Copy OK

Track 10

Filename I:\EACrips\Thompson Twins - Greatest Hits (1996) [FLAC]\10 - Sister Of Mercy.wav

Pre-gap length 0:00:01.56

Peak level 95.5 %
Extraction speed 2.9 X
Track quality 100.0 %
Test CRC 9EEE0E7A
Copy CRC 9EEE0E7A
Accurately ripped (confidence 9) [C795A427] (AR v2)
Copy OK

Track 11

Filename I:\EACrips\Thompson Twins - Greatest Hits (1996) [FLAC]\11 - Don't Mess With Doctor Dream.wav

Pre-gap length 0:00:01.57

Peak level 95.5 %
Extraction speed 2.9 X
Track quality 100.0 %
Test CRC 5944B63D
Copy CRC 5944B63D
Accurately ripped (confidence 9) [8A41F601] (AR v2)
Copy OK

Track 12

Filename I:\EACrips\Thompson Twins - Greatest Hits (1996) [FLAC]\12 - Lay Your Hands On Me.wav

Peak level 95.5 %
Extraction speed 3.6 X
Track quality 100.0 %
Test CRC 166EDE7C
Copy CRC 166EDE7C
Accurately ripped (confidence 9) [EC483BE9] (AR v2)
Copy OK

Track 13

Filename I:\EACrips\Thompson Twins - Greatest Hits (1996) [FLAC]\13 - King For A Day.wav

Pre-gap length 0:00:01.60

Peak level 95.5 %
Extraction speed 3.6 X
Track quality 100.0 %
Test CRC BE74C727
Copy CRC BE74C727
Accurately ripped (confidence 9) [856868C0] (AR v2)
Copy OK

Track 14

Filename I:\EACrips\Thompson Twins - Greatest Hits (1996) [FLAC]\14 - Nothing In Common.wav

Pre-gap length 0:00:01.53

Peak level 95.5 %
Extraction speed 3.0 X
Track quality 99.9 %
Test CRC B54CCB46
Copy CRC B54CCB46
Accurately ripped (confidence 9) [C5811D58] (AR v2)
Copy OK

Track 15

Filename I:\EACrips\Thompson Twins - Greatest Hits (1996) [FLAC]\15 - Get That Love.wav

Pre-gap length 0:00:01.57

Peak level 95.5 %
Extraction speed 3.4 X
Track quality 100.0 %
Test CRC FD0540F7
Copy CRC FD0540F7
Accurately ripped (confidence 9) [CBD9DA65] (AR v2)
Copy OK

Track 16

Filename I:\EACrips\Thompson Twins - Greatest Hits (1996) [FLAC]\16 - Long Goodbye.wav

Pre-gap length 0:00:01.56

Peak level 95.5 %
Extraction speed 2.9 X
Track quality 100.0 %
Test CRC 71334873
Copy CRC 71334873
Accurately ripped (confidence 9) [3E48DA29] (AR v2)
Copy OK


All tracks accurately ripped

No errors occurred

End of status report

–– CUETools DB Plugin V2.1.3

[CTDB TOCID: Tzrs4nX1ZhDWDh5zG70yl9NaGPo-] found, Submit result: Tzrs4nX1ZhDWDh5zG70yl9NaGPo- has been confirmed
[0462bf07] (4/4) Accurately ripped


==== Log checksum ED7A81595ED5A2F048617E3AB74866943B9047A0EFA7B6BB4FCE3403DA0C31EF ====

foobar2000 1.3.16 / Dynamic Range Meter 1.1.1
log date: 2018-06-18 18:07:16

––––––––––––––––––––––––––––––––––––––––
Analyzed: Thompson Twins / Greatest Hits
––––––––––––––––––––––––––––––––––––––––

DR Peak RMS Duration Track
––––––––––––––––––––––––––––––––––––––––
DR11 -0.40 dB -13.57 dB 3:55 01-In The Name Of Love
DR11 -0.40 dB -13.38 dB 3:13 02-Lies
DR12 -0.79 dB -14.78 dB 3:07 03-We Are Detective
DR11 -0.40 dB -14.23 dB 2:58 04-If You Were Here
DR11 -0.40 dB -13.02 dB 4:01 05-Love On Your Side
DR10 -0.40 dB -13.63 dB 4:47 06-Hold Me Now
DR10 -0.40 dB -12.90 dB 4:39 07-Doctor! Doctor!
DR11 -0.40 dB -13.16 dB 4:27 08-You Take Me Up
DR12 -0.40 dB -14.15 dB 4:45 09-The Gap
DR12 -0.40 dB -15.19 dB 5:09 10-Sister Of Mercy
DR12 -0.40 dB -14.28 dB 4:41 11-Don't Mess With Doctor Dream
DR12 -0.40 dB -13.88 dB 4:06 12-Lay Your Hands On Me
DR11 -0.40 dB -13.69 dB 5:22 13-King For A Day
DR11 -0.40 dB -12.89 dB 3:31 14-Nothing In Common
DR11 -0.40 dB -13.71 dB 3:56 15-Get That Love
DR12 -0.40 dB -14.68 dB 4:32 16-Long Goodbye
––––––––––––––––––––––––––––––––––––––––

Number of tracks: 16
Official DR value: DR11

Samplerate: 44100 Hz
Channels: 2
Bits per sample: 16
Bitrate: 856 kbps
Codec: FLAC
================================================================================

[CUETools log; Date: 18.06.2018 18:06:03; Version: 2.1.6]
[CTDB TOCID: Tzrs4nX1ZhDWDh5zG70yl9NaGPo-] found.
Track | CTDB Status
1 | (144/144) Accurately ripped
2 | (144/144) Accurately ripped
3 | (144/144) Accurately ripped
4 | (144/144) Accurately ripped
5 | (144/144) Accurately ripped
6 | (144/144) Accurately ripped
7 | (141/144) Accurately ripped
8 | (143/144) Accurately ripped
9 | (142/144) Accurately ripped
10 | (144/144) Accurately ripped
11 | (144/144) Accurately ripped
12 | (143/144) Accurately ripped
13 | (141/144) Accurately ripped
14 | (143/144) Accurately ripped
15 | (144/144) Accurately ripped
16 | (144/144) Accurately ripped
[AccurateRip ID: 00259c0f-01cb6d69-d40fbd10] found.
Track [ CRC | V2 ] Status
01 [bd21b518|e4928bc9] (047+056/162) Accurately ripped
02 [793496e3|a4c9d7dd] (048+056/164) Accurately ripped
03 [600b81a5|71811562] (048+056/161) Accurately ripped
04 [79c3561b|e1d39a89] (049+056/163) Accurately ripped
05 [44f10616|09f6af24] (048+056/163) Accurately ripped
06 [a29ce9a2|5e1bf754] (049+056/165) Accurately ripped
07 [57dd4c99|8fc31a2b] (049+056/164) Accurately ripped
08 [56e05e83|4d6fede1] (048+056/162) Accurately ripped
09 [ba39ab7f|3702057e] (048+056/162) Accurately ripped
10 [a8c5c617|c795a427] (048+056/162) Accurately ripped
11 [f5e8565c|8a41f601] (049+056/163) Accurately ripped
12 [45fcf858|ec483be9] (048+056/163) Accurately ripped
13 [35d71672|856868c0] (048+056/164) Accurately ripped
14 [e9a3b6c6|c5811d58] (048+056/160) Accurately ripped
15 [c5b71b86|cbd9da65] (048+056/161) Accurately ripped
16 [df6c4ab2|3e48da29] (047+055/159) Accurately ripped
Offsetted by -397:
01 [b99b4978] (015/162) Accurately ripped
02 [b6fe3849] (015/164) Accurately ripped
03 [782160be] (014/161) Accurately ripped
04 [96ff85c6] (014/163) Accurately ripped
05 [f862eb37] (015/163) Accurately ripped
06 [acf5b3fc] (015/165) Accurately ripped
07 [360b63eb] (015/164) Accurately ripped
08 [5edafbc5] (015/162) Accurately ripped
09 [dc0b554b] (014/162) Accurately ripped
10 [ec3fe835] (015/162) Accurately ripped
11 [409b4b21] (015/163) Accurately ripped
12 [8bf8c783] (015/163) Accurately ripped
13 [a3a5ee41] (015/164) Accurately ripped
14 [931ec1a5] (014/160) Accurately ripped
15 [39a39f02] (014/161) Accurately ripped
16 [18283887] (014/159) Accurately ripped
Offsetted by 249:
01 [937e6638] (000/162) No match (V2 was not tested)
02 [0a3af655] (000/164) No match (V2 was not tested)
03 [2b89b7d0] (000/161) No match (V2 was not tested)
04 [d845e3bc] (000/163) No match (V2 was not tested)
05 [4ee96d59] (000/163) No match (V2 was not tested)
06 [68895570] (000/165) No match (V2 was not tested)
07 [1f0d204f] (000/164) No match (V2 was not tested)
08 [bd8f4609] (000/162) No match (V2 was not tested)
09 [e8b8bf63] (000/162) No match (V2 was not tested)
10 [dbf3b0b1] (000/162) No match (V2 was not tested)
11 [2c4644c6] (000/163) No match (V2 was not tested)
12 [bd1d7cce] (000/163) No match (V2 was not tested)
13 [937787ff] (000/164) No match (V2 was not tested)
14 [87141f83] (000/160) No match (V2 was not tested)
15 [190ec67a] (000/161) No match (V2 was not tested)
16 [23a86591] (000/159) No match (V2 was not tested)

Track Peak [ CRC32 ] [W/O NULL] [ LOG ]
– 95,5 [948964CF] [56A95F6F]
01 95,5 [C3BB4350] [04336DE8] CRC32
02 95,5 [632F8CAB] [86ED0D09] CRC32
03 91,2 [67D218E8] [FA279192] CRC32
04 95,5 [EF80EEA2] [53E73BFB] CRC32
05 95,5 [762E865C] [8D1B8256] CRC32
06 95,5 [3AC9480D] [006D7569] CRC32
07 95,5 [EDE6D529] [6F6F2B9C] CRC32
08 95,5 [ACD297DD] [8EC65DEC] CRC32
09 95,5 [815B0B44] [F04687E4] CRC32
10 95,5 [9EEE0E7A] [45CADE24] CRC32
11 95,5 [5944B63D] [FF8A9F6F] CRC32
12 95,5 [166EDE7C] [101618FB] CRC32
13 95,5 [BE74C727] [9F010CB6] CRC32
14 95,5 [B54CCB46] [969E5F46] CRC32
15 95,5 [FD0540F7] [A04C7CD6] CRC32
16 95,5 [71334873] [A96DD3DB] CRC32

Thompson Twins - Greatest Hits (1996) {Remastered} Repost

All thanks go to the original ripper(s) …

>>> My Blog <<<

Download from icerbox.com: