Subcategories
Please register here if you want to download anything!

If domain in your address bar is different from the list below
PLEASE LEAVE THAT SITE IMMEDIATELY
❗IT'S A DANGEROUS FAKE❗



Spicy Magazines for Men! ;-)

Tikhon Khrennikov: Symphonies & Concertos (2013) 3CDs

Posted By: Designol
Tikhon Khrennikov: Symphonies & Concertos (2013) 3CDs

Tikhon Khrennikov: Symphonies & Concertos (2013) 3CDs
Vadim Repin (violin), Valentin Feigin (cello), Mikhail Khomitser (cello)
Tikhon Khrennikov (piano), Anatoly Sheludyakov (piano), ARCO Chamber Orchestra
USSR State Academic Symphony Orchestra; Evgeny Svetlanov, conductor
Moscow Radio Symphony Orchestra; Maxim Shostakovich, conductor
The Academic Symphony Orchestra of the Moscow Philharmonic Society, Dmitri Kitayenko

EAC | FLAC | Image (Cue&Log) ~ 1 Gb | Mp3 (CBR320) ~ 484 Mb | Scans ~ 18 Mb
Genre: Classical | Label: Melodiya | # MEL CD 1002086 | Time: 03:26:36

Firma Melodiya presents a complete set of orchestral music by one of the most influential domestic composers of the 20th century Tikhon Khrennikov. The musician headed the USSR Union of Composers for more than fifty years combining crucial organizational activities with a busy creative and educational work. His compositions were performed by some of the leading orchestras, music theatres and best-known performers of the Soviet Union. Then, due to social and political rather than artistic reasons, many of his works were consigned to oblivion. Today, when time puts everything into place, the best qualities of Tikhon Khrennikov's music return it to the concert bills and listeners' hearts. The composer's bright, Prokofiev-like sunny melodies, simplicity and clarity of the musical language, harmonic originality, and heartwarming and optimistic spirit, which were typical of his style since he was a young man, remained intact in his latter works as well. Khrennikov's prowess of symphonic drama and exquisite understanding of the concert genre and nature of each of the soloing instruments (piano, violin and cello) are needless to mention. The featured symphonic and concert works by Tikhon Khrennikov are performed by such outstanding conductors as Evgeni Svetlanov, Dmitri Kitayenko and Maxim Shostakovich, and soloists as Mstislav Rostropovich, Vadim Repin and others. The author who studied under Heinrich Neuhaus and graduated the Moscow Conservatory as both a pianist and as a composer performs solo in three piano concertos.

This is brilliant and penetrating music by a composer who deserves to be much better known. His music is lyrical and heart-felt and his melodies stay with you long after you've heard them, which is my benchmark for great music. What I really like about Khrennikov is that he never wastes your time and often he says much in the 15 minutes or so of his symphonies or concertos that others take over twice as long to say.

His melodies have a beautiful simplicity about them and yet are also very strong. My favourite piece in this collection is the Symphony No.3 in A major op.22, composed in 1973. At a time when the BBC in the UK had declared the music of fellow Romantic George Lloyd "irrelevant in the Modern Age", Khrennikov composed a symphony that was inspired in part by J.S.Bach in the furious fugal 1st movement, but then relaxes into a melody of heart-breaking beauty in the 2nd, followed by a crazy, almost slap-stick finale. All over in a little over 15 minutes. But memorable and beautiful.

The same can be said of the Violin Concerto No.2 in C major op.23, composed for Leonid Kogan in 1975 and the Cello Concerto No.1 in C major of 1964, composed for Rostropovich. Again, heart-felt, beautiful and graceful. It's no surprise that, like many Russian composers of previous generations, Khrennikov had a special "feel" for the lyrical lines of the Ballet. Check out "Love for Love" or "The Hussar Ballad", if you can find them.

Finally, in the latest work in the collection, the Piano Concerto No.4 op.37 of 1991, we see him almost inhabiting the world of Rautavaara. Khrennikov was evidently very interested in new ideas, but, like most Russians, these ideas have to be part of Nature and, as Leonard Bernstein once observed in his "Unanswered Question" lectures in 1973, "tonality" - music centred on a key-note was a phenomenon that was an integral part of Nature Herself. Khrennikov and his fellow Russians understand this instinctively. Khrennikov's music goes from his heart to yours, like Rachmaninov before him.

Listen to and "feel" the music - it's great stuff - and make up your own mind…

Review by Ballerina, Amazon.co.uk

The music of Tikhon Khrennikov is pure delight. He was a great composer of 20th Century. I frankly was a little bit surprised by such exciting experience. Knowing this composer as a popular songwriter I wasn't familiar with his classical music. I only remember that his opera "Mother" (after the Gorky's novel) was a flop. Moreover, he was the head of Association of Russian Composers and it made me think of him more like of a bureaucrat than a composer. I sinfully assumed that his classical music was probably too official, too conservative and most likely dull. Then in one of my phone conversations with my brother who lives in Moscow and who is also a passionate music / opera / ballet lover (like myself) he mentioned Tikhon Khrennikov and said that the composer is now a talk of the town but in different key.

(It's no secret that after 1991 Russian Media gone just as crazy as Bolsheviks after 1917. The latter denounces everything that was before Socialism, and the former – everything that was during. There were very few cool heads who evaluated the talents regardless their political views and associations. And thus Tikhon Khrennikov was viciously attacked by some bigots of new wave).

Well, as my brother told me lately both lines of extremism lost public appeal in Russia. Now public opinion is re-evaluating the victims of both pro-Socialism and anti-Socialism propaganda trying to clear the great names from ANY propaganda leaving only their pure artistic talents. Many music professionals are now voicing their opinion that Tikhon Khrennikov was a remarkably talented composer. Moreover, many also remember him as a marvelous personality. So, all this story made me to hurry on the Amazon site and buy this 3 CD set of his classical music to make my own opinion.

Well, as I said in the beginning I was up for a nice surprise: his music was anything but conservative or dull! Sometimes it was bright and sparkling, sometimes graciously subtle, sometimes playful and even flirtatious, and always colorful, always invigorating, always breaking into exploration of different ways to be a MUSIC.

The sound of the recordings is another surprise: so many times Russian engineers were criticized for being behind the most advanced sound recording technology. Well, it is apparent now that they caught up with the best recording studios of Europe and America – I didn't find any flaws in recordings, the sound is absolutely perfect, although some recordings were made decades ago.

Review by Natalia A., Amazon.com

Tikhon Khrennikov: Symphonies & Concertos (2013) 3CDs



Tracklist:

CD1: (1:13:26)

Symphony No.1 in B flat minor op.4
01. I. Allegro (6:11)
02. II. Adagio. Molto espressivo (7:21)
03. III. Allegro molto (8:27)

Symphony No.2 in C minor op.9
04. I. Allegro con fuoco (10:08)
05. II. Adagio (9:49)
06. III. Allegro molto (5:20)
07. IV. Allegro marciale (9:14)

Symphony No.3 in A major op.22
08. I. Fugue. Allegro con fuoco (3:36)
09. II. Intermezzo. Andante sostenuto (7:10)
10. III. Finale. Allegro con fuoco (6:09)

USSR State Academic Symphony Orchestra
Evgeny Svetlanov - conductor



CD2: (1:07:26)

Concerto No.1 for Violin and Orchestra in C major op.14
01. I. Allegro con fuoco (8:57)
02. II. Andante espressivo (6:09)
03. III. Allegro agitato (5:23)

Concerto No.2 for Violin and Orchestra in C major op.23
04. I. Allegro con fuoco (3:27)
05. II. Moderato (7:48)
06. III. Allegro moderato con fuoco (5:54)

Concerto No.1 for Cello and Orchestra op.16
07. I. Prelude. Andante (alla breve) (3:14)
08. II. Aria. Andante espressivo (5:31)
09. III. Sonata. Allegro con fuoco (6:49)

Concerto No.2 for Cello and Orchestra op.30
10. I. Adagio (6:23)
11. II. Con moto (7:49)

Vadim Repin - violin (1-6)
Valentin Feigin - cello (7-9)
Mikhail Khomister - cello (10-11)
USSR State Academic Symphony Orchestra (1-6, 10-11)
Evgeny Svetlanov - conductor
Moscow Radio Symphony Orchestra (7-9)
Maxim Shostakovich - conductor



CD3: (1:08:44)

Piano Concerto No.1 in F major op.1
01. I. Allegro (4:03)
02. II. Andante (4:23)
03. III. Allegro (5:30)
04. IV. Andante - Molto allegro (7:50)

Piano Concerto No.2 in C major op.21
05. I. Introduction. Moderato (3:38)
06. II. Sonata. Allegro con fuoco (5:53)
07. III. Rondo. Giocoso - Andantino (6:40)

Piano Concerto No.3 in C major op.28
08. I. Moderato - Allegro (8:31)
09. II. Moderato (5:18)
10. III. Allegro molto (6:05)

Concerto No.4 for Piano with string orchestra and percursionin C major op.37
11. I. Moderato - Allegro (6:42)
12. II. Moderato giocoso (4:10)

Tikhon Khrennikov - piano (1-10)
Anatoly Sheludyakov - piano (11-12)
USSR State Academic Symphony Orchestra (1-7)
Evgeny Svetlanov - conductor
Academic Symphony Orchestra of the Moscow Philharmonic Society (8-10)
Dmitri Kitayenko - conductor
ARCO Chamber Orchestra (11-12)
Levon Ambartsumian - conductor




Exact Audio Copy V1.0 beta 3 from 29. August 2011

EAC extraction logfile from 13. December 2013, 11:33

Evgeny Svetlanov / Khrennikov - Symphonies, Concertos - VA (Disc 1)

Used drive : TSSTcorpCDDVDW SH-222BB Adapter: 2 ID: 1

Read mode : Secure
Utilize accurate stream : Yes
Defeat audio cache : Yes
Make use of C2 pointers : No

Read offset correction : 6
Overread into Lead-In and Lead-Out : No
Fill up missing offset samples with silence : Yes
Delete leading and trailing silent blocks : No
Null samples used in CRC calculations : Yes
Used interface : Native Win32 interface for Win NT & 2000

Used output format : User Defined Encoder
Selected bitrate : 1024 kBit/s
Quality : High
Add ID3 tag : No
Command line compressor : C:\Program Files\Exact Audio Copy\Flac\flac.exe
Additional command line options : -8 -V -T "TITLE=%title%" -T "ARTIST=%artist%" -T "ALBUMARTIST=%albumartist%" -T "ALBUM=%albumtitle%" -T "DATE=%year%" -T "TRACKNUMBER=%tracknr%" -T "TRACKTOTAL=%numtracks%" -T "GENRE=%genre%" -T "COMMENT=%comment%" -T "PERFORMER=%albuminterpret%" -T "COMPOSER=%composer%" %source% -o %dest%


TOC of the extracted CD

Track | Start | Length | Start sector | End sector
––––––––––––––––––––––––––––-
1 | 0:00.00 | 6:10.71 | 0 | 27820
2 | 6:10.71 | 7:21.04 | 27821 | 60899
3 | 13:32.00 | 8:27.00 | 60900 | 98924
4 | 21:59.00 | 10:08.24 | 98925 | 144548
5 | 32:07.24 | 9:49.31 | 144549 | 188754
6 | 41:56.55 | 5:20.12 | 188755 | 212766
7 | 47:16.67 | 9:13.68 | 212767 | 254309
8 | 56:30.60 | 3:36.13 | 254310 | 270522
9 | 60:06.73 | 7:10.20 | 270523 | 302792
10 | 67:17.18 | 6:09.15 | 302793 | 330482


Range status and errors

Selected range

Filename G:\Ripped general\[8282] Khrennikov – Symphonies, Concertos – VA\cd1\Khrennikov - Symphonies, Concertos - VA (Disc 1).wav

Peak level 82.1 %
Extraction speed 7.6 X
Range quality 100.0 %
Test CRC 9D4125C9
Copy CRC 9D4125C9
Copy OK

No errors occurred


AccurateRip summary

Track 1 not present in database
Track 2 not present in database
Track 3 not present in database
Track 4 not present in database
Track 5 not present in database
Track 6 not present in database
Track 7 not present in database
Track 8 not present in database
Track 9 not present in database
Track 10 not present in database

None of the tracks are present in the AccurateRip database

End of status report

[CUETools log; Date: 18.10.2017 19:58:00; Version: 2.1.4]
[CTDB TOCID: lsO6XRqNf7IGjxw9GU5mRQSS0JY-] found.
Track | CTDB Status
1 | (1/1) Accurately ripped
2 | (1/1) Accurately ripped
3 | (1/1) Accurately ripped
4 | (1/1) Accurately ripped
5 | (1/1) Accurately ripped
6 | (1/1) Accurately ripped
7 | (1/1) Accurately ripped
8 | (1/1) Accurately ripped
9 | (1/1) Accurately ripped
10 | (1/1) Accurately ripped
[AccurateRip ID: 001cddf2-00e693cd-8e11360a] found.
Track [ CRC | V2 ] Status
01 [df68f069|9d755eb5] (0+1/1) Accurately ripped
02 [bb3e0114|4c7c8ed5] (0+1/1) Accurately ripped
03 [6116847e|4985eb7c] (0+1/1) Accurately ripped
04 [517c13ff|dd126b8f] (0+1/1) Accurately ripped
05 [635fca64|b75757d5] (0+1/1) Accurately ripped
06 [91a2a021|7c5e7ca8] (0+1/1) Accurately ripped
07 [040cd2b3|dc4039c0] (0+1/1) Accurately ripped
08 [3ce92d27|55c3c913] (0+1/1) Accurately ripped
09 [47a6f28f|cb8feb23] (0+1/1) Accurately ripped
10 [db6bbf42|2ef147e7] (0+1/1) Accurately ripped

Track Peak [ CRC32 ] [W/O NULL] [ LOG ]
– 82,1 [9D4125C9] [0BC8A672] CRC32
01 78,8 [DC6318B3] [C4405B18]
02 70,9 [C2200067] [6134C0C0]
03 77,7 [6A8BF5F9] [ADC8F65D]
04 75,5 [86E6E61E] [682540C4]
05 79,4 [352D72EC] [6B96F294]
06 74,8 [AFB3F054] [464C98E6]
07 82,1 [3F3C197A] [7F9E8BD8]
08 70,8 [A0B9617B] [90BE55B3]
09 78,4 [EC108E97] [4D3F2D05]
10 71,1 [1DAA17E8] [1B2642DC]

foobar2000 1.2 / Dynamic Range Meter 1.1.1
log date: 2017-10-18 20:12:30

––––––––––––––––––––––––––––––––––––––––
Analyzed: Evgeny Svetlanov / Khrennikov - Symphonies, Concertos - VA (Disc 1)
––––––––––––––––––––––––––––––––––––––––

DR Peak RMS Duration Track
––––––––––––––––––––––––––––––––––––––––
DR13 -2.06 dB -21.67 dB 6:11 01-Symphony No.1 in B flat minor op.4 - I. Allegro
DR11 -2.98 dB -19.53 dB 7:21 02-Symphony No.1 in B flat minor op.4 - II. Adagio. Molto espressivo
DR10 -2.18 dB -16.73 dB 8:27 03-Symphony No.1 in B flat minor op.4 - III. Allegro molto
DR11 -2.44 dB -17.68 dB 10:08 04-Symphony No.2 in C minor op.9 - I. Allegro con fuoco
DR12 -2.00 dB -18.96 dB 9:49 05-Symphony No.2 in C minor op.9 - II. Adagio
DR12 -2.52 dB -18.41 dB 5:20 06-Symphony No.2 in C minor op.9 - III. Allegro molto
DR12 -1.71 dB -18.03 dB 9:14 07-Symphony No.2 in C minor op.9 - IV. Allegro marciale
DR11 -2.99 dB -17.30 dB 3:36 08-Symphony No.3 in A major op.22 - I. Fugue. Allegro con fuoco
DR12 -2.11 dB -20.64 dB 7:10 09-Symphony No.3 in A major op.22 - II. Intermezzo. Andante sostenuto
DR11 -2.96 dB -17.74 dB 6:09 10-Symphony No.3 in A major op.22 - III. Finale. Allegro con fuoco
––––––––––––––––––––––––––––––––––––––––

Number of tracks: 10
Official DR value: DR11

Samplerate: 44100 Hz
Channels: 2
Bits per sample: 16
Bitrate: 709 kbps
Codec: FLAC
================================================================================




Exact Audio Copy V1.0 beta 3 from 29. August 2011

EAC extraction logfile from 13. December 2013, 12:00

Various Artists / Khrennikov - Symphonies, Concertos - VA (Disc 2)

Used drive : TSSTcorpCDDVDW SH-222BB Adapter: 2 ID: 1

Read mode : Secure
Utilize accurate stream : Yes
Defeat audio cache : Yes
Make use of C2 pointers : No

Read offset correction : 6
Overread into Lead-In and Lead-Out : No
Fill up missing offset samples with silence : Yes
Delete leading and trailing silent blocks : No
Null samples used in CRC calculations : Yes
Used interface : Native Win32 interface for Win NT & 2000

Used output format : User Defined Encoder
Selected bitrate : 1024 kBit/s
Quality : High
Add ID3 tag : No
Command line compressor : C:\Program Files\Exact Audio Copy\Flac\flac.exe
Additional command line options : -8 -V -T "TITLE=%title%" -T "ARTIST=%artist%" -T "ALBUMARTIST=%albumartist%" -T "ALBUM=%albumtitle%" -T "DATE=%year%" -T "TRACKNUMBER=%tracknr%" -T "TRACKTOTAL=%numtracks%" -T "GENRE=%genre%" -T "COMMENT=%comment%" -T "PERFORMER=%albuminterpret%" -T "COMPOSER=%composer%" %source% -o %dest%


TOC of the extracted CD

Track | Start | Length | Start sector | End sector
––––––––––––––––––––––––––––-
1 | 0:00.00 | 8:57.34 | 0 | 40308
2 | 8:57.34 | 6:09.28 | 40309 | 68011
3 | 15:06.62 | 5:22.58 | 68012 | 92219
4 | 20:29.45 | 3:27.34 | 92220 | 107778
5 | 23:57.04 | 7:47.56 | 107779 | 142859
6 | 31:44.60 | 5:54.11 | 142860 | 169420
7 | 37:38.71 | 3:13.74 | 169421 | 183969
8 | 40:52.70 | 5:31.37 | 183970 | 208831
9 | 46:24.32 | 6:49.24 | 208832 | 239530
10 | 53:13.56 | 6:22.70 | 239531 | 268250
11 | 59:36.51 | 7:49.05 | 268251 | 303430


Range status and errors

Selected range

Filename G:\Ripped general\[8282] Khrennikov – Symphonies, Concertos – VA\cd2\Khrennikov - Symphonies, Concertos - VA (Disc 2).wav

Peak level 100.0 %
Extraction speed 6.0 X
Range quality 99.9 %
Test CRC 9B7E5B30
Copy CRC 9B7E5B30
Copy OK

No errors occurred


AccurateRip summary

Track 1 not present in database
Track 2 not present in database
Track 3 not present in database
Track 4 not present in database
Track 5 not present in database
Track 6 not present in database
Track 7 not present in database
Track 8 not present in database
Track 9 not present in database
Track 10 not present in database
Track 11 not present in database

None of the tracks are present in the AccurateRip database

End of status report

[CUETools log; Date: 18.10.2017 19:58:17; Version: 2.1.4]
[CTDB TOCID: B83DqeNYJKzVeXOuG50TPKJpY5Q-] found.
Track | CTDB Status
1 | (1/1) Accurately ripped
2 | (1/1) Accurately ripped
3 | (1/1) Accurately ripped
4 | (1/1) Accurately ripped
5 | (1/1) Accurately ripped
6 | (1/1) Accurately ripped
7 | (1/1) Accurately ripped
8 | (1/1) Accurately ripped
9 | (1/1) Accurately ripped
10 | (1/1) Accurately ripped
11 | (1/1) Accurately ripped
[AccurateRip ID: 001bd768-00eda40c-a50fcd0b] found.
Track [ CRC | V2 ] Status
01 [211d39c7|5c66d9b2] (0+1/1) Accurately ripped
02 [803e1611|a79329a1] (0+1/1) Accurately ripped
03 [6fa23da4|b5e659e7] (0+1/1) Accurately ripped
04 [f0c85717|e21172e2] (0+1/1) Accurately ripped
05 [07111c04|d76670ae] (0+1/1) Accurately ripped
06 [00f0b019|78ed278e] (0+1/1) Accurately ripped
07 [c17b2b62|2e802cab] (0+1/1) Accurately ripped
08 [138440db|3f5612f3] (0+1/1) Accurately ripped
09 [7415eba4|4196122c] (0+1/1) Accurately ripped
10 [c676fe63|ee25c94a] (0+1/1) Accurately ripped
11 [35941714|aa9be01f] (0+1/1) Accurately ripped

Track Peak [ CRC32 ] [W/O NULL] [ LOG ]
– 100,0 [9B7E5B30] [C7757A3E] CRC32
01 99,9 [4F8F8A46] [4082FBC3]
02 63,2 [0B1AB4AF] [6611E033]
03 100,0 [B401BCA4] [013029A0]
04 76,1 [AD9F346A] [E40FC31F]
05 90,4 [9ACC1E69] [44CE68DE]
06 97,7 [629BE157] [33B61624]
07 46,8 [E8E47660] [3B1A217A]
08 52,6 [8AE9E800] [4FAC3D83]
09 55,0 [F9D13C6E] [C0F26E7C]
10 78,1 [302B9173] [4C87680B]
11 97,7 [94D7A903] [04C59034]

foobar2000 1.2 / Dynamic Range Meter 1.1.1
log date: 2017-10-18 20:12:38

––––––––––––––––––––––––––––––––––––––––
Analyzed: Mikhail Khomitser / Khrennikov - Symphonies, Concertos - VA (Disc 2)
––––––––––––––––––––––––––––––––––––––––

DR Peak RMS Duration Track
––––––––––––––––––––––––––––––––––––––––
DR15 -2.15 dB -24.87 dB 6:23 10-Concerto No.2 for Cello and Orchestra op.30 - I. Adagio
DR16 -0.20 dB -21.02 dB 7:49 11-Concerto No.2 for Cello and Orchestra op.30 - II. Con moto
––––––––––––––––––––––––––––––––––––––––

Number of tracks: 2
Official DR value: DR16

Samplerate: 44100 Hz
Channels: 2
Bits per sample: 16
Bitrate: 657 kbps
Codec: FLAC
================================================================================

––––––––––––––––––––––––––––––––––––––––
Analyzed: Vadim Repin / Khrennikov - Symphonies, Concertos - VA (Disc 2) (1-6)
Valentin Feigin / Khrennikov - Symphonies, Concertos - VA (Disc 2) (7-9)
––––––––––––––––––––––––––––––––––––––––

DR Peak RMS Duration Track
––––––––––––––––––––––––––––––––––––––––
DR14 0.00 dB -20.75 dB 8:57 01-Concerto No.1 for Violin and Orchestra in C major op.14 - I. Allegro con fuoco
DR14 -3.97 dB -23.65 dB 6:09 02-Concerto No.1 for Violin and Orchestra in C major op.14 - II. Andante espressivo
DR14 0.00 dB -19.63 dB 5:23 03-Concerto No.1 for Violin and Orchestra in C major op.14 - III. Allegro agitato
DR14 -2.36 dB -21.64 dB 3:27 04-Concerto No.2 for Violin and Orchestra in C major op.23 - I. Allegro con fuoco
DR14 -0.87 dB -21.38 dB 7:48 05-Concerto No.2 for Violin and Orchestra in C major op.23 - II. Moderato
DR15 -0.20 dB -19.64 dB 5:54 06-Concerto No.2 for Violin and Orchestra in C major op.23 - III. Allegro modera…
DR11 -6.59 dB -21.85 dB 3:14 07-Concerto No.1 for Cello and Orchestra op.16 - I. Prelude. Andante (alla breve)
DR12 -5.56 dB -21.18 dB 5:31 08-Concerto No.1 for Cello and Orchestra op.16 - II. Aria. Andante espressivo
DR11 -5.18 dB -19.57 dB 6:49 09-Concerto No.1 for Cello and Orchestra op.16 - III. Sonata. Allegro con fuoco
––––––––––––––––––––––––––––––––––––––––

Number of tracks: 9
Official DR value: DR13

Samplerate: 44100 Hz
Channels: 2
Bits per sample: 16
Bitrate: 657 kbps
Codec: FLAC
================================================================================



Exact Audio Copy V1.0 beta 3 from 29. August 2011

EAC extraction logfile from 13. December 2013, 12:27

Various Artists / Khrennikov - Symphonies, Concertos - VA (Disc 3)

Used drive : TSSTcorpCDDVDW SH-222BB Adapter: 2 ID: 1

Read mode : Secure
Utilize accurate stream : Yes
Defeat audio cache : Yes
Make use of C2 pointers : No

Read offset correction : 6
Overread into Lead-In and Lead-Out : No
Fill up missing offset samples with silence : Yes
Delete leading and trailing silent blocks : No
Null samples used in CRC calculations : Yes
Used interface : Native Win32 interface for Win NT & 2000

Used output format : User Defined Encoder
Selected bitrate : 1024 kBit/s
Quality : High
Add ID3 tag : No
Command line compressor : C:\Program Files\Exact Audio Copy\Flac\flac.exe
Additional command line options : -8 -V -T "TITLE=%title%" -T "ARTIST=%artist%" -T "ALBUMARTIST=%albumartist%" -T "ALBUM=%albumtitle%" -T "DATE=%year%" -T "TRACKNUMBER=%tracknr%" -T "TRACKTOTAL=%numtracks%" -T "GENRE=%genre%" -T "COMMENT=%comment%" -T "PERFORMER=%albuminterpret%" -T "COMPOSER=%composer%" %source% -o %dest%


TOC of the extracted CD

Track | Start | Length | Start sector | End sector
––––––––––––––––––––––––––––-
1 | 0:00.00 | 4:03.09 | 0 | 18233
2 | 4:03.09 | 4:23.12 | 18234 | 37970
3 | 8:26.21 | 5:30.34 | 37971 | 62754
4 | 13:56.55 | 7:49.46 | 62755 | 97975
5 | 21:46.26 | 3:38.21 | 97976 | 114346
6 | 25:24.47 | 5:52.55 | 114347 | 140801
7 | 31:17.27 | 6:39.59 | 140802 | 170785
8 | 37:57.11 | 8:31.10 | 170786 | 209120
9 | 46:28.21 | 5:18.32 | 209121 | 233002
10 | 51:46.53 | 6:05.34 | 233003 | 260411
11 | 57:52.12 | 6:41.49 | 260412 | 290535
12 | 64:33.61 | 4:09.58 | 290536 | 309268


Range status and errors

Selected range

Filename G:\Ripped general\[8282] Khrennikov – Symphonies, Concertos – VA\cd3\Khrennikov - Symphonies, Concertos - VA (Disc 3).wav

Peak level 87.3 %
Extraction speed 5.8 X
Range quality 100.0 %
Test CRC D6818057
Copy CRC D6818057
Copy OK

No errors occurred


AccurateRip summary

Track 1 not present in database
Track 2 not present in database
Track 3 not present in database
Track 4 not present in database
Track 5 not present in database
Track 6 not present in database
Track 7 not present in database
Track 8 not present in database
Track 9 not present in database
Track 10 not present in database
Track 11 not present in database
Track 12 not present in database

None of the tracks are present in the AccurateRip database

End of status report

[CUETools log; Date: 18.10.2017 19:58:34; Version: 2.1.4]
[CTDB TOCID: ObOEbwJ856QiyXZ0Fg064t6peDU-] found.
Track | CTDB Status
1 | (1/1) Accurately ripped
2 | (1/1) Accurately ripped
3 | (1/1) Accurately ripped
4 | (1/1) Accurately ripped
5 | (1/1) Accurately ripped
6 | (1/1) Accurately ripped
7 | (1/1) Accurately ripped
8 | (1/1) Accurately ripped
9 | (1/1) Accurately ripped
10 | (1/1) Accurately ripped
11 | (1/1) Accurately ripped
12 | (1/1) Accurately ripped
[AccurateRip ID: 001dae7c-011a7bce-bb101b0c] found.
Track [ CRC | V2 ] Status
01 [ce116979|c693bee8] (0+1/1) Accurately ripped
02 [22d6f4fe|b4b75e20] (0+1/1) Accurately ripped
03 [e54c3964|6d2a7537] (0+1/1) Accurately ripped
04 [fd9262a0|6623da97] (0+1/1) Accurately ripped
05 [b55a166c|db3f9c3a] (0+1/1) Accurately ripped
06 [408bb9d5|244adcb9] (0+1/1) Accurately ripped
07 [0f0ce920|df4d863e] (0+1/1) Accurately ripped
08 [109d70cd|4e74a07d] (0+1/1) Accurately ripped
09 [2f4d62f0|7d9f2151] (0+1/1) Accurately ripped
10 [73a65020|93d6226f] (0+1/1) Accurately ripped
11 [e419539d|fff6c6ad] (0+1/1) Accurately ripped
12 [c617982e|a5a24072] (0+1/1) Accurately ripped

Track Peak [ CRC32 ] [W/O NULL] [ LOG ]
– 87,3 [D6818057] [1E11E485] CRC32
01 61,5 [AA418EAD] [D8827BBB]
02 59,7 [6048BE1D] [57050CB8]
03 66,3 [A2C65D37] [4B9E8C42]
04 67,5 [67C77683] [2B5F19FC]
05 58,9 [32D4D1EF] [C1A3A682]
06 66,2 [5A01804B] [E11718E0]
07 62,4 [968BB95A] [3768C65B]
08 87,3 [F11E13AE] [90DA6AB0]
09 87,3 [3D815E8C] [79749643]
10 87,2 [3837BCAB] [FB803EC5]
11 84,3 [27D3915F] [57584605]
12 64,9 [52CBBA0D] [F695DEA4]

foobar2000 1.2 / Dynamic Range Meter 1.1.1
log date: 2017-10-18 20:13:34

––––––––––––––––––––––––––––––––––––––––
Analyzed: Anatoly Sheludyakov / Khrennikov - Symphonies, Concertos - VA (Disc 3)
––––––––––––––––––––––––––––––––––––––––

DR Peak RMS Duration Track
––––––––––––––––––––––––––––––––––––––––
DR14 -1.48 dB -19.45 dB 6:42 11-Concerto No.4 for Piano with string orchestra and percursionin C major op.37 …
DR13 -3.76 dB -18.39 dB 4:10 12-Concerto No.4 for Piano with string orchestra and percursionin C major op.37 …
––––––––––––––––––––––––––––––––––––––––

Number of tracks: 2
Official DR value: DR13

Samplerate: 44100 Hz
Channels: 2
Bits per sample: 16
Bitrate: 637 kbps
Codec: FLAC
================================================================================

––––––––––––––––––––––––––––––––––––––––
Analyzed: Tikhon Khrennikov / Khrennikov - Symphonies, Concertos - VA (Disc 3)
––––––––––––––––––––––––––––––––––––––––

DR Peak RMS Duration Track
––––––––––––––––––––––––––––––––––––––––
DR12 -4.21 dB -20.09 dB 4:03 01-Piano Concerto No.1 in F major op.1 - I. Allegro
DR11 -4.47 dB -21.09 dB 4:23 02-Piano Concerto No.1 in F major op.1 - II. Andante
DR12 -3.56 dB -20.35 dB 5:30 03-Piano Concerto No.1 in F major op.1 - III. Allegro
DR11 -3.41 dB -19.27 dB 7:50 04-Piano Concerto No.1 in F major op.1 - IV. Andante - Molto allegro
DR11 -4.59 dB -18.57 dB 3:38 05-Piano Concerto No.2 in C major op.21 - I. Introduction. Moderato
DR11 -3.58 dB -18.43 dB 5:53 06-Piano Concerto No.2 in C major op.21 - II. Sonata. Allegro con fuoco
DR11 -4.09 dB -18.27 dB 6:40 07-Piano Concerto No.2 in C major op.21 - III. Rondo. Giocoso - Andantino
DR13 -1.18 dB -18.68 dB 8:31 08-Piano Concerto No.3 in C major op.28 - I. Moderato - Allegro
DR13 -1.17 dB -20.55 dB 5:18 09-Piano Concerto No.3 in C major op.28 - II. Moderato
DR13 -1.19 dB -18.95 dB 6:05 10-Piano Concerto No.3 in C major op.28 - III. Allegro molto
––––––––––––––––––––––––––––––––––––––––

Number of tracks: 10
Official DR value: DR12

Samplerate: 44100 Hz
Channels: 2
Bits per sample: 16
Bitrate: 637 kbps
Codec: FLAC
================================================================================

Tikhon Khrennikov: Symphonies & Concertos (2013) 3CDs