Till Fellner, Orchestre Symphonique de Montreal, Kent Nagano - Beethoven: Piano Concertos 4 & 5 (2010) (Repost)

Posted By: tirexiss
Till Fellner, Orchestre Symphonique de Montreal, Kent Nagano - Beethoven: Piano Concertos 4 & 5 (2010) (Repost)

Till Fellner, Orchestre Symphonique de Montreal, Kent Nagano - Beethoven: Piano Concertos 4 & 5 (2010)
EAC | FLAC (image+.cue, log) | Covers Included | 72:40 | 266 MB
Genre: Classical | Label: ECM | Catalog: 001397502

As Austrian pianist Till Fellner has aged, his performance style has naturally matured. This CD of Beethoven's Fourth and Fifth piano concertos shows Fellner is still impetuous but more commanding, still virtuosic but less demonstrative, and still playful but less prankish and more thoughtful. His touch is generally light, as in the Fourth's airy closing Vivace, and often legato, as in the Fifth's lyrical central Adagio, but he displays plenty of power in the Fourth's dramatic Andante and the Fifth's mighty opening flourish. Fellner's control of the works' large forms is complete; he always knows where he's going and how he's going to get there, so the listener does, as well. Yet Fellner keeps it exciting; the transition from the Fifth's central Adagio to its closing Rondo is wonderfully stirring. Almost as interesting as Fellner's performance is Kent Nagano and Montréal Symphony Orchestra's performance of the so-called accompaniment, "so-called" because the accompaniment here is often as assertive as the soloist. This is entirely appropriate for Beethoven's music; in the Fourth's central Andante, the orchestra is an equal, and at times, dominant partner, and throughout the Fifth it competes with the soloist for dominance. Yet so characterful is the Montréal musicians' playing and so individualistic is Nagano's conducting that the competition is a friendly one, a contest of two heroes that can only be won when they strive together. Captured in smooth and creamy digital sound by ECM, this disc is well worth hearing by anyone who likes the works and wants to hear brilliant new recordings of them.

Till Fellner, Orchestre Symphonique de Montreal, Kent Nagano - Beethoven: Piano Concertos 4 & 5 (2010) (Repost)

Track List:

Piano Concerto No.4
1. Allegro moderato
2. Andante con moto
3. Rondo Vivace

Piano Concerto No.5
4. Allegro
5. Adagio un poco moto
6. Rondo. Allegro, ma non troppo

Performers:
Till Fellner, piano
Orchestre Symphonique de Montreal
Conductor: Kent Nagano

Exact Audio Copy V0.99 prebeta 5 from 4. May 2009

EAC extraction logfile from 4. October 2010, 22:08

OSM, Kent Nagano, Till Fellner / Beethoven: Piano Conc #4 & 5

Used drive : HL-DT-STDVDRAM GSA-4163B

Read mode : Secure
Utilize accurate stream : Yes
Defeat audio cache : Yes
Make use of C2 pointers : No

Read offset correction : 667
Overread into Lead-In and Lead-Out : No
Fill up missing offset samples with silence : Yes
Delete leading and trailing silent blocks : No
Null samples used in CRC calculations : Yes
Used interface : Native Win32 interface for Win NT & 2000

Used output format : Internal WAV Routines
Sample format : 44.100 Hz; 16 Bit; Stereo


TOC of the extracted CD

Track | Start | Length | Start sector | End sector
––––––––––––––––––––––––––––-
1 | 0:00.00 | 18:51.53 | 0 | 84877
2 | 18:51.53 | 4:53.43 | 84878 | 106895
3 | 23:45.21 | 10:23.34 | 106896 | 153654
4 | 34:08.55 | 20:32.51 | 153655 | 246105
5 | 54:41.31 | 7:23.41 | 246106 | 279371
6 | 62:04.72 | 10:35.24 | 279372 | 327020


Range status and errors

Selected range

Filename C:\UUU\OSM, Kent Nagano, Till Fellner - Beethoven Piano Conc #4 & 5.wav

Peak level 100.0 %
Range quality 100.0 %
Copy CRC 132170B4
Copy OK

No errors occurred


AccurateRip summary

Track 1 accurately ripped (confidence 10) [7F45A7ED]
Track 2 accurately ripped (confidence 10) [545047ED]
Track 3 accurately ripped (confidence 10) [99A1C2AC]
Track 4 accurately ripped (confidence 10) [18803C63]
Track 5 accurately ripped (confidence 10) [0841B0D0]
Track 6 accurately ripped (confidence 10) [8DE5FD68]

All tracks accurately ripped

End of status report

[CUETools log; Date: 09.07.2017 18:51:51; Version: 2.1.5]
[CTDB TOCID: 2Rg_0GgCvuh4WE0Foglx0CCQNag-] found.
Track | CTDB Status
1 | (26/27) Accurately ripped
2 | (26/27) Accurately ripped
3 | (26/27) Accurately ripped
4 | (25/27) Accurately ripped
5 | (27/27) Accurately ripped
6 | (25/27) Accurately ripped
[AccurateRip ID: 00124768-0060252e-41110806] found.
Track [ CRC | V2 ] Status
01 [7f45a7ed|b28776d3] (17+26/43) Accurately ripped
02 [545047ed|e09d9269] (17+26/43) Accurately ripped
03 [99a1c2ac|f8bc7256] (17+25/42) Accurately ripped
04 [18803c63|5ce64603] (16+25/41) Accurately ripped
05 [0841b0d0|c70699c7] (17+26/43) Accurately ripped
06 [8de5fd68|c2ec6111] (17+26/43) Accurately ripped

Track Peak [ CRC32 ] [W/O NULL] [ LOG ]
– 100,0 [132170B4] [8F2DBF85] CRC32
01 81,3 [BE0B37F2] [4D61FFC4]
02 42,3 [932EFF56] [E3A7BAA4]
03 86,8 [C58BAF59] [E76302A8]
04 100,0 [DA9295B3] [F82615E3]
05 44,2 [EACE4E9B] [688E56D6]
06 90,9 [EF136485] [65EE69D5]

Thanks to the Original ripper (unknown)!

Download: