Tags
Language
Tags

Tim Blake - Blake's New Jerusalem (1978) {2017, Remastered}

Posted By: popsakov
Tim Blake - Blake's New Jerusalem (1978) {2017, Remastered}

Tim Blake - Blake's New Jerusalem (1978) {2017, Remastered}
EAC Rip | FLAC (Img) + Cue + Log ~ 501 Mb | MP3 CBR320 ~ 189 Mb
Full Scans (JPG, 600 dpi) ~ 244 Mb | RAR 5% Recovery
Progressive Rock, Psychedelic Rock, Space Rock, Electronic, Ambient | Esoteric Recordings #ECLEC 2579

Tim Blake played synths with Gong, Hawkwind, Steve Hillage, and other similar projects before going solo as a synthesizer performer and recorder. This was Blake's first studio release versus his recordings of live gigs. He really polishes things up a great deal, adding guitars and singing in the style of Gong's Daevid Allen and Steve Hillage's solo offerings. Blake's vocals would never be his strong point. His blessing to the ears was and always will be his ethereal and spacy synthesizer expertise. As Gong and Steve Hillage all preached the New Age and tuning into earth vibes and aligning one's soul with Earth energies to bring in a world of light and love – so Blake also crooned. No doubt, the '70s drug culture and disenchantment with organized religion had an immense influence on philosophy and music. So when you mix it all together into altered states of consciousness, you get such evangelistically naïve but sincere musical expressions such as this release. Laying aside all criticisms of the lyrics and the "message" being given here, one will find dreamy, tripped-out synth work that stands as some of the very best of its era. Blake's 16:11 side-long odyssey "Blake's New Jerusalem" is worth hearing over and over again, as it is an assured head-trip needing no chemically altered states. This piece alone is as good, if not better, than any of the sequenced synthesizer work of Jean Michel Jarre or Tangerine Dream. Blake's embellishments and melody-line improv solos provide matchless beauty. In other words – this song is other-dimensional, universally metaphysical, and deeply moving for those of any faith in some great beyond.
~ John W. Patterson, All Music
Tim Blake - Blake's New Jerusalem (1978) {2017, Remastered}


***************

Tim Blake - Blake's New Jerusalem (1978) {2017, Remastered}

Tim Blake - Blake's New Jerusalem (1978) {2017, Remastered}

Track List:

01. A Song For A New Age [5:14]
02. Lighthouse [6:46]
03. Generator (Laser Beam) [3:34]
04. Passage sur la Cite (Des Revelations) [7:43]
05. New Jerusalem [16:18]
06. The Woodland Voice [B-side of single] [3:39]
07. From Outer Space [19:09]
08. Jupiter To Jerusalem [16:07]

Personnel:
Tim Blake — keyboards, electronics, vocals
Jean-Phillipe Rykiel — Mini-Moog (4, 5)

Exact Audio Copy V1.3 from 2. September 2016

Отчёт EAC об извлечении, выполненном 25. февраля 2018, 15:08

Tim BLAKE / Blake's New Jerusalem

Дисковод: TSSTcorpCDDVDW SH-224DB Adapter: 1 ID: 0

Режим чтения : Достоверность
Использование точного потока : Да
Отключение кэша аудио : Да
Использование указателей C2 : Нет

Коррекция смещения при чтении : 6
Способность читать области Lead-in и Lead-out : Нет
Заполнение пропущенных сэмплов тишиной : Да
Удаление блоков с тишиной в начале и конце : Нет
При вычислениях CRC использовались нулевые сэмплы : Да
Интерфейс : Встроенный Win32-интерфейс для Win NT/2000

Выходной формат : Внутренние WAV-операции
Формат сэмплов : 44.100 Гц; 16 бит; стерео


TOC извлечённого CD

Трек | Старт | Длительность | Начальный сектор | Конечный сектор
––––––––––––––––––––––––––––––––––-
1 | 0:00.34 | 5:13.65 | 34 | 23573
2 | 5:14.24 | 6:46.09 | 23574 | 54032
3 | 12:00.33 | 3:33.44 | 54033 | 70051
4 | 15:34.02 | 7:43.10 | 70052 | 104786
5 | 23:17.12 | 16:18.00 | 104787 | 178136
6 | 39:35.12 | 3:39.00 | 178137 | 194561
7 | 43:14.12 | 19:09.15 | 194562 | 280751
8 | 62:23.27 | 16:07.16 | 280752 | 353292


Характеристики диапазона извлечения и сообщения об ошибках

Выбранный диапазон

Имя файла D:\TEMP\Tim BLAKE - 1978 - Blake's New Jerusalem [2017 Esoteric Recordings rem. edition, ECLEC 2579].wav

Пиковый уровень 99.4 %
Скорость извлечения 2.3 X
Качество диапазона 100.0 %
CRC теста 0F449ED0
CRC копии 0F449ED0
Копирование… OK

Ошибок не произошло


AccurateRip: сводка

Трек 1 : извлечено точно (доверие 10) [4F4BC640] (AR v2)
Трек 2 : извлечено точно (доверие 10) [53E14DD2] (AR v2)
Трек 3 : извлечено точно (доверие 10) [07D230AF] (AR v2)
Трек 4 : извлечено точно (доверие 10) [5EA4F913] (AR v2)
Трек 5 : извлечено точно (доверие 10) [613640C5] (AR v2)
Трек 6 : извлечено точно (доверие 10) [90606291] (AR v2)
Трек 7 : извлечено точно (доверие 10) [A7404CD6] (AR v2)
Трек 8 : извлечено точно (доверие 10) [37AA8A0F] (AR v2)

Все треки извлечены точно

Конец отчёта

==== Контрольная сумма отчёта 575C3262830EA6116E972D7942658578606EF2B4A7A3A09916957986FF1E4699 ====

foobar2000 1.3.16 / Dynamic Range Meter 1.1.1
log date: 2018-03-03 19:14:55

––––––––––––––––––––––––––––––––––––––––
Analyzed: Tim BLAKE / Blake’s New Jerusalem
––––––––––––––––––––––––––––––––––––––––

DR Peak RMS Duration Track
––––––––––––––––––––––––––––––––––––––––
DR10 -0.05 dB -13.66 dB 5:14 01-A Song For A New Age
DR12 -0.05 dB -14.29 dB 6:46 02-Lighthouse
DR12 -0.05 dB -13.96 dB 3:34 03-Generator (Laser Beam)
DR10 -0.05 dB -12.05 dB 7:43 04-Passage sur la Cité (Des Révélations)
DR10 -0.05 dB -14.09 dB 16:18 05-New Jerusalem
DR11 -0.05 dB -14.20 dB 3:39 06-The Woodland Voice [B-side of single]
DR11 -0.05 dB -13.23 dB 19:09 07-From Outer Space
DR11 -0.05 dB -13.24 dB 16:07 08-Jupiter To Jerusalem
––––––––––––––––––––––––––––––––––––––––

Number of tracks: 8
Official DR value: DR11

Samplerate: 44100 Hz
Channels: 2
Bits per sample: 16
Bitrate: 849 kbps
Codec: FLAC
================================================================================

[CUETools log; Date: 03.03.2018 19:13:59; Version: 2.1.5]
Pregap length 00:00:34.
[CTDB TOCID: GTxACDt2lRQq_OOvf46c6xZxfM0-] found.
Track | CTDB Status
1 | (22/22) Accurately ripped
2 | (22/22) Accurately ripped
3 | (22/22) Accurately ripped
4 | (22/22) Accurately ripped
5 | (22/22) Accurately ripped
6 | (22/22) Accurately ripped
7 | (22/22) Accurately ripped
8 | (22/22) Accurately ripped
[AccurateRip ID: 001336d8-008757c9-7b126608] found.
Track [ CRC | V2 ] Status
01 [e0475718|4f4bc640] (00+10/10) Accurately ripped
02 [d1a14be8|53e14dd2] (00+10/10) Accurately ripped
03 [8e9dc434|07d230af] (00+10/10) Accurately ripped
04 [9f0fb1e8|5ea4f913] (00+10/10) Accurately ripped
05 [19788dc7|613640c5] (00+10/10) Accurately ripped
06 [536e8909|90606291] (00+10/10) Accurately ripped
07 [8cb5b58a|a7404cd6] (00+10/10) Accurately ripped
08 [6658fe2f|37aa8a0f] (00+10/10) Accurately ripped

Track Peak [ CRC32 ] [W/O NULL] [ LOG ]
– 99,4 [0F449ED0] [613DEE4B] CRC32
01 99,4 [48C24E9D] [3DE337C7]
02 99,4 [E857D8C9] [3BCE7495]
03 99,4 [D76705DD] [3833981F]
04 99,4 [661128AC] [9A513C0E]
05 99,4 [FBFF6FC7] [7DC57214]
06 99,4 [78129150] [ED9EAC36]
07 99,4 [46752064] [D77CF097]
08 99,4 [AC8ECD40] [D873483B]

Tim Blake - Blake's New Jerusalem (1978) {2017, Remastered}

All thanks go to spAceLover

>>> My Blog <<<

Download from icerbox.com: