Subcategories

Tina Guo - Game On! (2017)

Posted By: popsakov
Tina Guo - Game On! (2017)

Tina Guo - Game On! (2017)
EAC Rip | FLAC (Img) + Cue + Log ~ 389 Mb | Scans (PNG, 400 dpi) ~ 133 Mb | RAR 5% Recovery
Classical Crossover, Instrumental Rock, Soundtracks | Masterworks / Sony Music #88985351382

Internationally acclaimed cellist, Tina Guo, thrills in her debut album for Sony Masterworks, Game On! This vibrant and dramatic album showcases some of the most popular and well-known video game music with epic orchestral arrangements led by Tina Guo s high-octane solos on electric and acoustic cello. Included on the album is a blockbuster line-up of video game music featuring top-selling chart hits - Call of Duty, World of Warcraft and Halo - all-time classics Mario, Zelda and Final Fantasy and critically acclaimed titles revered for their music Journey, Chrono Trigger and Metal Gear Solid.

One of the world s most versatile musicians, Tina Guo is as much in demand as a soloist with Hollywood s top composers like Hans Zimmer, as for her virtuosic skills on classical stages. Guo can be heard on the scores of blockbuster films, TV shows and video games including Batman v. Superman, Sherlock Holmes, Inception, CSI:NY, Vikings, Call of Duty: Black Ops II and III, Diablo III, Hearthstone, Journey, Assassin s Creed Syndicate and many more.

Equally as comfortable in classical concert halls as giant rock arenas, Tina has performed to millions of people across the globe in sold-out venues from Carnegie Hall to Wembley Arena. She has shared the stage with some of music s biggest names including The Foo Fighters, Stevie Wonder, Justin Bieber, Al Di Meola, Carlos Santana, Far East Movement, Ariana Grande, Skrillex and many more. Tina will be touring extensively in the U.S. with Hans Zimmer and orchestra throughout 2017.
Tina Guo - Game On! (2017)


***************

Tina Guo - Game On! (2017)

Track List:

01. The Legend Of Zelda [5:58]
02. Final Fantasy VII [6:34]
03. Chrono Trigger [2:51]
04. World Of Warcraft [5:03]
05. Skyrim [3:43]
06. Uncharted: Nate's Theme [3:12]
07. Super Mario Bros. [3:50]
08. Pokemon [3:05]
09. Journey [5:10]
10. The Witcher 3: Wild Hunt [2:49]
11. Halo [4:13]
12. Metal Gear Solid [4:26]
13. Call Of Duty: Modern Warfare 2 [3:51]
14. Tetris [4:14]

Exact Audio Copy V1.0 beta 3 from 29. August 2011

EAC extraction logfile from 4. March 2017, 1:29

Tina Guo / Game On!

Used drive : PIONEER BD-RW BDR-TD03 Adapter: 0 ID: 1

Read mode : Secure
Utilize accurate stream : Yes
Defeat audio cache : Yes
Make use of C2 pointers : No

Read offset correction : 667
Overread into Lead-In and Lead-Out : No
Fill up missing offset samples with silence : Yes
Delete leading and trailing silent blocks : No
Null samples used in CRC calculations : Yes
Used interface : Native Win32 interface for Win NT & 2000

Used output format : User Defined Encoder
Selected bitrate : 768 kBit/s
Quality : High
Add ID3 tag : No
Command line compressor : C:\Program Files (x86)\Exact Audio Copy\FLAC\FLAC.EXE
Additional command line options : -6 -V -T "ARTIST=%artist%" -T "TITLE=%title%" -T "ALBUM=%albumtitle%" -T "DATE=%year%" -T "TRACKNUMBER=%tracknr%" -T "GENRE=%genre%" -T "COMMENT=%comment%" -T "BAND=%albuminterpret%" -T "ALBUMARTIST=%albuminterpret%" -T "COMPOSER=%composer%" %haslyrics%–tag-from-file=LYRICS="%lyricsfile%"%haslyrics% -T "DISCNUMBER=%cdnumber%" -T "TOTALDISCS=%totalcds%" -T "TOTALTRACKS=%numtracks%" %hascover%–picture="%coverfile%"%hascover% %source% -o %dest%


TOC of the extracted CD

Track | Start | Length | Start sector | End sector
––––––––––––––––––––––––––––-
1 | 0:00.00 | 5:58.13 | 0 | 26862
2 | 5:58.13 | 6:34.12 | 26863 | 56424
3 | 12:32.25 | 2:51.05 | 56425 | 69254
4 | 15:23.30 | 5:03.15 | 69255 | 91994
5 | 20:26.45 | 3:42.49 | 91995 | 108693
6 | 24:09.19 | 3:11.59 | 108694 | 123077
7 | 27:21.03 | 3:50.30 | 123078 | 140357
8 | 31:11.33 | 3:04.69 | 140358 | 154226
9 | 34:16.27 | 5:09.56 | 154227 | 177457
10 | 39:26.08 | 2:48.67 | 177458 | 190124
11 | 42:15.00 | 4:13.25 | 190125 | 209124
12 | 46:28.25 | 4:25.64 | 209125 | 229063
13 | 50:54.14 | 3:51.18 | 229064 | 246406
14 | 54:45.32 | 4:14.13 | 246407 | 265469


Range status and errors

Selected range

Filename C:\Users\Deris\Desktop\Gamtiguo\Tina Guo - Game On!.wav

Peak level 98.8 %
Extraction speed 4.8 X
Range quality 100.0 %
Test CRC E2F7615A
Copy CRC E2F7615A
Copy OK

No errors occurred


AccurateRip summary

Track 1 not present in database
Track 2 not present in database
Track 3 not present in database
Track 4 not present in database
Track 5 not present in database
Track 6 not present in database
Track 7 not present in database
Track 8 not present in database
Track 9 not present in database
Track 10 not present in database
Track 11 not present in database
Track 12 not present in database
Track 13 not present in database
Track 14 not present in database

None of the tracks are present in the AccurateRip database

End of status report

–– CUETools DB Plugin V2.1.3

[CTDB TOCID: KHjmjchM1T4AM2WAwcHokSmIxMc-] found, Submit result: KHjmjchM1T4AM2WAwcHokSmIxMc- has been confirmed
[75e3cfb4] (5/5) Accurately ripped


==== Log checksum 9F4A02CBFA671658F21BA51FBDC74A3FB6C412705C1334C852A0EFB98DF00071 ====

foobar2000 1.2.6 / Dynamic Range Meter 1.1.1
log date: 2017-03-08 14:57:56

––––––––––––––––––––––––––––––––––––––––
Analyzed: Tina Guo / Game On!
––––––––––––––––––––––––––––––––––––––––

DR Peak RMS Duration Track
––––––––––––––––––––––––––––––––––––––––
DR5 -0.20 dB -7.48 dB 5:58 01-The Legend Of Zelda
DR6 -0.10 dB -8.73 dB 6:34 02-Final Fantasy VII
DR6 -0.20 dB -6.87 dB 2:51 03-Chrono Trigger
DR5 -0.10 dB -7.81 dB 5:03 04-World Of Warcraft
DR5 -0.10 dB -7.67 dB 3:43 05-Skyrim
DR6 -0.20 dB -9.04 dB 3:12 06-Uncharted: Nate's Theme
DR6 -0.20 dB -7.70 dB 3:50 07-Super Mario Bros.
DR5 -0.10 dB -6.88 dB 3:05 08-Pokemon
DR7 -0.20 dB -11.10 dB 5:10 09-Journey
DR6 -0.20 dB -7.97 dB 2:49 10-The Witcher 3: Wild Hunt
DR5 -0.20 dB -7.43 dB 4:13 11-Halo
DR6 -0.20 dB -9.68 dB 4:26 12-Metal Gear Solid
DR6 -0.20 dB -8.04 dB 3:51 13-Call Of Duty: Modern Warfare 2
DR5 -0.10 dB -7.93 dB 4:14 14-Tetris
––––––––––––––––––––––––––––––––––––––––

Number of tracks: 14
Official DR value: DR6

Samplerate: 44100 Hz
Channels: 2
Bits per sample: 16
Bitrate: 878 kbps
Codec: FLAC
================================================================================

[CUETools log; Date: 08.03.2017 14:58:01; Version: 2.1.5]
[CTDB TOCID: KHjmjchM1T4AM2WAwcHokSmIxMc-] found.
Track | CTDB Status
1 | (7/7) Accurately ripped
2 | (7/7) Accurately ripped
3 | (7/7) Accurately ripped
4 | (7/7) Accurately ripped
5 | (7/7) Accurately ripped
6 | (7/7) Accurately ripped
7 | (7/7) Accurately ripped
8 | (7/7) Accurately ripped
9 | (7/7) Accurately ripped
10 | (7/7) Accurately ripped
11 | (7/7) Accurately ripped
12 | (7/7) Accurately ripped
13 | (7/7) Accurately ripped
14 | (7/7) Accurately ripped
[AccurateRip ID: 001fde60-014c2db1-cb0dd30e] found.
Track [ CRC | V2 ] Status
01 [64150f22|736bf2f4] (0+1/1) Accurately ripped
02 [0e5eac92|f863c732] (0+1/1) Accurately ripped
03 [70e10cdb|aadd55b7] (0+1/1) Accurately ripped
04 [531a94d7|9ea50f23] (0+1/1) Accurately ripped
05 [87b5ee46|666c02d0] (0+1/1) Accurately ripped
06 [73af58a5|87feeb26] (0+1/1) Accurately ripped
07 [4eae1da4|ae5f139f] (0+1/1) Accurately ripped
08 [64179a95|ecb0d029] (0+1/1) Accurately ripped
09 [39736244|d1695f49] (0+1/1) Accurately ripped
10 [108f6b2f|a570e352] (0+1/1) Accurately ripped
11 [50f606c9|27b49d99] (0+1/1) Accurately ripped
12 [89a378dd|2590e10e] (0+1/1) Accurately ripped
13 [5bee6574|1e7ef987] (0+1/1) Accurately ripped
14 [7e4ebeb4|820c0ea7] (0+1/1) Accurately ripped

Track Peak [ CRC32 ] [W/O NULL] [ LOG ]
– 98,8 [E2F7615A] [76E3211A] CRC32
01 97,7 [90068E80] [09DCF3B2]
02 98,8 [4CD00DD6] [8F723F98]
03 97,7 [C5223238] [2432476C]
04 98,8 [095A3E9E] [1C9B4E32]
05 98,8 [314B1747] [9CE61106]
06 97,7 [31D35843] [C5AD4BAE]
07 97,7 [D851C84F] [32FC2F42]
08 98,8 [C417E2CC] [C95876BF]
09 97,7 [0DFDEDCF] [01A9561A]
10 97,7 [D24DB9E9] [4EAD4BC9]
11 97,7 [5F6E4672] [1986C00D]
12 97,7 [5F3562F9] [62353227]
13 97,7 [F2F468F8] [9859B638]
14 98,8 [4B011196] [EA5B485E]

Tina Guo - Game On! (2017)

All thanks go to Boris1

> Visit my blog <