Subcategories

Tina Brooks - True Blue (1960) [XRCD24, Reissue 2009]

Posted By: gribovar
Tina Brooks - True Blue (1960) [XRCD24, Reissue 2009]

Tina Brooks - True Blue (1960) [XRCD24, Reissue 2009]
EAC Rip | WavPack (image+.cue+log) - 259 MB | MP3 CBR 320 kbps (LAME 3.93) - 88 MB | Covers - 241 MB
Genre: Jazz | RAR 3% Rec. | Label: Audio Wave/Blue Note (AWMXR-0004)

Obscure but talented tenor saxophonist Tina Brooks is teamed with the young trumpeter Freddie Hubbard (on one of his earliest sessions), pianist Duke Jordan, bassist Sam Jones, and drummer Art Taylor for a set dominated by Brooks' originals. None of the themes may be all that memorable ("Nothing Ever Changes My Love for You" comes the closest), but the hard bop solos are consistently excellent.
Tracklist:
01. Good Old Soul
02. Up Tight's Creek
03. Theme For Doris
04. True Blue
05. Miss Hazel
06. Nothing Ever Changes My Love For You

Total time: 37:22

Exact Audio Copy V0.99 prebeta 4 from 23. January 2008

EAC extraction logfile from 28. April 2010, 20:49

Tina Brooks / True Blue

Used drive : HL-DT-STDVDRAM GH20NS10 Adapter: 2 ID: 1

Read mode : Secure
Utilize accurate stream : Yes
Defeat audio cache : Yes
Make use of C2 pointers : No

Read offset correction : 667
Overread into Lead-In and Lead-Out : No
Fill up missing offset samples with silence : Yes
Delete leading and trailing silent blocks : No
Null samples used in CRC calculations : Yes
Used interface : Installed external ASPI interface

Used output format : Internal WAV Routines
Sample format : 44.100 Hz; 16 Bit; Stereo


TOC of the extracted CD

Track | Start | Length | Start sector | End sector
––––––––––––––––––––––––––––-
1 | 0:00.00 | 8:03.70 | 0 | 36294
2 | 8:03.70 | 5:19.25 | 36295 | 60244
3 | 13:23.20 | 5:48.32 | 60245 | 86376
4 | 19:11.52 | 4:54.65 | 86377 | 108491
5 | 24:06.42 | 5:34.48 | 108492 | 133589
6 | 29:41.15 | 7:51.20 | 133590 | 168934


Range status and errors

Selected range

Filename Z:\Tina Brooks - True Blue (1960) {Audio Wave XRCD24 AWMXR-0004}\Tina Brooks - True Blue.wav

Peak level 100.0 %
Range quality 100.0 %
Test CRC 23D1FDD1
Copy CRC 23D1FDD1
Copy OK

No errors occurred


AccurateRip summary

Track 1 accurately ripped (confidence 12) [66FA0CF8]
Track 2 accurately ripped (confidence 12) [A23B1322]
Track 3 accurately ripped (confidence 12) [63B87BBD]
Track 4 accurately ripped (confidence 12) [5C57DE32]
Track 5 accurately ripped (confidence 12) [CF0B77CB]
Track 6 accurately ripped (confidence 12) [34B179A5]

All tracks accurately ripped

End of status report

[CUETools log; Date: 09.04.2019 22:50:38; Version: 2.1.4]
[CTDB TOCID: bb_aAgmIg_fvjBxqbQnpWpuXVZA-] found.
Track | CTDB Status
1 | (28/28) Accurately ripped
2 | (28/28) Accurately ripped
3 | (28/28) Accurately ripped
4 | (28/28) Accurately ripped
5 | (28/28) Accurately ripped
6 | (28/28) Accurately ripped
[AccurateRip ID: 0009100e-002fb083-4e08cc06] found.
Track [ CRC | V2 ] Status
01 [66fa0cf8|6538bcdb] (24+25/54) Accurately ripped
02 [a23b1322|3dab1681] (24+26/55) Accurately ripped
03 [63b87bbd|58c56f5f] (24+26/55) Accurately ripped
04 [5c57de32|446a5d78] (24+26/55) Accurately ripped
05 [cf0b77cb|f9c4449c] (24+26/55) Accurately ripped
06 [34b179a5|2ddbdf79] (24+26/55) Accurately ripped
Offsetted by 387:
01 [106910e6] (00/54) No match (V2 was not tested)
02 [927d8c37] (00/55) No match (V2 was not tested)
03 [fb7fe1b5] (00/55) No match (V2 was not tested)
04 [7537aa58] (00/55) No match (V2 was not tested)
05 [3030e2f7] (00/55) No match (V2 was not tested)
06 [fa69dce4] (00/55) No match (V2 was not tested)

Track Peak [ CRC32 ] [W/O NULL] [ LOG ]
– 100,0 [23D1FDD1] [CD3BB120] CRC32
01 95,1 [13485E4F] [C2CF76C5]
02 100,0 [1056E276] [B455D31D]
03 95,3 [0DB0FDCF] [60C37099]
04 100,0 [4CDE4534] [A0A5EF99]
05 100,0 [AADA758A] [2A17B47C]
06 100,0 [76F77F87] [FE2A9B14]

Thanks to pr3ss