Subcategories

Boris Ivanovich Tishchenko - Symphony No. 2, "Marina" (State Petrozavodsk Choir, State Karelian Philharmonic, Tchivzhel)

Posted By: tapaz9
Boris Ivanovich Tishchenko - Symphony No. 2, "Marina" (State Petrozavodsk Choir, State Karelian Philharmonic, Tchivzhel)

Boris Ivanovich Tishchenko - Symphony No. 2, "Marina" (State Petrozavodsk Conservatory Choir, State Karelian Philharmonic, Tchivzhel)
Classical | EAC: FLAC+Cue+Log | 1 Cd, Covers | 244 Mb
Label: Northern Flowers - Date: 2012

Boris Ivanovich Tishchenko completed the Second Symphony in 1964. By that time, he had already written several opuses that made him widely known, such as First Cello Concerto and First Piano Concerto, the ballet The Twelve, quartets and piano sonatas, and Inventions for Organ.
The Second Symphony is a milestone composition in the composer’s heritage; this is evident if we look at its concept, and the scope of artistic instruments. Working on the symphony, Tishchenko addressed the poetry of Marina Tsvetaeva who was not yet recognized and appreciated to the full extent in those years. The symphony is based on a cycle of four poems written in 1921 and dedicated to the personality of Marina Mniszek (daughter of a Polish voivode, wife to Pseudo-Dimitry married with him in May 1606, shortly before his violent death, and crowned as Russian Czarina). To these four poems, Tishchenko added one more written by Tsvetaeva also in 1921, related to the cycle in its general sense and summarizing its content.
Tracks:

01. Symphony No. 2, Op. 28, "Marina" - I. Presto [0:12:33.18]
02. II. Presto risoluto [0:07:15.09]
03. III. A piacere [0:02:32.63]
04. IV. Andantino [0:09:31.09]
05. V. Andante sostenuto [0:17:46.14]


Exact Audio Copy V1.0 beta 3 from 29. August 2011

EAC extraction logfile from 20. January 2013, 0:06

Boris Ivanovich Tishchenko / Symphony No. 2, "Marina" (State Petrozavodsk Conservatory Choir, State Karelian Philharmonic, Tchivzhel)

Used drive : TSSTcorpCDDVDW SH-S223C Adapter: 2 ID: 1

Read mode : Secure
Utilize accurate stream : Yes
Defeat audio cache : Yes
Make use of C2 pointers : No

Read offset correction : 697
Overread into Lead-In and Lead-Out : No
Fill up missing offset samples with silence : Yes
Delete leading and trailing silent blocks : No
Null samples used in CRC calculations : Yes
Used interface : Native Win32 interface for Win NT & 2000

Used output format : User Defined Encoder
Selected bitrate : 896 kBit/s
Quality : High
Add ID3 tag : No
Command line compressor : C:\Program Files (x86)\Exact Audio Copy\FLAC\FLAC.EXE
Additional command line options : -V -0 -T "COMMENT=Ripped by Tapaz9" -T "artist=%artist%" -T "title=%title%" -T "album=%albumtitle%" -T "date=%year%" -T "tracknumber=%tracknr%" -T "genre=%genre%" %source%


TOC of the extracted CD

Track | Start | Length | Start sector | End sector
––––––––––––––––––––––––––––-
1 | 0:00.00 | 12:33.18 | 0 | 56492
2 | 12:33.18 | 7:15.09 | 56493 | 89126
3 | 19:48.27 | 2:32.63 | 89127 | 100589
4 | 22:21.15 | 9:31.09 | 100590 | 143423
5 | 31:52.24 | 17:46.14 | 143424 | 223387


Range status and errors

Selected range

Filename F:\Musique\Tishchenko\Tishchenko_Symphony2\Boris Ivanovich Tishchenko - Symphony No. 2, ''Marina''.wav

Peak level 89.9 %
Extraction speed 15.0 X
Range quality 100.0 %
Copy CRC 9F338D0D
Copy OK

No errors occurred

End of status report

==== Log checksum D25E29AB62F06C6E0AA61AD70A5DC448570B94AD6926F9F09CEAF6B9020FB3B8 ====

No Mirrors and Torrent-uploads Please

See my classical digital download posts in the Vinyl & HR section or check out My Avax blog