Subcategories

Boris Ivanovich Tishchenko - Symphony No. 7 (St. Petersburg Philharmonic, Serov)

Posted By: tapaz9
Boris Ivanovich Tishchenko - Symphony No. 7 (St. Petersburg Philharmonic, Serov)

Boris Ivanovich Tishchenko - Symphony No. 7 (St. Petersburg Philharmonic, Serov)
Classical | EAC: FLAC+Cue+Log | 1 Cd, Covers | 400 Mb
Label: Northern Flowers - Date: 2011

Opinion has it that Boris Tishchenko is the heir to Shostakovich and since he was a favourite pupil of Shostakovich (how many favourite pupils he must have had!) there must be a link to the older composer. I do not believe Tishchenko shares much of Shostakovich’s sound world except in the sarcastic, jaunty themes as typified by the first movement. Tishchenko’s music is his own, quite distinctive, and well worth getting to know. It is tonal, reasonably tuneful and not at all hard work in listening. With all of the atonal, plink-plonk sounds around which purport to be music, as well as soupy film-like scores (a product of computer driven music boxes) it is very refreshing to come across a symphonic composer who appears to have something genuinely worthwhile to say.
John Phillips @ musicweb-international.com
Tracks:

01. Symphony No. 7, Op. 119 - I. Sonata [0:11:05.57]
02. II. Foxtrot [0:07:26.71]
03. III. Variations [0:11:20.39]
04. IV. Waltz [0:09:11.32]
05. V. Rondo [0:14:26.39]


Exact Audio Copy V1.0 beta 3 from 29. August 2011

EAC extraction logfile from 21. January 2013, 0:36

Boris Ivanovich Tishchenko / Symphony No. 7 (St. Petersburg Philharmonic, Serov)

Used drive : TSSTcorpCDDVDW SH-S223C Adapter: 2 ID: 1

Read mode : Secure
Utilize accurate stream : Yes
Defeat audio cache : Yes
Make use of C2 pointers : No

Read offset correction : 697
Overread into Lead-In and Lead-Out : No
Fill up missing offset samples with silence : Yes
Delete leading and trailing silent blocks : No
Null samples used in CRC calculations : Yes
Used interface : Native Win32 interface for Win NT & 2000

Used output format : User Defined Encoder
Selected bitrate : 896 kBit/s
Quality : High
Add ID3 tag : No
Command line compressor : C:\Program Files (x86)\Exact Audio Copy\FLAC\FLAC.EXE
Additional command line options : -V -0 -T "COMMENT=Ripped by Tapaz9" -T "artist=%artist%" -T "title=%title%" -T "album=%albumtitle%" -T "date=%year%" -T "tracknumber=%tracknr%" -T "genre=%genre%" %source%


TOC of the extracted CD

Track | Start | Length | Start sector | End sector
––––––––––––––––––––––––––––-
1 | 0:00.00 | 11:05.57 | 0 | 49931
2 | 11:05.57 | 7:26.71 | 49932 | 83452
3 | 18:32.53 | 11:20.39 | 83453 | 134491
4 | 29:53.17 | 9:11.32 | 134492 | 175848
5 | 39:04.49 | 14:26.39 | 175849 | 240837


Range status and errors

Selected range

Filename F:\Musique\Tishchenko\Tishchenko_Symphony7\Boris Ivanovich Tishchenko - Symphony No. 7.wav

Peak level 99.2 %
Extraction speed 14.3 X
Range quality 100.0 %
Copy CRC 9EF911ED
Copy OK

No errors occurred

End of status report

==== Log checksum 03FF631D0524144BB582D0F70575B5EE9CD8EFE42DBAE6318234B97835975A7D ====

No Mirrors and Torrent-uploads Please

See my classical digital download posts in the Vinyl & HR section or check out My Avax blog