Subcategories

Titanic - Heart Of Rock (1993)

Posted By: v3122
Titanic - Heart Of Rock (1993)

Titanic - Heart Of Rock (1993)
EAC | Flac(Image) + Cue + Log & MP3 CBR 320Kbps
New Disc MM Records, 2344702 | RU | ~ 295 or 112 Mb | Artwork(jpg) -> 3.10 Mb
Classic Rock, Progressive Rock, Hard Rock

Norway is not precisely the cradle of Progressive Rock, but a band formed in 1969 when the genre was still on diapers, a group of musicians from Oslo, decided to form a Hard Rock band inspired in legends such as LED ZEPPELIN and DEEP PURPLE, but gave a step forward and created a unique sound that blended all this influences with our beloved genre and a strong Psychedelic element.

The original lineup was formed by Kenny AAS playing the organ and bass, Janne LOSETH in charge of the guitar and vocals, John LORCK as drummer and Kjell ASPERUD who added percussion and vocals.

Their first real hit single, the SANTANA oriented "Sultana" almost peaked the UK charts reaching a surprising (for a foreign band not coming from USA) fifth position.

But their recording career had started a year before with the self titled debut. By that point TITANIC had recruited the British vocalist Roy ROBINSON, who not only gave them a more international sound allowing the band to reach the UK and North American markets, but turned into a compositional force of the band.

Their second album "Sea Wolf" is released in 1971, after this album Kenny AAS leaves the band and is replaced with Helge GRØSLIE with whom they release their definitive "Eagle Rock" in 1973 in which they present us a clearly Psyche, Heavy Prog release and a mature sound with an impressive Hammond performance and chorus in the vein of URIAH HEEP.

The band kept releasing albums until 1979 when they disband, however TITANIC rejoined a couple of times with several changes in the linup, and in February 2009 they surprised us with their latest release "Ashes & Diamonds" with Roy ROBINSON and John LOSETH as the only members who were present on their first LP back in 1971.

A strong Hard Rock and Psyche band with evident Prog leanings that deserves to be included in Prog Archives, mainly for their early 70's releases.

~ progarchives
Titanic - Heart Of Rock (1993)

Titanic - Heart Of Rock (1993):

Titanic - Heart Of Rock (1993)

Tracklist:

01. All Washed Up
02. Love Goes Down
03. Rivers Run Day
04. The Huntress
05. Bogey Man
06. Heart Of Rock
07. Moonshine Machine
08. Howling Wind
09. Heaven Comes Easy
10. Wake Me Up Before I Get There
11. Lookin' Into The Sun
12. Stage Of Fools

Roy Robinson - vocals
Janny Loseth - guitar
Runar Gjosund - bass
Trond Rabben - drums

Keyboards – Richard Gow
Keyboards [Additional] – Rene Perez
Backing Vocals – Jan Loseth & Richard Gow

Exact Audio Copy V1.3 from 2. September 2016

EAC extraction logfile from 6. April 2020, 22:35

Titanic / Heart Of Rock

Used drive : ASUS DRW-24D5MT Adapter: 1 ID: 0

Read mode : Secure
Utilize accurate stream : Yes
Defeat audio cache : Yes
Make use of C2 pointers : No

Read offset correction : 6
Overread into Lead-In and Lead-Out : No
Fill up missing offset samples with silence : Yes
Delete leading and trailing silent blocks : No
Null samples used in CRC calculations : Yes
Used interface : Native Win32 interface for Win NT & 2000
Gap handling : Appended to previous track

Used output format : User Defined Encoder
Selected bitrate : 1024 kBit/s
Quality : High
Add ID3 tag : No
Command line compressor : C:\Program Files (x86)\Exact Audio Copy\Flac\flac.exe
Additional command line options : -V -8 -T "Genre=%genre%" -T "Artist=%artist%" -T "Title=%title%" -T "Album=%albumtitle%" -T "Date=%year%" -T "Tracknumber=%tracknr%" -T "Comment=%comment%" %source%


TOC of the extracted CD

Track | Start | Length | Start sector | End sector
––––––––––––––––––––––––––––-
1 | 0:00.00 | 3:44.26 | 0 | 16825
2 | 3:44.26 | 4:05.44 | 16826 | 35244
3 | 7:49.70 | 4:05.18 | 35245 | 53637
4 | 11:55.13 | 5:31.47 | 53638 | 78509
5 | 17:26.60 | 4:22.66 | 78510 | 98225
6 | 21:49.51 | 3:44.26 | 98226 | 115051
7 | 25:34.02 | 3:36.32 | 115052 | 131283
8 | 29:10.34 | 3:18.60 | 131284 | 146193
9 | 32:29.19 | 3:23.36 | 146194 | 161454
10 | 35:52.55 | 4:17.35 | 161455 | 180764
11 | 40:10.15 | 4:02.53 | 180765 | 198967
12 | 44:12.68 | 3:16.47 | 198968 | 213714


Track 1

Filename H:\Sket4er\Titanic – Heart Of Rock 1993\01 All Washed Up.wav

Pre-gap length 0:00:02.00

Peak level 100.0 %
Extraction speed 1.1 X
Track quality 100.0 %
Test CRC 2E4F61F7
Copy CRC 2E4F61F7
Track not present in AccurateRip database
Copy OK

Track 2

Filename H:\Sket4er\Titanic – Heart Of Rock 1993\02 Love Goes Down.wav

Peak level 100.0 %
Extraction speed 1.3 X
Track quality 100.0 %
Test CRC D346F0ED
Copy CRC D346F0ED
Track not present in AccurateRip database
Copy OK

Track 3

Filename H:\Sket4er\Titanic – Heart Of Rock 1993\03 Rivers Run Day.wav

Peak level 100.0 %
Extraction speed 1.4 X
Track quality 100.0 %
Test CRC DFF7FA43
Copy CRC DFF7FA43
Track not present in AccurateRip database
Copy OK

Track 4

Filename H:\Sket4er\Titanic – Heart Of Rock 1993\04 The Huntress.wav

Peak level 100.0 %
Extraction speed 1.5 X
Track quality 100.0 %
Test CRC C130B798
Copy CRC C130B798
Track not present in AccurateRip database
Copy OK

Track 5

Filename H:\Sket4er\Titanic – Heart Of Rock 1993\05 Bogey Man.wav

Peak level 100.0 %
Extraction speed 1.6 X
Track quality 100.0 %
Test CRC 349C0AC5
Copy CRC 349C0AC5
Track not present in AccurateRip database
Copy OK

Track 6

Filename H:\Sket4er\Titanic – Heart Of Rock 1993\06 Heart Of Rock.wav

Peak level 100.0 %
Extraction speed 1.6 X
Track quality 100.0 %
Test CRC 92AF97E4
Copy CRC 92AF97E4
Track not present in AccurateRip database
Copy OK

Track 7

Filename H:\Sket4er\Titanic – Heart Of Rock 1993\07 Moonshine Machine.wav

Peak level 100.0 %
Extraction speed 1.5 X
Track quality 99.9 %
Test CRC 14E7CAB7
Copy CRC 14E7CAB7
Track not present in AccurateRip database
Copy OK

Track 8

Filename H:\Sket4er\Titanic – Heart Of Rock 1993\08 Howling Wind.wav

Peak level 100.0 %
Extraction speed 1.8 X
Track quality 100.0 %
Test CRC ED224957
Copy CRC ED224957
Track not present in AccurateRip database
Copy OK

Track 9

Filename H:\Sket4er\Titanic – Heart Of Rock 1993\09 Heaven Comes Easy.wav

Peak level 100.0 %
Extraction speed 1.6 X
Track quality 99.9 %
Test CRC C72B8F6E
Copy CRC C72B8F6E
Track not present in AccurateRip database
Copy OK

Track 10

Filename H:\Sket4er\Titanic – Heart Of Rock 1993\10 Wake Me Up Before I Get There.wav

Peak level 100.0 %
Extraction speed 1.9 X
Track quality 100.0 %
Test CRC E056BB0D
Copy CRC E056BB0D
Track not present in AccurateRip database
Copy OK

Track 11

Filename H:\Sket4er\Titanic – Heart Of Rock 1993\11 Lookin' Into The Sun.wav

Peak level 100.0 %
Extraction speed 1.8 X
Track quality 99.9 %
Test CRC 82D50B6F
Copy CRC 82D50B6F
Track not present in AccurateRip database
Copy OK

Track 12

Filename H:\Sket4er\Titanic – Heart Of Rock 1993\12 Stage Of Fools.wav

Peak level 100.0 %
Extraction speed 2.0 X
Track quality 100.0 %
Test CRC 843E868A
Copy CRC 843E868A
Track not present in AccurateRip database
Copy OK


None of the tracks are present in the AccurateRip database

No errors occurred

End of status report

–– CUETools DB Plugin V2.1.6

[CTDB TOCID: uskeFLwM4WTximf1.oojC_RBpeU-] disk not present in database
Submit result: uskeFLwM4WTximf1.oojC_RBpeU- has been uploaded


==== Log checksum CCD956C139A7E11AD4D9FB67204C3EBDF73BB0CE81695AE8DAE6B80B1290DEE6 ====


[CUETools log; Date: 08.04.2020 10:49:42; Version: 2.1.4]
[AccurateRip ID: 0015d176-00ca93c8-8e0b210c] disk not present in database.

Track Peak [ CRC32 ] [W/O NULL] [ LOG ]
– 100,0 [00F6A771] [B49E4B94]
01 100,0 [2E4F61F7] [F203E420] CRC32
02 100,0 [D346F0ED] [0E3AC176] CRC32
03 100,0 [DFF7FA43] [CE513CBB] CRC32
04 100,0 [C130B798] [1E43F5DC] CRC32
05 100,0 [349C0AC5] [FC579D8F] CRC32
06 100,0 [92AF97E4] [2230ACAC] CRC32
07 100,0 [14E7CAB7] [D6AE4D17] CRC32
08 100,0 [ED224957] [4A7DB674] CRC32
09 100,0 [C72B8F6E] [BD0EF3DE] CRC32
10 100,0 [E056BB0D] [380C35FB] CRC32
11 100,0 [82D50B6F] [192C65E6] CRC32
12 100,0 [843E868A] [71E1CEF8] CRC32


Titanic - Heart Of Rock (1993)

All thanks go to Sket4er

Titanic in my Blog

Download Titanic - Heart Of Rock (1993):