Tito & Tarantula - Little Bitch (2000) {2017, Reissue, Remastered}

Posted By: popsakov
Tito & Tarantula - Little Bitch (2000) {2017, Reissue, Remastered}

Tito & Tarantula - Little Bitch (2000) {2017, Reissue, Remastered}
EAC Rip | FLAC (Img) + Cue + Log ~ 404 Mb | MP3 CBR320 ~ 138 Mb
Scans Included (JPG, 300 dpi) | RAR 5% Recovery
Chicano Rock / Blues Rock / Latin Rock / Hard Rock / Stoner Rock / Punk Rock
It Sounds #ITS169

Little Bitch is the third album by Tito & Tarantula, released in 2000. It was the band's first album not to feature bassist Jennifer Condos, and showed a major departure from their former style. Instead, they now incorporated the use of synthesizer moog pedals, giving the music a much stronger pop-rock sound. In addition, they recruited the assistance of several female backing vocalists on most songs, instead of relying on the other band members to back up Tito Larriva's vocals. This musical element is something the band also featured on their next album, 2002's Andalucia, which featured bassist Io Perry singing backing vocals on almost every song. The rest of the new elements featured on Little Bitch were mostly abandoned on Andalucia, which returned a sound more similar to that featured on the band's second album, 1999's Hungry Sally & Other Killer Lullabies.

The album also contained songs written by new songwriters. Charlie Midnight, who had co-written Tito & Tarantula's 1995 hit song "Back to the House (That Love Built)", co-wrote the music for "Everybody Needs". Larriva's former Cruzados bandmate, Steven Hufsteter, co-wrote "Crime & Shame", "World at My Feet" and "Super Vita Jane"; and ended up joining the band as a second lead guitarist. The music for "Dead Person" was co-written by Dominique Davalos, who later became the band's bassist in 2005, and played on the album as a session musician, as the band chose not to hire a replacement for Condos to play on the album.
~ Wiki

***************

Tito & Tarantula - Little Bitch (2000) {2017, Reissue, Remastered}

Tito & Tarantula - Little Bitch (2000) {2017, Reissue, Remastered}

Track List:

01. Everybody Needs [5:25]
02. Forever Forgotten & Unforgiven [5:28]
03. Crack In The World [3:29]
04. Goodbye Sadie [4:45]
05. Lady Don't Leave [4:02]
06. Lonely Sweet Marie [3:30]
07. Crime & Shame [3:10]
08. Bitch [3:11]
09. World At My Feet [4:25]
10. Super Vita Jane [3:39]
11. Dead Person [3:59]
12. Silent Train [4:31]
13. Regresare [3:17]

Exact Audio Copy V1.1 from 23. June 2015

EAC extraction logfile from 22. September 2017, 22:51

Tito & Tarantula / Little Bitch

Used drive : TSSTcorpDVDWBD SH-B123L Adapter: 0 ID: 4

Read mode : Secure
Utilize accurate stream : Yes
Defeat audio cache : Yes
Make use of C2 pointers : No

Read offset correction : 6
Overread into Lead-In and Lead-Out : No
Fill up missing offset samples with silence : Yes
Delete leading and trailing silent blocks : No
Null samples used in CRC calculations : Yes
Used interface : Installed external ASPI interface

Used output format : User Defined Encoder
Selected bitrate : 768 kBit/s
Quality : High
Add ID3 tag : No
Command line compressor : C:\Program Files (x86)\Exact Audio Copy\FLAC\FLAC.EXE
Additional command line options : -6 -V -T "ARTIST=%artist%" -T "TITLE=%title%" -T "ALBUM=%albumtitle%" -T "DATE=%year%" -T "TRACKNUMBER=%tracknr%" -T "GENRE=%genre%" -T "COMMENT=%comment%" -T "BAND=%albuminterpret%" -T "ALBUMARTIST=%albuminterpret%" -T "COMPOSER=%composer%" %haslyrics%–tag-from-file=LYRICS="%lyricsfile%"%haslyrics% -T "DISCNUMBER=%cdnumber%" -T "TOTALDISCS=%totalcds%" -T "TOTALTRACKS=%numtracks%" %hascover%–picture="%coverfile%"%hascover% %source% -o %dest%


TOC of the extracted CD

Track | Start | Length | Start sector | End sector
––––––––––––––––––––––––––––-
1 | 0:00.00 | 5:24.50 | 0 | 24349
2 | 5:24.50 | 5:28.01 | 24350 | 48950
3 | 10:52.51 | 3:29.20 | 48951 | 64645
4 | 14:21.71 | 4:45.00 | 64646 | 86020
5 | 19:06.71 | 4:02.31 | 86021 | 104201
6 | 23:09.27 | 3:29.40 | 104202 | 119916
7 | 26:38.67 | 3:09.54 | 119917 | 134145
8 | 29:48.46 | 3:10.59 | 134146 | 148454
9 | 32:59.30 | 4:25.08 | 148455 | 168337
10 | 37:24.38 | 3:39.34 | 168338 | 184796
11 | 41:03.72 | 3:59.35 | 184797 | 202756
12 | 45:03.32 | 4:30.69 | 202757 | 223075
13 | 49:34.26 | 3:17.16 | 223076 | 237866


Range status and errors

Selected range

Filename E:\MUSIC\Tito & Tarantula - Little Bitch.wav

Peak level 99.7 %
Extraction speed 3.4 X
Range quality 100.0 %
Test CRC 59F640FE
Copy CRC 59F640FE
Copy OK

No errors occurred


AccurateRip summary

Track 1 not present in database
Track 2 not present in database
Track 3 not present in database
Track 4 not present in database
Track 5 not present in database
Track 6 not present in database
Track 7 not present in database
Track 8 not present in database
Track 9 not present in database
Track 10 not present in database
Track 11 not present in database
Track 12 not present in database
Track 13 not present in database

None of the tracks are present in the AccurateRip database

End of status report

==== Log checksum 1E65AB668F665ACC038D8EF8CE4DE1C0C24935242C9C56A387667B13A3857FCC ====

foobar2000 1.3.16 / Dynamic Range Meter 1.1.1
log date: 2017-10-16 13:50:18

––––––––––––––––––––––––––––––––––––––––
Analyzed: Tito & Tarantula / Little Bitch
––––––––––––––––––––––––––––––––––––––––

DR Peak RMS Duration Track
––––––––––––––––––––––––––––––––––––––––
DR5 -0.05 dB -6.23 dB 5:25 01-Everybody Needs
DR6 -0.02 dB -7.40 dB 5:28 02-Forever Forgotten & Unforgiven
DR6 -0.07 dB -7.69 dB 3:29 03-Crack In The World
DR7 -0.04 dB -7.72 dB 4:45 04-Goodbye Sadie
DR5 -0.04 dB -6.52 dB 4:02 05-Lady Don't Leave
DR7 -0.11 dB -8.16 dB 3:30 06-Lonely Sweet Marie
DR7 -0.04 dB -7.91 dB 3:10 07-Crime & Shame
DR7 -0.07 dB -8.52 dB 3:11 08-Bitch
DR7 -0.02 dB -8.99 dB 4:25 09-World At My Feet
DR6 -0.02 dB -7.36 dB 3:39 10-Super Vita Jane
DR6 -0.06 dB -7.08 dB 3:59 11-Dead Person
DR7 -0.07 dB -8.66 dB 4:31 12-Silent Train
DR9 -0.11 dB -10.62 dB 3:17 13-Regresare
––––––––––––––––––––––––––––––––––––––––

Number of tracks: 13
Official DR value: DR7

Samplerate: 44100 Hz
Channels: 2
Bits per sample: 16
Bitrate: 992 kbps
Codec: FLAC
================================================================================

[CUETools log; Date: 16.10.2017 13:50:24; Version: 2.1.5]
[CTDB TOCID: 9kTD4EV7_G1RQtWDNb7112oFF54-] found.
Track | CTDB Status
1 | (1/1) Accurately ripped
2 | (1/1) Accurately ripped
3 | (1/1) Accurately ripped
4 | (1/1) Accurately ripped
5 | (1/1) Accurately ripped
6 | (1/1) Accurately ripped
7 | (1/1) Accurately ripped
8 | (1/1) Accurately ripped
9 | (1/1) Accurately ripped
10 | (1/1) Accurately ripped
11 | (1/1) Accurately ripped
12 | (1/1) Accurately ripped
13 | (1/1) Accurately ripped
[AccurateRip ID: 001aaa43-01057f56-b90c630d] found.
Track [ CRC | V2 ] Status
01 [d3c0027d|60953837] (0+2/2) Accurately ripped
02 [e66fce3c|fcf21223] (0+2/2) Accurately ripped
03 [9230a6f9|c556c717] (0+2/2) Accurately ripped
04 [9c217698|952b89a6] (0+2/2) Accurately ripped
05 [3047b07e|1991c345] (0+2/2) Accurately ripped
06 [f7837871|d8c20a22] (0+2/2) Accurately ripped
07 [b0fcddbe|ca50085e] (0+2/2) Accurately ripped
08 [125407d7|e589a641] (0+2/2) Accurately ripped
09 [8de9e3a8|2dafe2b5] (0+2/2) Accurately ripped
10 [ef030863|c242f927] (0+2/2) Accurately ripped
11 [2de78e3c|b0ba56a4] (0+2/2) Accurately ripped
12 [78cf418e|e71c5070] (0+2/2) Accurately ripped
13 [eb22aa03|5e859a70] (0+2/2) Accurately ripped

Track Peak [ CRC32 ] [W/O NULL] [ LOG ]
– 99,7 [59F640FE] [5159EC72] CRC32
01 99,3 [43B7F01F] [0184D5DA]
02 99,7 [78AAD05E] [07AEF911]
03 99,2 [A6B83DDC] [E306805B]
04 99,5 [B28D24F5] [68ACEBB1]
05 99,5 [33BC5021] [56BB0039]
06 98,7 [3B80D735] [A313171C]
07 99,4 [0260AEE2] [01FB08CB]
08 99,2 [69DD06B2] [BEC28CE5]
09 99,7 [AB466AF1] [141EE5F3]
10 99,7 [7451039A] [96133DB3]
11 99,3 [EED18252] [8A66347B]
12 99,2 [C4565396] [A59A118A]
13 98,7 [00A97DDA] [E159C9DC]

Tito & Tarantula - Little Bitch (2000) {2017, Reissue, Remastered}

See also:
Tito & Tarantula - Hungry Sally & Other Killer Lullabies (1999) {2017, Reissue, Remastered}
Tito & Tarantula - Live At Rockpalast (2017) {2DVD+2CD, Box Set}

All thanks go to RD

>>> My Blog <<<

Download from icerbox.com: