Subcategories

Todd Coolman Trio - Lexicon (1995)

Posted By: PCWhizzkid
Todd Coolman Trio - Lexicon (1995)

Todd Coolman Trio - Lexicon (1995)
EAC | FLAC+CUE+LOG - 330 MB | SCANS - 38 MB (600dpi) + 3% Recovery
Genre: Jazz | Label: Double Time Records | Catalogue No: DTRCD 104

A nice date with Todd Coolman making his second recording as a leader.With Coolman exploring a mix of established jazz standards and newer works, the interplay within the trio is marvelous.Joe Henderson's wonderful sax work is added for three tracks.



Personnel:

Todd Coolman(bass)
Renee Rosnes(piano)
Lewis Nash(drums)
Joe Henderson(tenor sax)



TRACK LIST:

1.Lexicon.7:26
2.Con Alma.9:52
3.Caravan. 8:32
4.I'm Getting Sentimental Over You.4:47
5.All Too Soon.8:04
6.Summer Serenade.5:07
7.Canción Para Cadiz. 10:38
8.You Go to My Head. 6:14
9.One for Walton.5:28

Exact Audio Copy V1.0 beta 1 from 15. November 2010

EAC extraction logfile from 22. April 2011, 13:40

Todd Coolman Trio / Lexicon

Used drive : HL-DT-STDVDRAM GH22NS40 Adapter: 2 ID: 0

Read mode : Secure
Utilize accurate stream : Yes
Defeat audio cache : Yes
Make use of C2 pointers : No

Read offset correction : 667
Overread into Lead-In and Lead-Out : No
Fill up missing offset samples with silence : Yes
Delete leading and trailing silent blocks : No
Null samples used in CRC calculations : Yes
Used interface : Native Win32 interface for Win NT & 2000

Used output format : User Defined Encoder
Selected bitrate : 768 kBit/s
Quality : High
Add ID3 tag : No
Command line compressor : C:\Program Files (x86)\Exact Audio Copy\FLAC\FLAC.EXE
Additional command line options : -6 -V -T "ARTIST=%a" -T "TITLE=%t" -T "ALBUM=%g" -T "DATE=%y" -T "TRACKNUMBER=%n" -T "GENRE=%m" -T "COMMENT=%e" %j–picture="%i"%j %s -o %d


TOC of the extracted CD

Track | Start | Length | Start sector | End sector
––––––––––––––––––––––––––––-
1 | 0:00.00 | 7:24.69 | 0 | 33368
2 | 7:24.69 | 9:54.74 | 33369 | 77992
3 | 17:19.68 | 8:34.56 | 77993 | 116598
4 | 25:54.49 | 4:50.26 | 116599 | 138374
5 | 30:45.00 | 8:07.62 | 138375 | 174961
6 | 38:52.62 | 5:09.65 | 174962 | 198201
7 | 44:02.52 | 10:39.62 | 198202 | 246188
8 | 54:42.39 | 6:16.31 | 246189 | 274419
9 | 60:58.70 | 5:28.28 | 274420 | 299047


Range status and errors

Selected range

Filename T:\Todd Coolman Trio - Lexicon.wav

Peak level 94.9 %
Extraction speed 0.1 X
Range quality 100.0 %
Test CRC 061AFA01
Copy CRC 061AFA01
Copy OK

No errors occurred


AccurateRip summary

Track 1 accurately ripped (confidence 2) [5BAC2646]
Track 2 accurately ripped (confidence 2) [24536DD7]
Track 3 accurately ripped (confidence 2) [D213996F]
Track 4 accurately ripped (confidence 2) [E811F027]
Track 5 accurately ripped (confidence 2) [88ED86E2]
Track 6 accurately ripped (confidence 2) [0265C370]
Track 7 accurately ripped (confidence 2) [F3942B1E]
Track 8 accurately ripped (confidence 2) [A5431CAA]
Track 9 accurately ripped (confidence 2) [527E6B85]

All tracks accurately ripped

End of status report

==== Log checksum 012A13AB45F86D67B120E7433013DA0184A1DB01DB5EB661EA9A6B8D7C0E6E94 ====



Todd Coolman Trio - Lexicon (1995)



Todd Coolman Trio - Lexicon (1995)