Subcategories

Tom Jones - The Best Of Tom Jones: 60 Classic Hits (1999) {3CD Box Set}

Posted By: popsakov
Tom Jones - The Best Of Tom Jones: 60 Classic Hits (1999) {3CD Box Set}

Tom Jones - The Best Of Tom Jones: 60 Classic Hits (1999) {3CD Box Set}
EAC Rip | FLAC (Img) + Cue + Log ~ 648 Mb | MP3 CBR320 ~ 381 Mb
Full Scans (PNG, 400 dpi) ~ 234 Mb | RAR 5% Recovery
Pop, Rock, Vocal | MasterSound #590322

Tom Jones became one of the most popular vocalists to emerge from the British Invasion. Since the mid-'60s, Jones has sung nearly every form of popular music – pop, rock, show tunes, country, dance, and techno, he's sung it all. His actual style – a full-throated, robust baritone that had little regard for nuance and subtlety – never changed, he just sang over different backing tracks. On-stage, Jones played up his sexual appeal; it didn't matter whether he was in an unbuttoned shirt or a tuxedo, he always radiated a raw sexuality that earned him a large following of devoted female fans who frequently threw underwear on-stage. Jones' following never diminished over the decades; he was able to exploit trends, earning new fans while retaining his core following.

***************

Tom Jones - The Best Of Tom Jones: 60 Classic Hits (1999) {3CD Box Set}

Tom Jones - The Best Of Tom Jones: 60 Classic Hits (1999) {3CD Box Set}

Track List CD1:

01. Delilah [2:44]
02. I Who Have Nothing [2:47]
03. Daughter of Darkness [2:01]
04. Without Love I Have Nothing [2:43]
05. Pretty Woman [2:39]
06. Something 'Bout You Baby I Like [1:59]
07. You Don't Have to Say You Love Me [2:47]
08. Lady Madonna [2:42]
09. Celebration [2:02]
10. Spanish Harlem [2:19]
11. Higher & Higher [2:40]
12. Show Me [2:20]
13. Hound Dog [1:49]
14. In the Midnight Hour [2:13]
15. Proud Mary [2:21]
16. Don't Be Cruel [1:57]
17. Baby Face [1:53]
18. What's New Pussycat [2:18]
19. Can't Buy Me Love [1:40]
20. My Way [3:40]

Exact Audio Copy V1.0 beta 3 from 29. August 2011

EAC extraction logfile from 17. July 2017, 1:17

Tom Jones / The Best of Tom Jones (disc 1)

Used drive : PIONEER BD-RW BDR-TD03 Adapter: 0 ID: 1

Read mode : Secure
Utilize accurate stream : Yes
Defeat audio cache : Yes
Make use of C2 pointers : No

Read offset correction : 667
Overread into Lead-In and Lead-Out : No
Fill up missing offset samples with silence : Yes
Delete leading and trailing silent blocks : No
Null samples used in CRC calculations : Yes
Used interface : Native Win32 interface for Win NT & 2000

Used output format : User Defined Encoder
Selected bitrate : 768 kBit/s
Quality : High
Add ID3 tag : No
Command line compressor : C:\Program Files (x86)\Exact Audio Copy\FLAC\FLAC.EXE
Additional command line options : -6 -V -T "ARTIST=%artist%" -T "TITLE=%title%" -T "ALBUM=%albumtitle%" -T "DATE=%year%" -T "TRACKNUMBER=%tracknr%" -T "GENRE=%genre%" -T "COMMENT=%comment%" -T "BAND=%albuminterpret%" -T "ALBUMARTIST=%albuminterpret%" -T "COMPOSER=%composer%" %haslyrics%–tag-from-file=LYRICS="%lyricsfile%"%haslyrics% -T "DISCNUMBER=%cdnumber%" -T "TOTALDISCS=%totalcds%" -T "TOTALTRACKS=%numtracks%" %hascover%–picture="%coverfile%"%hascover% %source% -o %dest%


TOC of the extracted CD

Track | Start | Length | Start sector | End sector
––––––––––––––––––––––––––––-
1 | 0:00.00 | 2:44.09 | 0 | 12308
2 | 2:44.09 | 2:47.27 | 12309 | 24860
3 | 5:31.36 | 2:01.16 | 24861 | 33951
4 | 7:32.52 | 2:42.51 | 33952 | 46152
5 | 10:15.28 | 2:39.19 | 46153 | 58096
6 | 12:54.47 | 1:58.55 | 58097 | 67001
7 | 14:53.27 | 2:46.51 | 67002 | 79502
8 | 17:40.03 | 2:41.56 | 79503 | 91633
9 | 20:21.59 | 2:01.50 | 91634 | 100758
10 | 22:23.34 | 2:19.16 | 100759 | 111199
11 | 24:42.50 | 2:40.23 | 111200 | 123222
12 | 27:22.73 | 2:19.59 | 123223 | 133706
13 | 29:42.57 | 1:48.56 | 133707 | 141862
14 | 31:31.38 | 2:12.55 | 141863 | 151817
15 | 33:44.18 | 2:21.23 | 151818 | 162415
16 | 36:05.41 | 1:57.24 | 162416 | 171214
17 | 38:02.65 | 1:53.25 | 171215 | 179714
18 | 39:56.15 | 2:17.59 | 179715 | 190048
19 | 42:13.74 | 1:39.40 | 190049 | 197513
20 | 43:53.39 | 3:40.00 | 197514 | 214013


Range status and errors

Selected range

Filename C:\Users\Deris\Desktop\TomJoBes\CD1\Tom Jones - The Best of Tom Jones (disc 1).wav

Peak level 100.0 %
Extraction speed 1.8 X
Range quality 100.0 %
Test CRC BC9CDCF6
Copy CRC BC9CDCF6
Copy OK

No errors occurred


AccurateRip summary

Track 1 cannot be verified as accurate (confidence 2) [0981EB5A], AccurateRip returned [BEE5F9B6] (AR v2)
Track 2 cannot be verified as accurate (confidence 2) [D9927BEC], AccurateRip returned [67DF8B45] (AR v2)
Track 3 cannot be verified as accurate (confidence 2) [07B1DD96], AccurateRip returned [C27375B4] (AR v2)
Track 4 cannot be verified as accurate (confidence 2) [ACBD0D09], AccurateRip returned [2CB1FB3F] (AR v2)
Track 5 cannot be verified as accurate (confidence 2) [B09A2FC2], AccurateRip returned [9E99C31D] (AR v2)
Track 6 cannot be verified as accurate (confidence 2) [02A26892], AccurateRip returned [ACEFA087] (AR v2)
Track 7 cannot be verified as accurate (confidence 2) [7170BC6A], AccurateRip returned [86986B34] (AR v2)
Track 8 cannot be verified as accurate (confidence 2) [6FC6E7C7], AccurateRip returned [02C6A377] (AR v2)
Track 9 cannot be verified as accurate (confidence 2) [8AFDCDDA], AccurateRip returned [1235336E] (AR v2)
Track 10 cannot be verified as accurate (confidence 2) [B2B66860], AccurateRip returned [2E13B078] (AR v2)
Track 11 cannot be verified as accurate (confidence 2) [E0477C8B], AccurateRip returned [90264F8C] (AR v2)
Track 12 cannot be verified as accurate (confidence 2) [1BE3CA98], AccurateRip returned [B9754B7A] (AR v2)
Track 13 cannot be verified as accurate (confidence 2) [C113DF4F], AccurateRip returned [FCF8D17B] (AR v2)
Track 14 cannot be verified as accurate (confidence 2) [365CE057], AccurateRip returned [3F256F77] (AR v2)
Track 15 cannot be verified as accurate (confidence 2) [4E15A74F], AccurateRip returned [750B9DF3] (AR v2)
Track 16 cannot be verified as accurate (confidence 2) [C24A1C96], AccurateRip returned [AE4FD995] (AR v2)
Track 17 cannot be verified as accurate (confidence 2) [8F80BC21], AccurateRip returned [7D5BA624] (AR v2)
Track 18 cannot be verified as accurate (confidence 2) [AE5C0206], AccurateRip returned [A37848B5] (AR v2)
Track 19 cannot be verified as accurate (confidence 2) [189BF675], AccurateRip returned [8045C5D9] (AR v2)
Track 20 cannot be verified as accurate (confidence 2) [89BA3503], AccurateRip returned [447FA62B] (AR v2)

No tracks could be verified as accurate
You may have a different pressing from the one(s) in the database

End of status report

–– CUETools DB Plugin V2.1.3

[CTDB TOCID: SfpOvZzucUJ4jqUazANqA9BHpoU-] found, Submit result: SfpOvZzucUJ4jqUazANqA9BHpoU- has been confirmed
[8a228b0c] (1/3) Differs in 6 samples @10:29:58,10:31:15,10:31:26
[4410e32a] (2/3) Accurately ripped
You can use CUETools to repair this rip.


==== Log checksum B0A0CC4FCDD281E893B73D76D64747024693B49B135AD2199EAA13C0F4DC6ACB ====

foobar2000 1.2.6 / Dynamic Range Meter 1.1.1
log date: 2017-07-30 16:07:24

––––––––––––––––––––––––––––––––––––––––
Analyzed: Tom Jones / The Best of Tom Jones (disc 1)
––––––––––––––––––––––––––––––––––––––––

DR Peak RMS Duration Track
––––––––––––––––––––––––––––––––––––––––
DR12 0.00 dB -15.03 dB 2:44 01-Delilah
DR12 0.00 dB -14.67 dB 2:47 02-I Who Have Nothing
DR13 0.00 dB -19.98 dB 2:01 03-Daughter of Darkness
DR12 0.00 dB -16.11 dB 2:43 04-Without Love I Have Nothing
DR12 0.00 dB -14.35 dB 2:39 05-Pretty Woman
DR12 0.00 dB -15.76 dB 1:59 06-Something 'Bout You Baby I Like
DR13 0.00 dB -14.54 dB 2:47 07-You Don't Have to Say You Love Me
DR13 0.00 dB -15.45 dB 2:42 08-Lady Madonna
DR14 0.00 dB -16.20 dB 2:02 09-Celebration
DR13 -0.49 dB -16.29 dB 2:19 10-Spanish Harlem
DR12 0.00 dB -14.51 dB 2:40 11-Higher & Higher
DR13 0.00 dB -14.76 dB 2:20 12-Show Me
DR11 0.00 dB -13.98 dB 1:49 13-Hound Dog
DR12 0.00 dB -13.34 dB 2:13 14-In the Midnight Hour
DR14 0.00 dB -15.27 dB 2:21 15-Proud Mary
DR12 0.00 dB -16.30 dB 1:57 16-Don't Be Cruel
DR13 0.00 dB -14.65 dB 1:53 17-Baby Face
DR12 0.00 dB -15.38 dB 2:18 18-What's New Pussycat
DR12 0.00 dB -15.72 dB 1:40 19-Can't Buy Me Love
DR12 0.00 dB -15.41 dB 3:40 20-My Way
––––––––––––––––––––––––––––––––––––––––

Number of tracks: 20
Official DR value: DR12

Samplerate: 44100 Hz
Channels: 2
Bits per sample: 16
Bitrate: 577 kbps
Codec: FLAC
================================================================================

[CUETools log; Date: 30.07.2017 16:07:08; Version: 2.1.5]
[CTDB TOCID: SfpOvZzucUJ4jqUazANqA9BHpoU-] found.
Track | CTDB Status
1 | (4/4) Accurately ripped
2 | (4/4) Accurately ripped
3 | (4/4) Accurately ripped
4 | (4/4) Accurately ripped
5 | (3/4) Accurately ripped, or (1/4) differs in 6 samples @00:14:30,00:15:62,00:15:73
6 | (4/4) Accurately ripped
7 | (4/4) Accurately ripped
8 | (4/4) Accurately ripped
9 | (4/4) Accurately ripped
10 | (4/4) Accurately ripped
11 | (4/4) Accurately ripped
12 | (4/4) Accurately ripped
13 | (4/4) Accurately ripped
14 | (4/4) Accurately ripped
15 | (4/4) Accurately ripped
16 | (4/4) Accurately ripped
17 | (4/4) Accurately ripped
18 | (4/4) Accurately ripped
19 | (4/4) Accurately ripped
20 | (4/4) Accurately ripped
[AccurateRip ID: 0022f53c-01fb6d8c-240b2514] found.
Track [ CRC | V2 ] Status
01 [af3cc11b|0981eb5a] (0+0/2) No match
02 [5159bd92|d9927bec] (0+0/2) No match
03 [7efed191|07b1dd96] (0+0/2) No match
04 [42db981c|acbd0d09] (0+0/2) No match
05 [5665f903|b09a2fc2] (0+0/2) No match
06 [a7f116aa|02a26892] (0+0/2) No match
07 [8d863740|7170bc6a] (0+0/2) No match
08 [32ecf92a|6fc6e7c7] (0+0/2) No match
09 [5d7952a4|8afdcdda] (0+0/2) No match
10 [bfc64db6|b2b66860] (0+0/2) No match
11 [aa7e8723|e0477c8b] (0+0/2) No match
12 [9475d99b|1be3ca98] (0+0/2) No match
13 [f1d5fcb2|c113df4f] (0+0/2) No match
14 [8dc7cdb5|365ce057] (0+0/2) No match
15 [0c389394|4e15a74f] (0+0/2) No match
16 [88dd0207|c24a1c96] (0+0/2) No match
17 [8e07bafc|8f80bc21] (0+0/2) No match
18 [e2990b49|ae5c0206] (0+0/2) No match
19 [f18fab40|189bf675] (0+0/2) No match
20 [e49bb7cf|89ba3503] (0+0/2) No match
Offsetted by -36:
01 [5d07b560] (0/2) No match (V2 was not tested)
02 [d7e1ec52] (0/2) No match (V2 was not tested)
03 [3423307d] (0/2) No match (V2 was not tested)
04 [bb20d580] (0/2) No match (V2 was not tested)
05 [3ceeda27] (0/2) No match (V2 was not tested)
06 [4cd0373a] (0/2) No match (V2 was not tested)
07 [9af5c9e8] (0/2) No match (V2 was not tested)
08 [be6b1942] (0/2) No match (V2 was not tested)
09 [df15b2a0] (0/2) No match (V2 was not tested)
10 [34b70bb2] (0/2) No match (V2 was not tested)
11 [52e2d22b] (0/2) No match (V2 was not tested)
12 [2b8c52b3] (0/2) No match (V2 was not tested)
13 [28b0f9be] (0/2) No match (V2 was not tested)
14 [90768f29] (0/2) No match (V2 was not tested)
15 [2c905bec] (0/2) No match (V2 was not tested)
16 [6f6bfa4b] (0/2) No match (V2 was not tested)
17 [76b3a83c] (0/2) No match (V2 was not tested)
18 [d13da1d5] (0/2) No match (V2 was not tested)
19 [54a30898] (0/2) No match (V2 was not tested)
20 [9ed3ee13] (0/2) No match (V2 was not tested)
Offsetted by -2:
01 [36ecdbb3] (0/2) No match (V2 was not tested)
02 [ca9a31f2] (0/2) No match (V2 was not tested)
03 [2580d6d7] (0/2) No match (V2 was not tested)
04 [026da9be] (0/2) No match (V2 was not tested)
05 [388a0585] (0/2) No match (V2 was not tested)
06 [94a826b2] (0/2) No match (V2 was not tested)
07 [639aa2f4] (0/2) No match (V2 was not tested)
08 [100233d6] (0/2) No match (V2 was not tested)
09 [483ae632] (0/2) No match (V2 was not tested)
10 [d47e5844] (0/2) No match (V2 was not tested)
11 [5e841987] (0/2) No match (V2 was not tested)
12 [722ffcc7] (0/2) No match (V2 was not tested)
13 [ca377c88] (0/2) No match (V2 was not tested)
14 [c6d1831f] (0/2) No match (V2 was not tested)
15 [f192c960] (0/2) No match (V2 was not tested)
16 [5cc88199] (0/2) No match (V2 was not tested)
17 [d3d8649c] (0/2) No match (V2 was not tested)
18 [28bea1df] (0/2) No match (V2 was not tested)
19 [5a9ef78c] (0/2) No match (V2 was not tested)
20 [bc2982aa] (0/2) No match (V2 was not tested)

Track Peak [ CRC32 ] [W/O NULL] [ LOG ]
– 100,0 [BC9CDCF6] [0C3BF197] CRC32
01 99,9 [776AE350] [9A14B3BB]
02 99,9 [6F5FBFF4] [24BD3E9D]
03 99,9 [B86A50D0] [D2533195]
04 100,0 [79C8CF80] [1947FAE4]
05 99,9 [F20E2517] [93A214BD]
06 99,9 [2584042E] [23AADB49]
07 99,9 [E8D62B15] [C0A782E0]
08 99,9 [908E33B8] [F8796903]
09 99,9 [A591D3B6] [59A10642]
10 94,4 [C3C28F1A] [C89041D6]
11 99,9 [E7B20E8E] [9BFA734F]
12 99,9 [DC6DCD79] [33DE80F0]
13 99,9 [3C390612] [96AB8062]
14 99,9 [8AF42463] [CA34A626]
15 99,9 [7F0CE05D] [44B3D0F2]
16 99,9 [B44E07F5] [D1AB7EC1]
17 100,0 [ADCBB9F6] [6CA298AC]
18 99,9 [DF890EBA] [E15410FC]
19 100,0 [A68745CF] [B09C514C]
20 99,9 [96278F04] [5004A7A8]

Tom Jones - The Best Of Tom Jones: 60 Classic Hits (1999) {3CD Box Set}

Tom Jones - The Best Of Tom Jones: 60 Classic Hits (1999) {3CD Box Set}

Track List CD2:

01. Green Green Grass of Home [2:38]
02. Behind Closed Doors [3:00]
03. He Stopped Loving Her Today [2:58]
04. Say You'll Stay Until Tomorrow [2:23]
05. Help Me Make It Through the Night [3:23]
06. Georgia on My Mind [3:30]
07. Please Release Me [2:26]
08. I'm So Lonesome I Could Cry [2:32]
09. Funny How Time Slips Away [2:48]
10. I Can See Clearly Now [2:17]
11. If I Ruled the World [2:37]
12. She Believes in Me [3:58]
13. I Know I'll Never Love This Way Again [3:09]
14. Take Me to the River [3:00]
15. The Most Beautiful Girl in the World [2:45]
16. I Need Your Lovin' [2:09]
17. You Are the Sunshine of My Life [2:39]
18. I Thank You [2:10]
19. Save the Last Dance for Me [2:21]
20. I Can't Stop Lovin' You [3:23]

Exact Audio Copy V1.0 beta 3 from 29. August 2011

EAC extraction logfile from 18. July 2017, 0:07

Tom Jones / The Best of Tom Jones, Volume 2

Used drive : PIONEER BD-RW BDR-TD03 Adapter: 0 ID: 1

Read mode : Secure
Utilize accurate stream : Yes
Defeat audio cache : Yes
Make use of C2 pointers : No

Read offset correction : 667
Overread into Lead-In and Lead-Out : No
Fill up missing offset samples with silence : Yes
Delete leading and trailing silent blocks : No
Null samples used in CRC calculations : Yes
Used interface : Native Win32 interface for Win NT & 2000

Used output format : User Defined Encoder
Selected bitrate : 768 kBit/s
Quality : High
Add ID3 tag : No
Command line compressor : C:\Program Files (x86)\Exact Audio Copy\FLAC\FLAC.EXE
Additional command line options : -6 -V -T "ARTIST=%artist%" -T "TITLE=%title%" -T "ALBUM=%albumtitle%" -T "DATE=%year%" -T "TRACKNUMBER=%tracknr%" -T "GENRE=%genre%" -T "COMMENT=%comment%" -T "BAND=%albuminterpret%" -T "ALBUMARTIST=%albuminterpret%" -T "COMPOSER=%composer%" %haslyrics%–tag-from-file=LYRICS="%lyricsfile%"%haslyrics% -T "DISCNUMBER=%cdnumber%" -T "TOTALDISCS=%totalcds%" -T "TOTALTRACKS=%numtracks%" %hascover%–picture="%coverfile%"%hascover% %source% -o %dest%


TOC of the extracted CD

Track | Start | Length | Start sector | End sector
––––––––––––––––––––––––––––-
1 | 0:00.00 | 2:38.15 | 0 | 11864
2 | 2:38.15 | 3:00.28 | 11865 | 25392
3 | 5:38.43 | 2:58.18 | 25393 | 38760
4 | 8:36.61 | 2:22.39 | 38761 | 49449
5 | 10:59.25 | 3:22.52 | 49450 | 64651
6 | 14:22.02 | 3:30.27 | 64652 | 80428
7 | 17:52.29 | 2:25.47 | 80429 | 91350
8 | 20:18.01 | 2:31.57 | 91351 | 102732
9 | 22:49.58 | 2:48.31 | 102733 | 115363
10 | 25:38.14 | 2:16.49 | 115364 | 125612
11 | 27:54.63 | 2:37.14 | 125613 | 137401
12 | 30:32.02 | 3:58.17 | 137402 | 155268
13 | 34:30.19 | 3:08.52 | 155269 | 169420
14 | 37:38.71 | 2:59.74 | 169421 | 182919
15 | 40:38.70 | 2:44.71 | 182920 | 195290
16 | 43:23.66 | 2:09.35 | 195291 | 205000
17 | 45:33.26 | 2:38.44 | 205001 | 216894
18 | 48:11.70 | 2:10.14 | 216895 | 226658
19 | 50:22.09 | 2:21.02 | 226659 | 237235
20 | 52:43.11 | 3:22.67 | 237236 | 252452


Range status and errors

Selected range

Filename C:\Users\Deris\Desktop\TomJoBes\CD2\Tom Jones - The Best of Tom Jones, Volume 2.wav

Peak level 100.0 %
Extraction speed 1.7 X
Range quality 100.0 %
Test CRC 79DEFE73
Copy CRC 79DEFE73
Copy OK

No errors occurred


AccurateRip summary

Track 1 accurately ripped (confidence 2) [428F46BA] (AR v2)
Track 2 accurately ripped (confidence 2) [1B259EEC] (AR v2)
Track 3 accurately ripped (confidence 2) [5B28398B] (AR v2)
Track 4 accurately ripped (confidence 2) [6BDCC040] (AR v2)
Track 5 accurately ripped (confidence 2) [03C0F30C] (AR v2)
Track 6 accurately ripped (confidence 2) [FA9DF41F] (AR v2)
Track 7 accurately ripped (confidence 2) [22F3311C] (AR v2)
Track 8 accurately ripped (confidence 2) [352ED0DD] (AR v2)
Track 9 accurately ripped (confidence 2) [387CFACF] (AR v2)
Track 10 accurately ripped (confidence 2) [BD2786CC] (AR v2)
Track 11 accurately ripped (confidence 2) [9BBCCE0B] (AR v2)
Track 12 accurately ripped (confidence 2) [629A5275] (AR v2)
Track 13 accurately ripped (confidence 2) [A5B47FFE] (AR v2)
Track 14 accurately ripped (confidence 2) [013CB489] (AR v2)
Track 15 accurately ripped (confidence 2) [8E383773] (AR v2)
Track 16 accurately ripped (confidence 2) [9A41AC47] (AR v2)
Track 17 accurately ripped (confidence 2) [97942290] (AR v2)
Track 18 accurately ripped (confidence 2) [D6D878A7] (AR v2)
Track 19 accurately ripped (confidence 2) [F36B72D9] (AR v2)
Track 20 accurately ripped (confidence 2) [A4C06E51] (AR v2)

All tracks accurately ripped

End of status report

–– CUETools DB Plugin V2.1.3

[CTDB TOCID: TtVcR9KSv3LyThXaaUkdWFTYwoA-] found, Submit result: TtVcR9KSv3LyThXaaUkdWFTYwoA- has been confirmed
[8f77ee6a] (2/2) Accurately ripped


==== Log checksum 3295DBD8A0BBC3D293954EBAE35653718A10E7E283A5A4D7DA7E419F2ADFC217 ====

foobar2000 1.2.6 / Dynamic Range Meter 1.1.1
log date: 2017-07-30 16:08:10

––––––––––––––––––––––––––––––––––––––––
Analyzed: Tom Jones / The Best of Tom Jones, Volume 2
––––––––––––––––––––––––––––––––––––––––

DR Peak RMS Duration Track
––––––––––––––––––––––––––––––––––––––––
DR15 -0.98 dB -17.92 dB 2:38 01-Green Green Grass of Home
DR13 0.00 dB -18.55 dB 3:00 02-Behind Closed Doors
DR13 -1.84 dB -17.97 dB 2:58 03-He Stopped Loving Her Today
DR14 -1.15 dB -17.95 dB 2:23 04-Say You'll Stay Until Tomorrow
DR13 -2.15 dB -18.95 dB 3:23 05-Help Me Make It Through the Night
DR14 -0.89 dB -17.93 dB 3:30 06-Georgia on My Mind
DR12 -4.56 dB -19.10 dB 2:26 07-Please Release Me
DR12 -1.98 dB -16.68 dB 2:32 08-I'm So Lonesome I Could Cry
DR11 -2.41 dB -17.31 dB 2:48 09-Funny How Time Slips Away
DR12 -0.62 dB -14.54 dB 2:17 10-I Can See Clearly Now
DR12 0.00 dB -14.62 dB 2:37 11-If I Ruled the World
DR13 -0.56 dB -16.50 dB 3:58 12-She Believes in Me
DR12 -2.05 dB -17.41 dB 3:09 13-I Know I'll Never Love This Way Again
DR14 0.00 dB -15.25 dB 3:00 14-Take Me to the River
DR15 -3.35 dB -20.05 dB 2:45 15-The Most Beautiful Girl in the World
DR12 -1.52 dB -15.86 dB 2:09 16-I Need Your Lovin'
DR12 0.00 dB -15.36 dB 2:39 17-You Are the Sunshine of My Life
DR14 0.00 dB -15.52 dB 2:10 18-I Thank You
DR12 -1.16 dB -14.61 dB 2:21 19-Save the Last Dance for Me
DR12 -0.12 dB -16.27 dB 3:23 20-I Can't Stop Lovin' You
––––––––––––––––––––––––––––––––––––––––

Number of tracks: 20
Official DR value: DR13

Samplerate: 44100 Hz
Channels: 2
Bits per sample: 16
Bitrate: 519 kbps
Codec: FLAC
================================================================================

[CUETools log; Date: 30.07.2017 16:08:05; Version: 2.1.5]
[CTDB TOCID: TtVcR9KSv3LyThXaaUkdWFTYwoA-] found.
Track | CTDB Status
1 | (3/3) Accurately ripped
2 | (3/3) Accurately ripped
3 | (3/3) Accurately ripped
4 | (3/3) Accurately ripped
5 | (3/3) Accurately ripped
6 | (3/3) Accurately ripped
7 | (3/3) Accurately ripped
8 | (3/3) Accurately ripped
9 | (3/3) Accurately ripped
10 | (3/3) Accurately ripped
11 | (3/3) Accurately ripped
12 | (3/3) Accurately ripped
13 | (3/3) Accurately ripped
14 | (3/3) Accurately ripped
15 | (3/3) Accurately ripped
16 | (3/3) Accurately ripped
17 | (3/3) Accurately ripped
18 | (3/3) Accurately ripped
19 | (3/3) Accurately ripped
20 | (3/3) Accurately ripped
[AccurateRip ID: 0028f4fe-02579213-f30d2614] found.
Track [ CRC | V2 ] Status
01 [47011f12|428f46ba] (0+2/4) Accurately ripped
02 [356f9bbe|1b259eec] (0+2/4) Accurately ripped
03 [07dde4b2|5b28398b] (0+2/4) Accurately ripped
04 [686a0168|6bdcc040] (0+2/4) Accurately ripped
05 [ae6c5c29|03c0f30c] (0+2/4) Accurately ripped
06 [a0627aad|fa9df41f] (0+2/4) Accurately ripped
07 [10e85b98|22f3311c] (0+2/4) Accurately ripped
08 [919cf3a6|352ed0dd] (0+2/4) Accurately ripped
09 [f42ff634|387cfacf] (0+2/4) Accurately ripped
10 [b5a1d388|bd2786cc] (0+2/4) Accurately ripped
11 [bef37a48|9bbcce0b] (0+2/4) Accurately ripped
12 [e0b47b7e|629a5275] (0+2/4) Accurately ripped
13 [368a489d|a5b47ffe] (0+2/4) Accurately ripped
14 [5479c7da|013cb489] (0+2/4) Accurately ripped
15 [7c7b7080|8e383773] (0+2/4) Accurately ripped
16 [452cc2f4|9a41ac47] (0+2/4) Accurately ripped
17 [db2563a1|97942290] (0+2/4) Accurately ripped
18 [f968b546|d6d878a7] (0+2/4) Accurately ripped
19 [abedcc84|f36b72d9] (0+2/4) Accurately ripped
20 [63952fc8|a4c06e51] (0+2/4) Accurately ripped
Offsetted by -18:
01 [980b4ffa] (0/4) No match (V2 was not tested)
02 [dfaedd1a] (0/4) No match (V2 was not tested)
03 [9fd1eeae] (0/4) No match (V2 was not tested)
04 [d5ca801c] (0/4) No match (V2 was not tested)
05 [abc672d9] (0/4) No match (V2 was not tested)
06 [479037a9] (0/4) No match (V2 was not tested)
07 [9ee78a94] (0/4) No match (V2 was not tested)
08 [d989a4ca] (0/4) No match (V2 was not tested)
09 [0b7881f8] (0/4) No match (V2 was not tested)
10 [51c43478] (0/4) No match (V2 was not tested)
11 [925916b0] (0/4) No match (V2 was not tested)
12 [0442c55a] (0/4) No match (V2 was not tested)
13 [7debe869] (0/4) No match (V2 was not tested)
14 [473c6964] (0/4) No match (V2 was not tested)
15 [c3de0018] (0/4) No match (V2 was not tested)
16 [a96793a6] (0/4) No match (V2 was not tested)
17 [7cf18665] (0/4) No match (V2 was not tested)
18 [9e448158] (0/4) No match (V2 was not tested)
19 [a8346828] (0/4) No match (V2 was not tested)
20 [9878a0c0] (0/4) No match (V2 was not tested)

Track Peak [ CRC32 ] [W/O NULL] [ LOG ]
– 100,0 [79DEFE73] [C3235EFC] CRC32
01 89,3 [B9206939] [0E539F7F]
02 100,0 [46D01712] [ED731AB9]
03 80,8 [01ACC1A2] [F5B2233B]
04 87,6 [AEA817C5] [CCAF27ED]
05 78,1 [233DB4C2] [EB2553AE]
06 90,2 [C9AD2431] [928B8790]
07 59,1 [F87D6AFD] [ED78C756]
08 79,6 [A27914F7] [4808D647]
09 75,7 [0019FF12] [44F854ED]
10 93,0 [A46B224C] [0D13FFF4]
11 99,9 [81F95F91] [15E1482C]
12 93,7 [3F208FA5] [682DBAFA]
13 78,9 [C4F4E921] [316991F6]
14 100,0 [88287ED7] [9E193316]
15 67,9 [70E6A914] [1F1163E6]
16 83,9 [1E927F8D] [4B700BCD]
17 100,0 [E83B4E4F] [B3FD2A4D]
18 99,9 [0960DCF3] [A922A728]
19 87,5 [2AF60B67] [064CA6FD]
20 98,6 [699FF523] [4BB1FF8C]

Tom Jones - The Best Of Tom Jones: 60 Classic Hits (1999) {3CD Box Set}

Tom Jones - The Best Of Tom Jones: 60 Classic Hits (1999) {3CD Box Set}

Track List CD3:

01. She's A Lady [2:02]
02. You're My World [3:01]
03. Love Me Tonight [2:41]
04. The Long & Winding Bend [2:34]
05. Unchained Melody [3:16]
06. Endless Love (with Dionne Warwick) [2:52]
07. On Broadway [2:26]
08. Got to Get You Into My Life [2:30]
09. For Once In My Life [2:13]
10. If Ever I Should Leave You [2:57]
11. Try A Little Tenderness [2:28]
12. As Time Goes By [3:08]
13. Danny Boy [2:44]
14. Bridge Over Troubled Waters [3:10]
15. Don't Cry For Me Argentina [2:44]
16. Fever [2:34]
17. Yesterday [2:57]
18. Let It Be [3:05]
19. Upside Down [1:58]
20. You've Lost That Loving Feeling [3:16]

Exact Audio Copy V1.0 beta 3 from 29. August 2011

EAC extraction logfile from 18. July 2017, 13:50

Tom Jones / Love Songs (Vol.3)

Used drive : PIONEER BD-RW BDR-TD03 Adapter: 0 ID: 1

Read mode : Secure
Utilize accurate stream : Yes
Defeat audio cache : Yes
Make use of C2 pointers : No

Read offset correction : 667
Overread into Lead-In and Lead-Out : No
Fill up missing offset samples with silence : Yes
Delete leading and trailing silent blocks : No
Null samples used in CRC calculations : Yes
Used interface : Native Win32 interface for Win NT & 2000

Used output format : User Defined Encoder
Selected bitrate : 768 kBit/s
Quality : High
Add ID3 tag : No
Command line compressor : C:\Program Files (x86)\Exact Audio Copy\FLAC\FLAC.EXE
Additional command line options : -6 -V -T "ARTIST=%artist%" -T "TITLE=%title%" -T "ALBUM=%albumtitle%" -T "DATE=%year%" -T "TRACKNUMBER=%tracknr%" -T "GENRE=%genre%" -T "COMMENT=%comment%" -T "BAND=%albuminterpret%" -T "ALBUMARTIST=%albuminterpret%" -T "COMPOSER=%composer%" %haslyrics%–tag-from-file=LYRICS="%lyricsfile%"%haslyrics% -T "DISCNUMBER=%cdnumber%" -T "TOTALDISCS=%totalcds%" -T "TOTALTRACKS=%numtracks%" %hascover%–picture="%coverfile%"%hascover% %source% -o %dest%


TOC of the extracted CD

Track | Start | Length | Start sector | End sector
––––––––––––––––––––––––––––-
1 | 0:00.00 | 2:01.52 | 0 | 9126
2 | 2:01.52 | 3:00.50 | 9127 | 22676
3 | 5:02.27 | 2:40.40 | 22677 | 34716
4 | 7:42.67 | 2:33.50 | 34717 | 46241
5 | 10:16.42 | 3:16.03 | 46242 | 60944
6 | 13:32.45 | 2:51.44 | 60945 | 73813
7 | 16:24.14 | 2:26.13 | 73814 | 84776
8 | 18:50.27 | 2:30.08 | 84777 | 96034
9 | 21:20.35 | 2:13.04 | 96035 | 106013
10 | 23:33.39 | 2:57.26 | 106014 | 119314
11 | 26:30.65 | 2:28.05 | 119315 | 130419
12 | 28:58.70 | 3:08.25 | 130420 | 144544
13 | 32:07.20 | 2:43.55 | 144545 | 156824
14 | 34:51.00 | 3:10.26 | 156825 | 171100
15 | 38:01.26 | 2:44.33 | 171101 | 183433
16 | 40:45.59 | 2:33.40 | 183434 | 194948
17 | 43:19.24 | 2:56.67 | 194949 | 208215
18 | 46:16.16 | 3:04.47 | 208216 | 222062
19 | 49:20.63 | 1:58.24 | 222063 | 230936
20 | 51:19.12 | 3:16.07 | 230937 | 245643


Range status and errors

Selected range

Filename C:\Users\Deris\Desktop\TomJoBes\CD3\Tom Jones - Love Songs (Vol.3).wav

Peak level 100.0 %
Extraction speed 1.7 X
Range quality 100.0 %
Test CRC E1137DCA
Copy CRC E1137DCA
Copy OK

No errors occurred


AccurateRip summary

Track 1 accurately ripped (confidence 1) [429613BE] (AR v2)
Track 2 accurately ripped (confidence 1) [116F5B6A] (AR v2)
Track 3 accurately ripped (confidence 1) [4C1379C2] (AR v2)
Track 4 accurately ripped (confidence 1) [5079CBB4] (AR v2)
Track 5 accurately ripped (confidence 1) [85CEFA5F] (AR v2)
Track 6 accurately ripped (confidence 1) [A5501913] (AR v2)
Track 7 accurately ripped (confidence 1) [3DE6CDDC] (AR v2)
Track 8 accurately ripped (confidence 1) [A6962B8C] (AR v2)
Track 9 accurately ripped (confidence 1) [63FB3732] (AR v2)
Track 10 accurately ripped (confidence 1) [DF858359] (AR v2)
Track 11 accurately ripped (confidence 1) [C0B3CA67] (AR v2)
Track 12 accurately ripped (confidence 1) [23B109B5] (AR v2)
Track 13 accurately ripped (confidence 1) [4540744D] (AR v2)
Track 14 accurately ripped (confidence 1) [98789E1A] (AR v2)
Track 15 accurately ripped (confidence 1) [F4EBCC44] (AR v2)
Track 16 accurately ripped (confidence 1) [5D3B965B] (AR v2)
Track 17 accurately ripped (confidence 1) [7D117D20] (AR v2)
Track 18 accurately ripped (confidence 1) [3D108DF9] (AR v2)
Track 19 accurately ripped (confidence 1) [8F8DBA2F] (AR v2)
Track 20 accurately ripped (confidence 1) [37788557] (AR v2)

All tracks accurately ripped

End of status report

–– CUETools DB Plugin V2.1.3

[CTDB TOCID: F_N_94Oefbb8J_ToXUVERZDC.j0-] disk not present in database, Submit result: F_N_94Oefbb8J_ToXUVERZDC.j0- has been uploaded


==== Log checksum 50B94B553888C0A1BBB896090F011D97EC764A50B9911F3C8559FEB20E1FB393 ====

foobar2000 1.2.6 / Dynamic Range Meter 1.1.1
log date: 2017-07-30 16:08:47

––––––––––––––––––––––––––––––––––––––––
Analyzed: Tom Jones / Love Songs (Vol.3)
––––––––––––––––––––––––––––––––––––––––

DR Peak RMS Duration Track
––––––––––––––––––––––––––––––––––––––––
DR12 -1.48 dB -15.98 dB 2:02 01-She's A Lady
DR12 -1.27 dB -15.99 dB 3:01 02-You're My World
DR13 -0.72 dB -17.55 dB 2:41 03-Love Me Tonight
DR12 -2.43 dB -17.41 dB 2:34 04-The Long & Winding Bend
DR12 -0.87 dB -15.56 dB 3:16 05-Unchained Melody
DR13 0.00 dB -16.65 dB 2:52 06-Endless Love (with Dionne Warwick)
DR13 -2.34 dB -17.04 dB 2:26 07-On Broadway
DR13 0.00 dB -16.29 dB 2:30 08-Got to Get You Into My Life
DR12 -1.50 dB -16.30 dB 2:13 09-For Once In My Life
DR11 -1.93 dB -16.15 dB 2:57 10-If Ever I Should Leave You
DR14 -1.75 dB -17.32 dB 2:28 11-Try A Little Tenderness
DR14 0.00 dB -16.89 dB 3:08 12-As Time Goes By
DR11 -2.57 dB -16.69 dB 2:44 13-Danny Boy
DR13 -3.75 dB -18.58 dB 3:10 14-Bridge Over Troubled Waters
DR14 -2.75 dB -19.32 dB 2:44 15-Don't Cry For Me Argentina
DR12 -1.31 dB -15.93 dB 2:34 16-Fever
DR11 -2.66 dB -16.52 dB 2:57 17-Yesterday
DR14 -2.56 dB -19.63 dB 3:05 18-Let It Be
DR15 -2.75 dB -19.79 dB 1:58 19-Upside Down
DR13 -1.90 dB -17.38 dB 3:16 20-You've Lost That Loving Feeling
––––––––––––––––––––––––––––––––––––––––

Number of tracks: 20
Official DR value: DR13

Samplerate: 44100 Hz
Channels: 2
Bits per sample: 16
Bitrate: 543 kbps
Codec: FLAC
================================================================================

[CUETools log; Date: 30.07.2017 16:08:43; Version: 2.1.5]
[CTDB TOCID: F_N_94Oefbb8J_ToXUVERZDC.j0-] found.
Track | CTDB Status
1 | (1/1) Accurately ripped
2 | (1/1) Accurately ripped
3 | (1/1) Accurately ripped
4 | (1/1) Accurately ripped
5 | (1/1) Accurately ripped
6 | (1/1) Accurately ripped
7 | (1/1) Accurately ripped
8 | (1/1) Accurately ripped
9 | (1/1) Accurately ripped
10 | (1/1) Accurately ripped
11 | (1/1) Accurately ripped
12 | (1/1) Accurately ripped
13 | (1/1) Accurately ripped
14 | (1/1) Accurately ripped
15 | (1/1) Accurately ripped
16 | (1/1) Accurately ripped
17 | (1/1) Accurately ripped
18 | (1/1) Accurately ripped
19 | (1/1) Accurately ripped
20 | (1/1) Accurately ripped
[AccurateRip ID: 0026c8e5-023b7eac-100ccb14] found.
Track [ CRC | V2 ] Status
01 [f88cf759|429613be] (0+1/1) Accurately ripped
02 [beac31f2|116f5b6a] (0+1/1) Accurately ripped
03 [25770d6c|4c1379c2] (0+1/1) Accurately ripped
04 [22b34950|5079cbb4] (0+1/1) Accurately ripped
05 [8b4c45fd|85cefa5f] (0+1/1) Accurately ripped
06 [f398003a|a5501913] (0+1/1) Accurately ripped
07 [e5da3573|3de6cddc] (0+1/1) Accurately ripped
08 [2c3ec410|a6962b8c] (0+1/1) Accurately ripped
09 [39c54b0e|63fb3732] (0+1/1) Accurately ripped
10 [0ec70ece|df858359] (0+1/1) Accurately ripped
11 [8188c3b2|c0b3ca67] (0+1/1) Accurately ripped
12 [f5b72040|23b109b5] (0+1/1) Accurately ripped
13 [16fef2ed|4540744d] (0+1/1) Accurately ripped
14 [059d62c3|98789e1a] (0+1/1) Accurately ripped
15 [c91dd67f|f4ebcc44] (0+1/1) Accurately ripped
16 [15b13747|5d3b965b] (0+1/1) Accurately ripped
17 [47e5afcc|7d117d20] (0+1/1) Accurately ripped
18 [cd983e39|3d108df9] (0+1/1) Accurately ripped
19 [6ef45b80|8f8dba2f] (0+1/1) Accurately ripped
20 [2fdf7b64|37788557] (0+1/1) Accurately ripped

Track Peak [ CRC32 ] [W/O NULL] [ LOG ]
– 100,0 [E1137DCA] [4577000B] CRC32
01 84,3 [CC325498] [FCF657DD]
02 86,3 [32F18DDE] [46FCE228]
03 92,0 [36028647] [349AF20B]
04 75,5 [49054C31] [688282B6]
05 90,4 [32EC80E1] [BB954E5F]
06 99,9 [DAC73B98] [23BA8629]
07 76,3 [305DDF54] [4801748D]
08 100,0 [7242B50F] [DC647E74]
09 84,1 [37E51F96] [0A0AF01E]
10 80,0 [8F1D0812] [EBCACD3F]
11 81,7 [A6309281] [BAC34C63]
12 100,0 [4FB595D5] [30447D24]
13 74,4 [441C12F1] [0612D6BA]
14 64,9 [15DBB2D4] [3F180210]
15 72,8 [10E0AFE3] [B582C2A7]
16 85,9 [6D9FE922] [ECEC9D2F]
17 73,6 [1D971CF2] [F09AC2C4]
18 74,4 [08B1D0F2] [D9EA0E96]
19 72,8 [3DA72006] [20B616A4]
20 80,3 [021DDB46] [C3E2BB40]

Tom Jones - The Best Of Tom Jones: 60 Classic Hits (1999) {3CD Box Set}

All thanks go to Boris1

>>> Tom Jones in my Blog <<<

Download from icerbox.com: