Subcategories

Tom Petty And The Heartbreakers - Pack Up The Plantation: Live! (1985)

Posted By: popsakov
Tom Petty And The Heartbreakers - Pack Up The Plantation: Live! (1985)

Tom Petty And The Heartbreakers - Pack Up The Plantation: Live! (1985)
EAC Rip | FLAC (Img) + Cue + Log ~ 478 Mb | MP3 CBR320 ~ 173 Mb
Scans (PNG, 400 dpi) ~ 66 Mb | RAR 5% Recovery
Classic Rock, Heartland Rock | MCA Records #MCAD2-8021 / JVC-435

Considering that Southern Accents took so much time and money to complete, finally hitting the stores two and a half years after Long After Dark, it wasn't surprising that Tom Petty & the Heartbreakers decided to release a double live album, Pack Up the Plantation: Live!, a mere eight months after its release. After all, Southern Accents was criticized from many corners for being too slick, too much in Dave Stewart's corner instead of the Heartbreakers', so it made sense to quickly return the focus to the band, showcasing the group as the rockers they are. Pack Up the Plantation does do that, even if it isn't quite the barnburner it should have been. Part of the problem is that the song selection isn't quite as good as it could have been, relying heavily on Southern Accents material, including the weak "It Ain't Nothin' to Me." Then again, the weaker songs and dubious choices are outweighed by a strong performance and neat surprises like a tough "Insider" and covers of "So You Want to Be a Rock & Roll Star," "Needles and Pins," and "Don't Bring Me Down." That alone makes it worth investigating for dedicated fans, even if it doesn't quite deliver the knockout punch many listeners might have wanted.
~ Stephen Thomas Erlewine, All Music

***************

Tom Petty And The Heartbreakers - Pack Up The Plantation: Live! (1985)

Tom Petty And The Heartbreakers - Pack Up The Plantation: Live! (1985)

Track List:

01. So You Want to Be A Rock & Roll Star [3:38]
02. Needles and Pins [2:26]
03. The Waiting [5:18]
04. Breakdown [7:38]
05. American Girl [4:02]
06. It Ain't Nothin' to Me [6:15]
07. Insider [5:26]
08. Rockin' Around (With You) [3:21]
09. Refugee [5:26]
10. Southern Accents [5:16]
11. Rebels [6:14]
12. Don't Bring Me Down [3:53]
13. Shout [9:36]
14. Stories We Could Tell [3:45]

Exact Audio Copy V1.0 beta 3 from 29. August 2011

EAC extraction logfile from 13. December 2017, 1:22

Tom Petty and the Heartbreakers / Pack Up The Plantation - Live!

Used drive : PIONEER BD-RW BDR-TD03 Adapter: 0 ID: 1

Read mode : Secure
Utilize accurate stream : Yes
Defeat audio cache : Yes
Make use of C2 pointers : No

Read offset correction : 667
Overread into Lead-In and Lead-Out : No
Fill up missing offset samples with silence : Yes
Delete leading and trailing silent blocks : No
Null samples used in CRC calculations : Yes
Used interface : Native Win32 interface for Win NT & 2000

Used output format : User Defined Encoder
Selected bitrate : 768 kBit/s
Quality : High
Add ID3 tag : No
Command line compressor : C:\Program Files (x86)\Exact Audio Copy\FLAC\FLAC.EXE
Additional command line options : -6 -V -T "ARTIST=%artist%" -T "TITLE=%title%" -T "ALBUM=%albumtitle%" -T "DATE=%year%" -T "TRACKNUMBER=%tracknr%" -T "GENRE=%genre%" -T "COMMENT=%comment%" -T "BAND=%albuminterpret%" -T "ALBUMARTIST=%albuminterpret%" -T "COMPOSER=%composer%" %haslyrics%–tag-from-file=LYRICS="%lyricsfile%"%haslyrics% -T "DISCNUMBER=%cdnumber%" -T "TOTALDISCS=%totalcds%" -T "TOTALTRACKS=%numtracks%" %hascover%–picture="%coverfile%"%hascover% %source% -o %dest%


TOC of the extracted CD

Track | Start | Length | Start sector | End sector
––––––––––––––––––––––––––––-
1 | 0:00.00 | 3:37.52 | 0 | 16326
2 | 3:37.52 | 2:25.48 | 16327 | 27249
3 | 6:03.25 | 5:18.07 | 27250 | 51106
4 | 11:21.32 | 7:37.58 | 51107 | 85439
5 | 18:59.15 | 4:01.42 | 85440 | 103556
6 | 23:00.57 | 6:14.63 | 103557 | 131669
7 | 29:15.45 | 5:26.37 | 131670 | 156156
8 | 34:42.07 | 3:21.28 | 156157 | 171259
9 | 38:03.35 | 5:26.00 | 171260 | 195709
10 | 43:29.35 | 5:15.50 | 195710 | 219384
11 | 48:45.10 | 6:14.37 | 219385 | 247471
12 | 54:59.47 | 3:53.28 | 247472 | 264974
13 | 58:53.00 | 9:35.55 | 264975 | 308154
14 | 68:28.55 | 3:44.65 | 308155 | 325019


Range status and errors

Selected range

Filename C:\Users\Deris\Desktop\PetLiv\Tom Petty and the Heartbreakers - Pack Up The Plantation - Live!.wav

Peak level 100.0 %
Extraction speed 2.1 X
Range quality 99.9 %
Test CRC B9797E96
Copy CRC B9797E96
Copy OK

No errors occurred


AccurateRip summary

Track 1 cannot be verified as accurate (confidence 5) [AF45E243], AccurateRip returned [E48A6B0D] (AR v2)
Track 2 cannot be verified as accurate (confidence 5) [15AFFA6E], AccurateRip returned [9920CB6C] (AR v2)
Track 3 cannot be verified as accurate (confidence 5) [E48CEE78], AccurateRip returned [4D4E980C] (AR v2)
Track 4 cannot be verified as accurate (confidence 5) [5D864F74], AccurateRip returned [EB39E8DB] (AR v2)
Track 5 cannot be verified as accurate (confidence 5) [10824666], AccurateRip returned [8B90001C] (AR v2)
Track 6 cannot be verified as accurate (confidence 5) [039ED28F], AccurateRip returned [F685C14B] (AR v2)
Track 7 cannot be verified as accurate (confidence 5) [FE9A8924], AccurateRip returned [65BB3C39] (AR v2)
Track 8 cannot be verified as accurate (confidence 5) [95F7DF77], AccurateRip returned [1E912894] (AR v2)
Track 9 cannot be verified as accurate (confidence 5) [738E22D3], AccurateRip returned [5C1FAAA3] (AR v2)
Track 10 cannot be verified as accurate (confidence 5) [5C91BBF9], AccurateRip returned [644AEFAC] (AR v2)
Track 11 cannot be verified as accurate (confidence 5) [53E84A5E], AccurateRip returned [D8FED7B3] (AR v2)
Track 12 cannot be verified as accurate (confidence 5) [F538A294], AccurateRip returned [A6CD91BC] (AR v2)
Track 13 cannot be verified as accurate (confidence 5) [81A22AA5], AccurateRip returned [39709C33] (AR v2)
Track 14 cannot be verified as accurate (confidence 5) [0078FB18], AccurateRip returned [92F7F66D] (AR v2)

No tracks could be verified as accurate
You may have a different pressing from the one(s) in the database

End of status report

–– CUETools DB Plugin V2.1.3

[CTDB TOCID: O3nZp0vZHR2jsgjI.4fJJ7BP.iE-] found, Submit result: O3nZp0vZHR2jsgjI.4fJJ7BP.iE- has been confirmed
[30bf1c0d] (18/19) Accurately ripped
[f415f0b1] (01/19) No match


==== Log checksum 824D7445D01A557AE6892BD99C525329E864A0EFBBA7F8005B93F1E397794EA1 ====

foobar2000 1.3.16 / Dynamic Range Meter 1.1.1
log date: 2017-12-16 14:27:48

––––––––––––––––––––––––––––––––––––––––
Analyzed: Tom Petty and the Heartbreakers / Pack Up The Plantation - Live!
––––––––––––––––––––––––––––––––––––––––

DR Peak RMS Duration Track
––––––––––––––––––––––––––––––––––––––––
DR13 -0.90 dB -15.39 dB 3:38 01-So You Want to Be A Rock & Roll Star
DR12 -2.75 dB -16.87 dB 2:26 02-Needles and Pins
DR14 -0.01 dB -17.92 dB 5:18 03-The Waiting
DR13 -2.84 dB -19.05 dB 7:38 04-Breakdown
DR13 -0.88 dB -15.54 dB 4:02 05-American Girl
DR14 -1.22 dB -17.11 dB 6:15 06-It Ain't Nothin' to Me
DR14 -2.41 dB -19.71 dB 5:26 07-Insider
DR13 -2.42 dB -17.21 dB 3:21 08-Rockin' Around (With You)
DR13 -0.55 dB -16.05 dB 5:26 09-Refugee
DR14 -4.01 dB -22.62 dB 5:16 10-Southern Accents
DR12 -0.87 dB -15.48 dB 6:14 11-Rebels
DR12 -1.40 dB -15.59 dB 3:53 12-Don't Bring Me Down
DR15 0.00 dB -17.71 dB 9:36 13-Shout
DR11 -3.65 dB -18.05 dB 3:45 14-Stories We Could Tell
––––––––––––––––––––––––––––––––––––––––

Number of tracks: 14
Official DR value: DR13

Samplerate: 44100 Hz
Channels: 2
Bits per sample: 16
Bitrate: 882 kbps
Codec: FLAC
================================================================================

[CUETools log; Date: 16.12.2017 14:27:59; Version: 2.1.5]
[CTDB TOCID: O3nZp0vZHR2jsgjI.4fJJ7BP.iE-] found.
Track | CTDB Status
1 | (20/20) Accurately ripped
2 | (20/20) Accurately ripped
3 | (20/20) Accurately ripped
4 | (20/20) Accurately ripped
5 | (20/20) Accurately ripped
6 | (20/20) Accurately ripped
7 | (20/20) Accurately ripped
8 | (20/20) Accurately ripped
9 | (20/20) Accurately ripped
10 | (20/20) Accurately ripped
11 | (20/20) Accurately ripped
12 | (20/20) Accurately ripped
13 | (20/20) Accurately ripped
14 | (19/20) Accurately ripped
[AccurateRip ID: 002325fd-017e4a6d-b010ed0e] found.
Track [ CRC | V2 ] Status
01 [53230efb|af45e243] (00+00/23) No match
02 [9505e214|15affa6e] (00+00/25) No match
03 [e5dfd0fe|e48cee78] (00+00/23) No match
04 [ce8f152a|5d864f74] (00+00/22) No match
05 [9af465a7|10824666] (00+00/22) No match
06 [f373bdec|039ed28f] (00+00/22) No match
07 [a91d05b6|fe9a8924] (00+00/22) No match
08 [1935bd43|95f7df77] (00+00/22) No match
09 [0b1acaf4|738e22d3] (00+00/22) No match
10 [aaf0451a|5c91bbf9] (00+00/22) No match
11 [07178fe1|53e84a5e] (00+00/22) No match
12 [278c2b2a|f538a294] (00+00/22) No match
13 [37a72d69|81a22aa5] (00+00/18) No match
14 [a70a602c|0078fb18] (00+00/19) No match
Offsetted by -59:
01 [5774082d] (03/23) Accurately ripped
02 [05bbc441] (03/25) Accurately ripped
03 [4392ac4f] (03/23) Accurately ripped
04 [a91d1efd] (03/22) Accurately ripped
05 [4c65609a] (03/22) Accurately ripped
06 [8aa0c330] (03/22) Accurately ripped
07 [4b18f06f] (03/22) Accurately ripped
08 [c356c685] (03/22) Accurately ripped
09 [141989a2] (03/22) Accurately ripped
10 [66d2ecbf] (03/22) Accurately ripped
11 [1eee2821] (03/22) Accurately ripped
12 [189369dc] (03/22) Accurately ripped
13 [717cd0fd] (02/18) Accurately ripped
14 [91b1e9a1] (02/19) Accurately ripped
Offsetted by -49:
01 [e48a6b0d] (05/23) Accurately ripped
02 [9920cb6c] (05/25) Accurately ripped
03 [4d4e980c] (05/23) Accurately ripped
04 [eb39e8db] (05/22) Accurately ripped
05 [8b90001c] (05/22) Accurately ripped
06 [f685c14b] (05/22) Accurately ripped
07 [65bb3c39] (05/22) Accurately ripped
08 [1e912894] (05/22) Accurately ripped
09 [5c1faaa3] (05/22) Accurately ripped
10 [644aefac] (05/22) Accurately ripped
11 [d8fed7b3] (05/22) Accurately ripped
12 [a6cd91bc] (05/22) Accurately ripped
13 [39709c33] (05/18) Accurately ripped
14 [92f7f66d] (05/19) Accurately ripped
Offsetted by 235:
01 [ce0f61a4] (04/23) Accurately ripped
02 [9aa08172] (04/25) Accurately ripped
03 [992cb089] (04/23) Accurately ripped
04 [e908ee16] (03/22) Accurately ripped
05 [9966737b] (03/22) Accurately ripped
06 [0484fd35] (03/22) Accurately ripped
07 [2f0ca085] (03/22) Accurately ripped
08 [af0d06cf] (03/22) Accurately ripped
09 [4c41ca53] (03/22) Accurately ripped
10 [179b4b16] (03/22) Accurately ripped
11 [2bd5391b] (03/22) Accurately ripped
12 [4099bc24] (03/22) Accurately ripped
13 [a09f6598] (03/18) Accurately ripped
14 [3665055b] (03/19) Accurately ripped
Offsetted by 432:
01 [8fe8e0f2] (03/23) Accurately ripped
02 [fe7c50a2] (03/25) Accurately ripped
03 [a836d7ae] (03/23) Accurately ripped
04 [829f8297] (03/22) Accurately ripped
05 [a5c8c3df] (03/22) Accurately ripped
06 [3f13fac7] (03/22) Accurately ripped
07 [cf4091c6] (03/22) Accurately ripped
08 [28569b37] (03/22) Accurately ripped
09 [4eace053] (03/22) Accurately ripped
10 [2cd6d722] (03/22) Accurately ripped
11 [c48b18b6] (03/22) Accurately ripped
12 [ca49f76a] (03/22) Accurately ripped
13 [7d4988a2] (02/18) Accurately ripped
14 [bb6bb0d0] (03/19) Accurately ripped
Offsetted by -101:
01 [33a5d144] (00/23) No match (V2 was not tested)
02 [bcfdc0e5] (02/25) Accurately ripped
03 [249372a2] (00/23) No match (V2 was not tested)
04 [13738cc3] (00/22) No match (V2 was not tested)
05 [efb29705] (00/22) No match (V2 was not tested)
06 [fd14d6f3] (00/22) No match (V2 was not tested)
07 [fa17b92b] (00/22) No match (V2 was not tested)
08 [c0502279] (00/22) No match (V2 was not tested)
09 [f5a0db40] (00/22) No match (V2 was not tested)
10 [2fd20622] (00/22) No match (V2 was not tested)
11 [4c69e6b5] (00/22) No match (V2 was not tested)
12 [f7ea5994] (00/22) No match (V2 was not tested)
13 [fbb35eb4] (00/18) No match (V2 was not tested)
14 [a1db0278] (00/19) No match (V2 was not tested)

Track Peak [ CRC32 ] [W/O NULL] [ LOG ]
– 100,0 [B9797E96] [621D44B7] CRC32
01 90,1 [5DC12F99] [69EF4961]
02 72,8 [FA520F84] [71732814]
03 99,9 [14F84242] [AC4D76FF]
04 72,1 [C39B7F1A] [EBEE3369]
05 90,3 [243C27A4] [DAF7CF3D]
06 86,9 [5C76B03E] [2DB5BD13]
07 75,7 [77036A3B] [C9077C53]
08 75,6 [F9058C21] [CB26107E]
09 93,8 [E4A08971] [02EBDCAF]
10 63,0 [AA4A5F77] [12B5C046]
11 90,5 [84B334E8] [2858DDDE]
12 85,0 [8BF65A3C] [A0405140]
13 100,0 [0478ECAE] [AB1C6E36]
14 65,6 [88D49705] [95EEC399]

Tom Petty And The Heartbreakers - Pack Up The Plantation: Live! (1985)

All thanks go to Boris1

>>> Tom Petty And The Heartbreakers in my Blog <<<

Download from icerbox.com: