Subcategories

Tom Petty And The Heartbreakers - Soundstage (2008) [Blu-ray]

Posted By: Andi_Deris
Tom Petty And The Heartbreakers - Soundstage (2008) [Blu-ray]

Tom Petty And The Heartbreakers - Soundstage (2008) [Blu-ray]
Blu-ray (BD-50) | BDMV | 39.8 Gb
Video: MPEG-4 AVC / 1920*1080i / 29,970 fps / 16:9 / High Profile 4.1 | Audio: DTS-HD CORE 5.1/ LPCM 2.0
Koch Vision | 890039001310
Classic Rock, Blues Rock, Southern Rock, Country

Tom Petty and the Heartbreakers are responsible for some of the most infectious songs and critically-acclaimed albums of all time. Join these legendary Rock and Roll Hall of Fame inductees for a blistering live performance of their hits – along with rare unreleased songs in this tour de force of American Roots Music that affirms their status as rock royalty. Contains 22 songs plus 9 bonus tracks.

The work of Tom Petty is a uniquely-American blend of pop and rock that has paid handsome dividends for the star over the years. With his faithful band The Heartbreakers behind him, Petty lit up stages across the country, and became an unlikely early star of MTV with some innovative video work. Subsequent releases saw him justifiably included in the Rock & Roll Hall of Fame, alongside a stint in supergroup The Travelling Wilburys. SOUNDSTAGE presents a live concert from Petty and his band, with a number of their biggest hits getting a welcome airing.

Tom Petty And The Heartbreakers - Soundstage (2008) [Blu-ray]




Track Listing

01. Baby Please Don't Go
02. Crawling Back to You
03. Handle With Care
04. I Won't Back Down
05. I'm Cryin'
06. Angel Dream
07. Melinda
08. Born in Chicago
09. Red Rooster
10. Carol
11. Refugee
12. Love is a Long Road
13. You Don't Know How It Feels
14. Black Leather Woman
15. I Done Somebody Wrong
16. I Got a Woman
17. Thirteen Daysv 18 - Wake Up Time
19. Rollin' in My Sweet Baby's Arms
20. Lost Children
21. Two Men Talkin'
22. You Wreck Me

Extras:
23. Down Home Girl
24. I'd Like to Love You
25. Baby
26. Not Fade Away
27. Walls
28. Yer So Bad
29. Billy the Kid
30. Like a Diamond (From The Last DJ Live at the Olympic)
31. Can't Stop the Sun (From The Last DJ Live at the Olympic)

Produced by Joe Thomas

Tom Petty And The Heartbreakers - Soundstage (2008) [Blu-ray]
Tom Petty And The Heartbreakers - Soundstage (2008) [Blu-ray]

Tom Petty And The Heartbreakers - Soundstage (2008) [Blu-ray]
Tom Petty And The Heartbreakers - Soundstage (2008) [Blu-ray]
Tom Petty And The Heartbreakers - Soundstage (2008) [Blu-ray]
Tom Petty And The Heartbreakers - Soundstage (2008) [Blu-ray]
Tom Petty And The Heartbreakers - Soundstage (2008) [Blu-ray]

Tom Petty And The Heartbreakers - Soundstage (2008) [Blu-ray]
Tom Petty And The Heartbreakers - Soundstage (2008) [Blu-ray]
Tom Petty And The Heartbreakers - Soundstage (2008) [Blu-ray]


Disc Title: Tom Petty And The Heartbreakers
Disc Size: 41 992 623 176 bytes
Protection: AACS
BD-Java: No
BDInfo: 0.5.6

Notes:

BDINFO HOME:
Cinema Squid
http://www.cinemasquid.com/blu-ray/tools/bdinfo

INCLUDES FORUMS REPORT FOR:
AVS Forum Blu-ray Audio and Video Specifications Thread
http://www.avsforum.com/avs-vb/showthread.php?t=1155731

********************
PLAYLIST: 00001.MPLS
********************

<–- BEGIN FORUMS PASTE –->
Code:
Total Video
Title Codec Length Movie Size Disc Size Bitrate Bitrate Main Audio Track Secondary Audio Track
––- ––– –––- ––––––– ––––––– –––- –––- ––––––––– ––––––––––-
00001.MPLS AVC 0:54:31 16 318 502 208 41 992 623 176 39,90 29,75 DTS-HD Master 5.1 5096Kbps (48kHz/24-bit) DD AC3 5.1 640Kbps
Code:
DISC INFO:

Disc Title: Tom Petty And The Heartbreakers
Disc Size: 41 992 623 176 bytes
Protection: AACS
BD-Java: No
BDInfo: 0.5.6

PLAYLIST REPORT:

Name: 00001.MPLS
Length: 0:54:31 (h:m:s)
Size: 16 318 502 208 bytes
Total Bitrate: 39,90 Mbps

VIDEO:

Codec Bitrate Description
––- –––- –––––-
MPEG-4 AVC Video 29749 kbps 1080i / 29,970 fps / 16:9 / High Profile 4.1

AUDIO:

Codec Language Bitrate Description
––- –––– –––- –––––-
DTS-HD Master Audio English 5096 kbps 5.1 / 48 kHz / 5096 kbps / 24-bit (DTS Core: 5.1 / 48 kHz / 1509 kbps / 24-bit)
Dolby Digital Audio English 640 kbps 5.1 / 48 kHz / 640 kbps
LPCM Audio English 2304 kbps 2.0 / 48 kHz / 2304 kbps / 24-bit

FILES:

Name Time In Length Size Total Bitrate
–– –––- ––– –– ––––––-
00001.M2TS 0:00:00.000 0:54:31.735 16 318 502 208 39 902

CHAPTERS:

Number Time In Length Avg Video Rate Max 1-Sec Rate Max 1-Sec Time Max 5-Sec Rate Max 5-Sec Time Max 10Sec Rate Max 10Sec Time Avg Frame Size Max Frame Size Max Frame Time
––– –––- ––– ––––––– ––––––– ––––––– ––––––– ––––––– ––––––– ––––––– ––––––– ––––––– –––––––
1 0:00:00.000 0:00:13.880 26 868 kbps 47 018 kbps 00:00:00.200 29 442 kbps 00:00:00.200 26 463 kbps 00:00:00.200 111 795 bytes 483 596 bytes 00:00:00.233
2 0:00:13.880 0:04:29.936 30 695 kbps 44 053 kbps 00:02:04.124 35 885 kbps 00:02:03.323 33 561 kbps 00:04:05.845 128 025 bytes 426 648 bytes 00:02:04.190
3 0:04:43.816 0:06:11.571 30 114 kbps 42 892 kbps 00:07:08.661 35 038 kbps 00:07:39.759 33 163 kbps 00:07:06.192 125 599 bytes 428 664 bytes 00:08:09.222
4 0:10:55.388 0:03:50.430 30 150 kbps 41 582 kbps 00:14:16.222 34 047 kbps 00:14:16.088 33 113 kbps 00:14:10.082 125 752 bytes 467 332 bytes 00:12:39.391
5 0:14:45.818 0:04:28.034 29 431 kbps 41 742 kbps 00:17:12.898 33 324 kbps 00:17:12.131 32 936 kbps 00:17:12.898 122 750 bytes 444 338 bytes 00:17:12.931
6 0:19:13.852 0:02:28.281 28 854 kbps 38 406 kbps 00:20:32.965 34 212 kbps 00:21:16.041 32 050 kbps 00:21:11.336 120 343 bytes 410 753 bytes 00:21:20.912
7 0:21:42.134 0:03:31.311 29 388 kbps 41 443 kbps 00:22:46.598 33 525 kbps 00:24:23.495 31 326 kbps 00:22:46.598 122 573 bytes 412 729 bytes 00:22:16.968
8 0:25:13.445 0:06:01.194 28 869 kbps 42 911 kbps 00:29:54.125 32 921 kbps 00:28:03.715 31 721 kbps 00:27:59.978 120 409 bytes 402 177 bytes 00:31:09.334
9 0:31:14.639 0:02:26.713 29 728 kbps 37 103 kbps 00:31:30.655 33 431 kbps 00:32:19.003 32 183 kbps 00:31:21.779 123 989 bytes 395 411 bytes 00:31:15.773
10 0:33:41.352 0:06:15.174 30 478 kbps 44 960 kbps 00:34:45.116 35 997 kbps 00:34:42.113 33 541 kbps 00:39:17.021 127 119 bytes 539 361 bytes 00:38:51.729
11 0:39:56.527 0:08:56.435 30 096 kbps 44 805 kbps 00:42:08.959 35 613 kbps 00:44:22.893 33 921 kbps 00:48:40.884 125 527 bytes 512 241 bytes 00:42:15.833
12 0:48:52.963 0:05:38.771 28 903 kbps 41 461 kbps 00:51:27.517 34 926 kbps 00:51:47.037 32 632 kbps 00:53:13.356 120 559 bytes 430 657 bytes 00:53:38.281

STREAM DIAGNOSTICS:

File PID Type Codec Language Seconds Bitrate Bytes Packets
–– –- –– ––- –––– ––––––– ––––––– ––––––- ––-
00001.M2TS 4113 (0x1011) 0x1B AVC 3281,478 29 723 12 191 900 504 66 367 079
00001.M2TS 4352 (0x1100) 0x86 DTS-HD MA eng (English) 3281,478 5 088 2 086 844 824 11 865 039
00001.M2TS 4353 (0x1101) 0x80 LPCM eng (English) 3281,478 2 310 947 711 640 5 250 480
00001.M2TS 4354 (0x1102) 0x81 AC3 eng (English) 3281,478 654 268 362 240 1 572 435
<–– END FORUMS PASTE ––>

QUICK SUMMARY:

Disc Title: Tom Petty And The Heartbreakers
Disc Size: 41 992 623 176 bytes
Protection: AACS
BD-Java: No
Playlist: 00001.MPLS
Size: 16 318 502 208 bytes
Length: 0:54:31
Total Bitrate: 39,90 Mbps
Video: MPEG-4 AVC Video / 29749 kbps / 1080i / 29,970 fps / 16:9 / High Profile 4.1
Audio: English / DTS-HD Master Audio / 5.1 / 48 kHz / 5096 kbps / 24-bit (DTS Core: 5.1 / 48 kHz / 1509 kbps / 24-bit)
Audio: English / Dolby Digital Audio / 5.1 / 48 kHz / 640 kbps
Audio: English / LPCM Audio / 2.0 / 48 kHz / 2304 kbps / 24-bit

********************
PLAYLIST: 00000.MPLS
********************

<–- BEGIN FORUMS PASTE –->
Code:
Total Video
Title Codec Length Movie Size Disc Size Bitrate Bitrate Main Audio Track Secondary Audio Track
––- ––– –––- ––––––– ––––––– –––- –––- ––––––––– ––––––––––-
00000.MPLS AVC 0:54:31 16 563 380 544 41 992 623 176 40,51 29,79 DTS-HD Master 5.1 5635Kbps (48kHz/24-bit) DD AC3 5.1 640Kbps
Code:
DISC INFO:

Disc Title: Tom Petty And The Heartbreakers
Disc Size: 41 992 623 176 bytes
Protection: AACS
BD-Java: No
BDInfo: 0.5.6

PLAYLIST REPORT:

Name: 00000.MPLS
Length: 0:54:31 (h:m:s)
Size: 16 563 380 544 bytes
Total Bitrate: 40,51 Mbps

VIDEO:

Codec Bitrate Description
––- –––- –––––-
MPEG-4 AVC Video 29786 kbps 1080i / 29,970 fps / 16:9 / High Profile 4.1

AUDIO:

Codec Language Bitrate Description
––- –––– –––- –––––-
DTS-HD Master Audio English 5635 kbps 5.1 / 48 kHz / 5635 kbps / 24-bit (DTS Core: 5.1 / 48 kHz / 1509 kbps / 24-bit)
Dolby Digital Audio English 640 kbps 5.1 / 48 kHz / 640 kbps
LPCM Audio English 2304 kbps 2.0 / 48 kHz / 2304 kbps / 24-bit

FILES:

Name Time In Length Size Total Bitrate
–– –––- ––– –– ––––––-
00000.M2TS 0:00:00.000 0:54:31.334 16 563 380 544 40 505

CHAPTERS:

Number Time In Length Avg Video Rate Max 1-Sec Rate Max 1-Sec Time Max 5-Sec Rate Max 5-Sec Time Max 10Sec Rate Max 10Sec Time Avg Frame Size Max Frame Size Max Frame Time
––– –––- ––– ––––––– ––––––– ––––––– ––––––– ––––––– ––––––– ––––––– ––––––– ––––––– –––––––
1 0:00:00.000 0:00:26.493 27 840 kbps 49 640 kbps 00:00:00.200 31 040 kbps 00:00:21.488 30 384 kbps 00:00:16.483 115 971 bytes 525 789 bytes 00:00:00.233
2 0:00:26.493 0:04:16.656 29 957 kbps 41 441 kbps 00:00:56.790 34 751 kbps 00:01:30.190 33 870 kbps 00:01:30.223 124 946 bytes 417 443 bytes 00:01:33.560
3 0:04:43.149 0:05:13.112 29 741 kbps 44 614 kbps 00:09:19.659 39 258 kbps 00:09:16.556 35 105 kbps 00:09:11.551 124 045 bytes 432 800 bytes 00:09:20.660
4 0:09:56.262 0:03:33.646 29 584 kbps 41 257 kbps 00:09:58.831 33 586 kbps 00:09:56.729 31 933 kbps 00:13:02.515 123 392 bytes 396 777 bytes 00:13:02.548
5 0:13:29.909 0:03:11.724 29 548 kbps 40 992 kbps 00:16:33.892 35 633 kbps 00:16:30.222 32 504 kbps 00:16:27.119 123 240 bytes 426 539 bytes 00:16:33.926
6 0:16:41.633 0:04:43.449 29 962 kbps 44 952 kbps 00:21:05.230 33 789 kbps 00:20:26.825 32 505 kbps 00:20:26.825 124 966 bytes 413 164 bytes 00:19:26.064
7 0:21:25.083 0:03:05.285 29 384 kbps 45 258 kbps 00:22:39.424 36 791 kbps 00:22:39.224 33 801 kbps 00:22:39.091 122 556 bytes 421 282 bytes 00:22:44.730
8 0:24:30.368 0:09:19.659 29 946 kbps 43 557 kbps 00:31:49.274 35 588 kbps 00:33:22.100 32 656 kbps 00:33:17.996 124 901 bytes 449 958 bytes 00:24:48.019
9 0:33:50.028 0:03:45.758 30 048 kbps 42 583 kbps 00:35:01.599 36 817 kbps 00:35:00.064 34 112 kbps 00:34:54.992 125 327 bytes 436 762 bytes 00:35:41.172
10 0:37:35.786 0:05:24.590 29 835 kbps 39 913 kbps 00:41:53.777 35 432 kbps 00:37:42.760 32 184 kbps 00:38:06.350 124 439 bytes 431 393 bytes 00:37:45.463
11 0:43:00.377 0:05:19.619 30 154 kbps 42 902 kbps 00:46:04.962 34 885 kbps 00:46:19.076 33 220 kbps 00:46:14.071 125 768 bytes 430 603 bytes 00:46:07.798
12 0:48:19.997 0:06:11.337 29 389 kbps 43 074 kbps 00:52:18.268 37 993 kbps 00:48:21.899 34 722 kbps 00:48:21.131 122 586 bytes 429 955 bytes 00:48:22.766

STREAM DIAGNOSTICS:

File PID Type Codec Language Seconds Bitrate Bytes Packets
–– –- –– ––- –––– ––––––– ––––––– ––––––- ––-
00000.M2TS 4113 (0x1011) 0x1B AVC 3281,044 29 760 12 205 549 548 66 441 079
00000.M2TS 4352 (0x1100) 0x86 DTS-HD MA eng (English) 3281,044 5 626 2 307 401 988 13 065 993
00000.M2TS 4353 (0x1101) 0x80 LPCM eng (English) 3281,044 2 310 947 594 676 5 249 832
00000.M2TS 4354 (0x1102) 0x81 AC3 eng (English) 3281,044 655 268 805 120 1 575 030
<–– END FORUMS PASTE ––>

QUICK SUMMARY:

Disc Title: Tom Petty And The Heartbreakers
Disc Size: 41 992 623 176 bytes
Protection: AACS
BD-Java: No
Playlist: 00000.MPLS
Size: 16 563 380 544 bytes
Length: 0:54:31
Total Bitrate: 40,51 Mbps
Video: MPEG-4 AVC Video / 29786 kbps / 1080i / 29,970 fps / 16:9 / High Profile 4.1
Audio: English / DTS-HD Master Audio / 5.1 / 48 kHz / 5635 kbps / 24-bit (DTS Core: 5.1 / 48 kHz / 1509 kbps / 24-bit)
Audio: English / Dolby Digital Audio / 5.1 / 48 kHz / 640 kbps
Audio: English / LPCM Audio / 2.0 / 48 kHz / 2304 kbps / 24-bit

********************
PLAYLIST: 00002.MPLS
********************

<–- BEGIN FORUMS PASTE –->
Code:
Total Video
Title Codec Length Movie Size Disc Size Bitrate Bitrate Main Audio Track Secondary Audio Track
––- ––– –––- ––––––– ––––––– –––- –––- ––––––––– ––––––––––-
00002.MPLS AVC 0:32:48 8 615 814 144 41 992 623 176 35,01 25,01 DTS-HD Master 5.1 5046Kbps (48kHz/24-bit) DD AC3 5.1 640Kbps
Code:
DISC INFO:

Disc Title: Tom Petty And The Heartbreakers
Disc Size: 41 992 623 176 bytes
Protection: AACS
BD-Java: No
BDInfo: 0.5.6

PLAYLIST REPORT:

Name: 00002.MPLS
Length: 0:32:48 (h:m:s)
Size: 8 615 814 144 bytes
Total Bitrate: 35,01 Mbps

VIDEO:

Codec Bitrate Description
––- –––- –––––-
MPEG-4 AVC Video 25011 kbps 1080i / 29,970 fps / 16:9 / High Profile 4.1

AUDIO:

Codec Language Bitrate Description
––- –––– –––- –––––-
DTS-HD Master Audio English 5046 kbps 5.1 / 48 kHz / 5046 kbps / 24-bit (DTS Core: 5.1 / 48 kHz / 1509 kbps / 24-bit)
Dolby Digital Audio English 640 kbps 5.1 / 48 kHz / 640 kbps
LPCM Audio English 2304 kbps 2.0 / 48 kHz / 2304 kbps / 24-bit

FILES:

Name Time In Length Size Total Bitrate
–– –––- ––– –– ––––––-
00002.M2TS 0:00:00.000 0:32:48.733 8 615 814 144 35 011

CHAPTERS:

Number Time In Length Avg Video Rate Max 1-Sec Rate Max 1-Sec Time Max 5-Sec Rate Max 5-Sec Time Max 10Sec Rate Max 10Sec Time Avg Frame Size Max Frame Size Max Frame Time
––– –––- ––– ––––––– ––––––– ––––––– ––––––– ––––––– ––––––– ––––––– ––––––– ––––––– –––––––
1 0:00:00.000 0:03:58.972 26 523 kbps 46 957 kbps 00:00:00.166 33 702 kbps 00:02:40.360 30 852 kbps 00:02:40.360 110 608 bytes 438 675 bytes 00:00:00.467
2 0:03:58.972 0:04:18.758 27 134 kbps 40 398 kbps 00:05:38.004 38 006 kbps 00:08:01.314 33 624 kbps 00:07:58.077 113 170 bytes 336 051 bytes 00:06:11.504
3 0:08:17.730 0:02:26.613 26 916 kbps 45 420 kbps 00:08:22.768 33 438 kbps 00:08:18.998 31 175 kbps 00:08:18.264 112 262 bytes 357 192 bytes 00:08:22.802
4 0:10:44.343 0:03:48.361 27 314 kbps 43 129 kbps 00:14:16.755 35 035 kbps 00:12:23.909 31 419 kbps 00:12:19.004 113 924 bytes 357 344 bytes 00:14:16.789
5 0:14:32.705 0:02:39.826 27 379 kbps 43 480 kbps 00:14:34.640 33 841 kbps 00:14:34.640 31 061 kbps 00:14:55.461 114 193 bytes 339 465 bytes 00:15:07.907
6 0:17:12.531 0:03:53.266 27 555 kbps 49 995 kbps 00:17:14.600 36 234 kbps 00:17:42.461 34 068 kbps 00:17:42.594 114 927 bytes 384 953 bytes 00:17:36.021
7 0:21:05.797 0:04:50.390 21 428 kbps 30 844 kbps 00:25:31.663 25 640 kbps 00:21:08.000 22 918 kbps 00:21:07.933 89 371 bytes 198 454 bytes 00:24:47.986
8 0:25:56.187 0:06:52.545 21 020 kbps 36 899 kbps 00:25:56.755 26 424 kbps 00:31:43.434 24 117 kbps 00:31:44.168 87 679 bytes 250 057 bytes 00:31:40.999

STREAM DIAGNOSTICS:

File PID Type Codec Language Seconds Bitrate Bytes Packets
–– –- –– ––- –––– ––––––– ––––––– ––––––- ––-
00002.M2TS 4113 (0x1011) 0x1B AVC 1978,443 24 968 6 174 617 601 33 622 186
00002.M2TS 4352 (0x1100) 0x86 DTS-HD MA eng (English) 1978,443 5 033 1 244 690 792 7 083 637
00002.M2TS 4353 (0x1101) 0x80 LPCM eng (English) 1978,443 2 395 592 382 228 3 281 896
00002.M2TS 4354 (0x1102) 0x81 AC3 eng (English) 1978,443 664 164 096 000 961 500
<–– END FORUMS PASTE ––>

QUICK SUMMARY:

Disc Title: Tom Petty And The Heartbreakers
Disc Size: 41 992 623 176 bytes
Protection: AACS
BD-Java: No
Playlist: 00002.MPLS
Size: 8 615 814 144 bytes
Length: 0:32:48
Total Bitrate: 35,01 Mbps
Video: MPEG-4 AVC Video / 25011 kbps / 1080i / 29,970 fps / 16:9 / High Profile 4.1
Audio: English / DTS-HD Master Audio / 5.1 / 48 kHz / 5046 kbps / 24-bit (DTS Core: 5.1 / 48 kHz / 1509 kbps / 24-bit)
Audio: English / Dolby Digital Audio / 5.1 / 48 kHz / 640 kbps
Audio: English / LPCM Audio / 2.0 / 48 kHz / 2304 kbps / 24-bit


Many thanks to the original uploader: koetter

SEE also:
Tom Petty And The Heartbreakers 2007 Runnin' Down A Dream [3xDVD Box Set]



Password: pass


Tom Petty And The Heartbreakers - Soundstage (2008) [Blu-ray]