Subcategories

Tom Petty And The Heartbreakers - The Best Of Everything: The Definitive Career Spanning Hits Collection 1976-2016 (2019)

Posted By: popsakov
Tom Petty And The Heartbreakers - The Best Of Everything: The Definitive Career Spanning Hits Collection 1976-2016 (2019)

Tom Petty And The Heartbreakers - The Best Of Everything: The Definitive Career Spanning Hits Collection 1976-2016 (2019)
EAC Rip | FLAC (Img) + Cue + Log ~ 1,02 Gb | Full Scans ~ 109 Mb | RAR 5% Recovery
Classic Rock, Heartland Rock, Rock & Roll | Geffen Records / UMG Recordings #00602567934394

Consider The Best of Everything a companion piece to An American Treasure, the first posthumous Tom Petty compilation. Weighing in at four CDs, An American Treasure was designed as a gift to the devoted who were still in mourning. In contrast, The Best of Everything is aimed at the fan who didn't dig quite so deep, or perhaps to listeners who always liked Petty but never bothered to purchase an album. The Best of Everything relies on the hits that were largely absent on the box set but it takes a similar non-chronological approach to sequencing, a move that emphasizes Petty's consistency as both a songwriter and recording artist. This distinguishes The Best of Everything from 2000's Anthology: Through the Years, which also spanned two discs and contained four fewer songs than this 2019 set. Apart from that notable aesthetic choice, there is a considerable amount of overlap between the two double-disc collections – namely, all the hits Petty had with and without the Heartbreakers between 1976 and 1993, when he switched from his longtime home of MCA to Warner. The Best of Everything trumps Anthology in that it also includes hits Petty had for Warner – "You Don't Know How It Feels," "You Wreck Me," and "Walls" – and extends to his strong last decade as a recording artist, adding two unreleased cuts for good measure (an alternate take of the title track which was heard in a shorter version on An American Treasure, the unheard "For Real," which is laid-back and nifty). All this adds up to the best overall overview of – and perhaps introduction to – Tom Petty assembled to date.
~ Stephen Thomas Erlewine, All Music

***************

Track List CD1:

01. Free Fallin’ – Tom Petty [1989]
02. Mary Jane's Last Dance – Tom Petty and the Heartbreakers [1993]
03. You Wreck Me – Tom Petty [1994]
04. I Won't Back Down – Tom Petty [1989]
05. Saving Grace – Tom Petty [2006]
06. You Don't Know How It Feels – Tom Petty [1994]
07. Don't Do Me Like That – Tom Petty and the Heartbreakers [1979]
08. Listen To Her Heart – Tom Petty and the Heartbreakers [1978]
09. Breakdown – Tom Petty and the Heartbreakers [1976]
10. Walls (Circus) – Tom Petty and the Heartbreakers [1996]
11. The Waiting – Tom Petty and the Heartbreakers [1981]
12. Don't Come Around Here No More – Tom Petty and the Heartbreakers [1985]
13. Southern Accents – Tom Petty and the Heartbreakers [1985]
14. Angel Dream (No. 2) – Tom Petty and the Heartbreakers [1996]
15. Dreamville – Tom Petty and the Heartbreakers [2002]
16. I Should Have Known It – Tom Petty and the Heartbreakers [2010]
17. Refugee – Tom Petty and the Heartbreakers [1979]
18. American Girl – Tom Petty and the Heartbreakers [1976]
19. The Best Of Everything (Alternate Version) – Tom Petty and the Heartbreakers* [1985]

*Previously Unreleased

Total Time: 01:12:17

Exact Audio Copy V1.0 beta 6 from 9. April 2015

EAC extraction logfile from 3. March 2019, 20:50

Tom Petty / The Best Of Everything - 1976-2016 [Disc One]

Used drive : ATAPI iHAS122 C Adapter: 1 ID: 0

Read mode : Secure
Utilize accurate stream : Yes
Defeat audio cache : Yes
Make use of C2 pointers : No

Read offset correction : 6
Overread into Lead-In and Lead-Out : No
Fill up missing offset samples with silence : Yes
Delete leading and trailing silent blocks : No
Null samples used in CRC calculations : Yes
Used interface : Native Win32 interface for Win NT & 2000

Used output format : Internal WAV Routines
Sample format : 44.100 Hz; 16 Bit; Stereo


TOC of the extracted CD

Track | Start | Length | Start sector | End sector
––––––––––––––––––––––––––––-
1 | 0:00.00 | 4:14.41 | 0 | 19090
2 | 4:14.41 | 4:31.49 | 19091 | 39464
3 | 8:46.15 | 3:22.00 | 39465 | 54614
4 | 12:08.15 | 2:56.05 | 54615 | 67819
5 | 15:04.20 | 3:45.01 | 67820 | 84695
6 | 18:49.21 | 4:46.54 | 84696 | 106199
7 | 23:36.00 | 2:40.52 | 106200 | 118251
8 | 26:16.52 | 3:01.39 | 118252 | 131865
9 | 29:18.16 | 2:42.21 | 131866 | 144036
10 | 32:00.37 | 4:23.43 | 144037 | 163804
11 | 36:24.05 | 3:56.21 | 163805 | 181525
12 | 40:20.26 | 5:03.52 | 181526 | 204302
13 | 45:24.03 | 4:42.18 | 204303 | 225470
14 | 50:06.21 | 2:25.63 | 225471 | 236408
15 | 52:32.09 | 3:47.60 | 236409 | 253493
16 | 56:19.69 | 3:38.35 | 253494 | 269878
17 | 59:58.29 | 3:20.05 | 269879 | 284883
18 | 63:18.34 | 3:33.24 | 284884 | 300882
19 | 66:51.58 | 5:25.57 | 300883 | 325314


Range status and errors

Selected range

Filename C:\Users\London\Desktop\Tom Petty - The Best Of Everything - 1976-2016 [Disc One].wav

Peak level 100.0 %
Extraction speed 9.9 X
Range quality 100.0 %
Test CRC F539A86C
Copy CRC F539A86C
Copy OK

No errors occurred


AccurateRip summary

Track 1 not present in database
Track 2 not present in database
Track 3 not present in database
Track 4 not present in database
Track 5 not present in database
Track 6 not present in database
Track 7 not present in database
Track 8 not present in database
Track 9 not present in database
Track 10 not present in database
Track 11 not present in database
Track 12 not present in database
Track 13 not present in database
Track 14 not present in database
Track 15 not present in database
Track 16 not present in database
Track 17 not present in database
Track 18 not present in database
Track 19 not present in database

None of the tracks are present in the AccurateRip database

End of status report

–– CUETools DB Plugin V2.1.6

[CTDB TOCID: eJ4UZrnx_GX5Q3Qtr_LppwqIz3Y-] found
Submit result: eJ4UZrnx_GX5Q3Qtr_LppwqIz3Y- has been confirmed
Track | CTDB Status
1 | (13/13) Accurately ripped
2 | (13/13) Accurately ripped
3 | (13/13) Accurately ripped
4 | (13/13) Accurately ripped
5 | (13/13) Accurately ripped
6 | (13/13) Accurately ripped
7 | (13/13) Accurately ripped
8 | (13/13) Accurately ripped
9 | (13/13) Accurately ripped
10 | (13/13) Accurately ripped
11 | (13/13) Accurately ripped
12 | (13/13) Accurately ripped
13 | (13/13) Accurately ripped
14 | (13/13) Accurately ripped
15 | (13/13) Accurately ripped
16 | (13/13) Accurately ripped
17 | (13/13) Accurately ripped
18 | (13/13) Accurately ripped
19 | (13/13) Accurately ripped


==== Log checksum 7709CBDD9A29795E6E9C119FEC5274685CE091D3EF8DC797FFEFAC70FC9D09B4 ====

Track List CD2:

01. Wildflowers – Tom Petty [1994]
02. Learning To Fly – Tom Petty and the Heartbreakers [1991]
03. Here Comes My Girl – Tom Petty and the Heartbreakers [1979]
04. The Last DJ – Tom Petty and the Heartbreakers [2002]
05. I Need To Know – Tom Petty and the Heartbreakers [1978]
06. Scare Easy - Mudcrutch [2008]
07. You Got Lucky – Tom Petty and the Heartbreakers [1982]
08. Runnin' Down A Dream – Tom Petty [1989]
09. American Dream Plan B – Tom Petty and the Heartbreakers [2014]
10. Stop Draggin' My Heart Around (featuring Stevie Nicks) – Tom Petty and the Heartbreakers [1981]
11. Trailer - Mudcrutch [2016]
12. Into The Great Wide Open – Tom Petty and the Heartbreakers [1991]
13. Room At The Top – Tom Petty and the Heartbreakers [1999]
14. Square One – Tom Petty [2006]
15. Jammin' Me – Tom Petty and the Heartbreakers [1987]
16. Even The Losers – Tom Petty and the Heartbreakers [1979]
17. Hungry No More - Mudcrutch [2016]
18. I Forgive It All – Mudcrutch [2016]
19. For Real – Tom Petty and the Heartbreakers* [1994]

*Previously Unreleased

Total Time: 01:14:08

Exact Audio Copy V1.0 beta 6 from 9. April 2015

EAC extraction logfile from 7. March 2019, 18:52

Tom Petty / The Best Of Everything - 1976-2016 [Disc Two]

Used drive : ATAPI iHAS122 C Adapter: 1 ID: 0

Read mode : Secure
Utilize accurate stream : Yes
Defeat audio cache : Yes
Make use of C2 pointers : No

Read offset correction : 6
Overread into Lead-In and Lead-Out : No
Fill up missing offset samples with silence : Yes
Delete leading and trailing silent blocks : No
Null samples used in CRC calculations : Yes
Used interface : Native Win32 interface for Win NT & 2000

Used output format : Internal WAV Routines
Sample format : 44.100 Hz; 16 Bit; Stereo


TOC of the extracted CD

Track | Start | Length | Start sector | End sector
––––––––––––––––––––––––––––-
1 | 0:00.00 | 3:10.62 | 0 | 14311
2 | 3:10.62 | 4:00.52 | 14312 | 32363
3 | 7:11.39 | 4:23.36 | 32364 | 52124
4 | 11:35.00 | 3:30.30 | 52125 | 67904
5 | 15:05.30 | 2:22.61 | 67905 | 78615
6 | 17:28.16 | 4:36.10 | 78616 | 99325
7 | 22:04.26 | 3:32.30 | 99326 | 115255
8 | 25:36.56 | 4:22.03 | 115256 | 134908
9 | 29:58.59 | 3:00.02 | 134909 | 148410
10 | 32:58.61 | 4:02.64 | 148411 | 166624
11 | 37:01.50 | 3:19.00 | 166625 | 181549
12 | 40:20.50 | 3:41.22 | 181550 | 198146
13 | 44:01.72 | 5:01.28 | 198147 | 220749
14 | 49:03.25 | 3:25.55 | 220750 | 236179
15 | 52:29.05 | 4:02.72 | 236180 | 254401
16 | 56:32.02 | 3:34.16 | 254402 | 270467
17 | 60:06.18 | 5:56.18 | 270468 | 297185
18 | 66:02.36 | 4:13.58 | 297186 | 316218
19 | 70:16.19 | 3:51.71 | 316219 | 333614


Range status and errors

Selected range

Filename C:\Users\London\Desktop\Tom Petty - The Best Of Everything - 1976-2016 [Disc Two].wav

Peak level 100.0 %
Extraction speed 8.2 X
Range quality 99.9 %
Test CRC 2AF3D07F
Copy CRC 2AF3D07F
Copy OK

No errors occurred


AccurateRip summary

Track 1 not present in database
Track 2 not present in database
Track 3 not present in database
Track 4 not present in database
Track 5 not present in database
Track 6 not present in database
Track 7 not present in database
Track 8 not present in database
Track 9 not present in database
Track 10 not present in database
Track 11 not present in database
Track 12 not present in database
Track 13 not present in database
Track 14 not present in database
Track 15 not present in database
Track 16 not present in database
Track 17 not present in database
Track 18 not present in database
Track 19 not present in database

None of the tracks are present in the AccurateRip database

End of status report

–– CUETools DB Plugin V2.1.6

[CTDB TOCID: wVJiMDi3Zx7IiIqaLWnlNmhCubI-] found
Submit result: wVJiMDi3Zx7IiIqaLWnlNmhCubI- has been confirmed
Track | CTDB Status
1 | (17/17) Accurately ripped
2 | (17/17) Accurately ripped
3 | (17/17) Accurately ripped
4 | (17/17) Accurately ripped
5 | (17/17) Accurately ripped
6 | (17/17) Accurately ripped
7 | (17/17) Accurately ripped
8 | (17/17) Accurately ripped
9 | (17/17) Accurately ripped
10 | (17/17) Accurately ripped
11 | (17/17) Accurately ripped
12 | (17/17) Accurately ripped
13 | (17/17) Accurately ripped
14 | (17/17) Accurately ripped
15 | (17/17) Accurately ripped
16 | (17/17) Accurately ripped
17 | (17/17) Accurately ripped
18 | (17/17) Accurately ripped
19 | (16/17) Accurately ripped


==== Log checksum 2F0C2B3D457AB5BD8041FBC0B9118D8D6719BE6FF488017A18BB8F5DC1DF43BE ====

Tom Petty And The Heartbreakers - The Best Of Everything: The Definitive Career Spanning Hits Collection 1976-2016 (2019)

All thanks go to London

>>> Tom Petty in my Blog <<<

Download from icerbox.com: