Subcategories

Tom Petty - Broadcast Collection '77-'93 (2017) [8CD Box Set]

Posted By: v3122
Tom Petty - Broadcast Collection '77-'93 (2017) [8CD Box Set]

Tom Petty - Broadcast Collection '77-'93 (2017)
EAC | Flac(Image) + Cue + Log & MP3 CBR 320Kbps
Soundstage Record, SS8CDBOX19 | ~ 3096 or 1346 Mb | Artwork(jpg) -> 495 Mb
Classic Rock

Thomas Earl Petty (October 20, 1950 – October 2, 2017) was an American singer-songwriter, multi-instrumentalist, record producer, and actor. He was the lead singer of Tom Petty and the Heartbreakers, formed in 1976. He previously led the band Mudcrutch, and was also a member of the late 1980s supergroup the Traveling Wilburys.

Petty recorded a number of hit singles with the Heartbreakers and as a solo artist. In his career, he sold more than 80 million records worldwide, making him one of the best-selling music artists of all time. He and the Heartbreakers were inducted into the Rock and Roll Hall of Fame in 2002. Petty died at the age of 66, of an accidental overuse of prescription drugs, one week after the completion of the Heartbreakers' 40th anniversary tour…

~ wiki
Tom Petty - Broadcast Collection '77-'93 (2017):


Tracklist CD1 - The Record Plant, Sausalito April 22nd 1977 (KSAN-FM):

01. Surrender [0:03:10.00]
02. Jaguar & Thunderbird [0:02:49.00]
03. American Girl [0:05:20.37]
04. Fooled Again [0:05:35.37]
05. Luna [0:04:42.37]
06. Listen To Her Heart [0:03:13.00]
07. I Need To Know [0:02:36.00]
08. Strangered In The Night [0:04:12.28]
09. Dogs On The Run [0:10:24.46]
10. Route 66 [0:03:50.37]

Exact Audio Copy V1.3 from 2. September 2016

EAC extraction logfile from 25. December 2019, 20:44

Tom Petty / Broadcast Collection '77-'93 (CD1)

Used drive : PLEXTOR DVDR PX-L890SA Adapter: 1 ID: 1

Read mode : Secure
Utilize accurate stream : Yes
Defeat audio cache : Yes
Make use of C2 pointers : No

Read offset correction : 6
Overread into Lead-In and Lead-Out : No
Fill up missing offset samples with silence : Yes
Delete leading and trailing silent blocks : No
Null samples used in CRC calculations : Yes
Used interface : Native Win32 interface for Win NT & 2000
Gap handling : Appended to previous track

Used output format : User Defined Encoder
Selected bitrate : 1024 kBit/s
Quality : High
Add ID3 tag : No
Command line compressor : C:\Program Files (x86)\Exact Audio Copy\Flac\flac.exe
Additional command line options : -8 -V -T "ARTIST=%artist%" -T "TITLE=%title%" -T "ALBUM=%albumtitle%" -T "DATE=%year%" -T "TRACKNUMBER=%tracknr%" -T "GENRE=%genre%" -T "PERFORMER=%albuminterpret%" -T "COMPOSER=%composer%" %haslyrics%–tag-from-file=LYRICS="%lyricsfile%"%haslyrics% -T "ALBUMARTIST=%albumartist%" -T "DISCNUMBER=%cdnumber%" -T "TOTALDISCS=%totalcds%" -T "TOTALTRACKS=%numtracks%" -T "COMMENT=%comment%" %source% -o %dest%


TOC of the extracted CD

Track | Start | Length | Start sector | End sector
––––––––––––––––––––––––––––-
1 | 0:00.00 | 3:10.00 | 0 | 14249
2 | 3:10.00 | 2:49.00 | 14250 | 26924
3 | 5:59.00 | 5:20.37 | 26925 | 50961
4 | 11:19.37 | 5:35.37 | 50962 | 76123
5 | 16:54.74 | 4:42.37 | 76124 | 97310
6 | 21:37.36 | 3:13.00 | 97311 | 111785
7 | 24:50.36 | 2:36.00 | 111786 | 123485
8 | 27:26.36 | 4:12.28 | 123486 | 142413
9 | 31:38.64 | 10:24.46 | 142414 | 189259
10 | 42:03.35 | 3:50.37 | 189260 | 206546


Track 1

Filename H:\AUDIO\MUSIC\Tom Petty\2017. Tom Petty - Broadcast Collection '77-'93 (Soundstage SS8CDBOX19)\CD1\01 Surrender.wav

Pre-gap length 0:00:02.00

Peak level 87.5 %
Extraction speed 3.3 X
Track quality 100.0 %
Test CRC 41DF50D5
Copy CRC 41DF50D5
Accurately ripped (confidence 4) [38EF20CF] (AR v2)
Copy OK

Track 2

Filename H:\AUDIO\MUSIC\Tom Petty\2017. Tom Petty - Broadcast Collection '77-'93 (Soundstage SS8CDBOX19)\CD1\02 Jaguar & Thunderbird.wav

Peak level 87.5 %
Extraction speed 2.7 X
Track quality 99.9 %
Test CRC DBC6F578
Copy CRC DBC6F578
Accurately ripped (confidence 4) [E6F1CA72] (AR v2)
Copy OK

Track 3

Filename H:\AUDIO\MUSIC\Tom Petty\2017. Tom Petty - Broadcast Collection '77-'93 (Soundstage SS8CDBOX19)\CD1\03 American Girl.wav

Peak level 87.5 %
Extraction speed 4.3 X
Track quality 100.0 %
Test CRC 88DEB8B7
Copy CRC 88DEB8B7
Accurately ripped (confidence 4) [BBCC9EF2] (AR v2)
Copy OK

Track 4

Filename H:\AUDIO\MUSIC\Tom Petty\2017. Tom Petty - Broadcast Collection '77-'93 (Soundstage SS8CDBOX19)\CD1\04 Fooled Again.wav

Peak level 87.5 %
Extraction speed 4.8 X
Track quality 100.0 %
Test CRC 1D68192F
Copy CRC 1D68192F
Accurately ripped (confidence 4) [94ACB267] (AR v2)
Copy OK

Track 5

Filename H:\AUDIO\MUSIC\Tom Petty\2017. Tom Petty - Broadcast Collection '77-'93 (Soundstage SS8CDBOX19)\CD1\05 Luna.wav

Peak level 87.5 %
Extraction speed 4.2 X
Track quality 99.9 %
Test CRC 29BA0168
Copy CRC 29BA0168
Accurately ripped (confidence 4) [D557C9B7] (AR v2)
Copy OK

Track 6

Filename H:\AUDIO\MUSIC\Tom Petty\2017. Tom Petty - Broadcast Collection '77-'93 (Soundstage SS8CDBOX19)\CD1\06 Listen To Her Heart.wav

Peak level 87.5 %
Extraction speed 5.0 X
Track quality 100.0 %
Test CRC AB6FFC06
Copy CRC AB6FFC06
Accurately ripped (confidence 4) [7BB3F0F3] (AR v2)
Copy OK

Track 7

Filename H:\AUDIO\MUSIC\Tom Petty\2017. Tom Petty - Broadcast Collection '77-'93 (Soundstage SS8CDBOX19)\CD1\07 I Need To Know.wav

Peak level 87.5 %
Extraction speed 3.7 X
Track quality 99.9 %
Test CRC 60AEB848
Copy CRC 60AEB848
Accurately ripped (confidence 4) [D92B6106] (AR v2)
Copy OK

Track 8

Filename H:\AUDIO\MUSIC\Tom Petty\2017. Tom Petty - Broadcast Collection '77-'93 (Soundstage SS8CDBOX19)\CD1\08 Strangered In The Night.wav

Peak level 87.5 %
Extraction speed 5.7 X
Track quality 100.0 %
Test CRC 5D87A6D3
Copy CRC 5D87A6D3
Accurately ripped (confidence 4) [D4845479] (AR v2)
Copy OK

Track 9

Filename H:\AUDIO\MUSIC\Tom Petty\2017. Tom Petty - Broadcast Collection '77-'93 (Soundstage SS8CDBOX19)\CD1\09 Dogs On The Run.wav

Peak level 87.5 %
Extraction speed 6.7 X
Track quality 100.0 %
Test CRC 39A4BF63
Copy CRC 39A4BF63
Accurately ripped (confidence 4) [9DBA1294] (AR v2)
Copy OK

Track 10

Filename H:\AUDIO\MUSIC\Tom Petty\2017. Tom Petty - Broadcast Collection '77-'93 (Soundstage SS8CDBOX19)\CD1\10 Route 66.wav

Peak level 87.5 %
Extraction speed 6.5 X
Track quality 100.0 %
Test CRC 4B5C866D
Copy CRC 4B5C866D
Accurately ripped (confidence 4) [57C24D1D] (AR v2)
Copy OK


All tracks accurately ripped

No errors occurred

End of status report

==== Log checksum C5294025C3282F5DAA8A35B7F3C9A0F82DDB24DF61EFDF372B8A1294E27B6AB2 ====


[CUETools log; Date: 26.12.2019 23:12:16; Version: 2.1.6]
[CTDB TOCID: CqZsX7cG3UVyQ28rGbed8LZj03s-] found.
Track | CTDB Status
1 | (14/14) Accurately ripped
2 | (14/14) Accurately ripped
3 | (14/14) Accurately ripped
4 | (14/14) Accurately ripped
5 | (14/14) Accurately ripped
6 | (14/14) Accurately ripped
7 | (14/14) Accurately ripped
8 | (14/14) Accurately ripped
9 | (14/14) Accurately ripped
10 | (14/14) Accurately ripped
[AccurateRip ID: 000fdad9-00819d07-7f0ac10a] found.
Track [ CRC | V2 ] Status
01 [4a661697|38ef20cf] (0+4/8) Accurately ripped
02 [9cb686c1|e6f1ca72] (0+4/8) Accurately ripped
03 [2f69e2d2|bbcc9ef2] (0+4/8) Accurately ripped
04 [c57d8b40|94acb267] (0+4/8) Accurately ripped
05 [56ab5a9e|d557c9b7] (0+4/8) Accurately ripped
06 [ae888dfd|7bb3f0f3] (0+4/8) Accurately ripped
07 [a6b8a3dc|d92b6106] (0+4/8) Accurately ripped
08 [3ee95ce8|d4845479] (0+4/8) Accurately ripped
09 [cd3cb77a|9dba1294] (0+4/8) Accurately ripped
10 [9a9ad4f6|57c24d1d] (0+4/8) Accurately ripped
Offsetted by 90:
01 [135a0852] (0/8) No match (V2 was not tested)
02 [51618c2c] (0/8) No match (V2 was not tested)
03 [fc50f893] (0/8) No match (V2 was not tested)
04 [abce31cb] (0/8) No match (V2 was not tested)
05 [ec96769f] (0/8) No match (V2 was not tested)
06 [d3dafb62] (0/8) No match (V2 was not tested)
07 [ffe647e3] (0/8) No match (V2 was not tested)
08 [ce7eb0f6] (0/8) No match (V2 was not tested)
09 [9d17a9dd] (0/8) No match (V2 was not tested)
10 [bcf424c2] (0/8) No match (V2 was not tested)

Track Peak [ CRC32 ] [W/O NULL] [ LOG ]
– 87,5 [B8A4D264] [979DB9D0]
01 87,5 [41DF50D5] [D6294F41] CRC32
02 87,5 [DBC6F578] [26694030] CRC32
03 87,5 [88DEB8B7] [78601156] CRC32
04 87,5 [1D68192F] [51EC8106] CRC32
05 87,5 [29BA0168] [5D3439C2] CRC32
06 87,5 [AB6FFC06] [E8A012FC] CRC32
07 87,5 [60AEB848] [8EF44669] CRC32
08 87,5 [5D87A6D3] [E7EC9565] CRC32
09 87,5 [39A4BF63] [11F3CF0F] CRC32
10 87,5 [4B5C866D] [2D7C40CB] CRC32


Tracklist CD2 - Paradise, Boston July 16th 1978 (King Biscuit Flower hour):

01. Anything That's Rock 'N' Roll [0:03:27.54]
02. Fooled Again (I Don't Like It) [0:05:33.23]
03. I Need To Know [0:02:31.40]
04. Don't Bring Me Dow [0:03:43.49]
05. You're Gonna Get It [0:04:02.34]
06. Breakdown [0:05:57.61]
07. American Girl [0:04:24.35]
08. Strangered In The Night [0:04:27.47]
09. Too Much Ain' t Enough [0:05:01.73]
10. Shout [0:07:45.67]
11. I Fought The Law [0:02:16.70]
12. Route 66 [0:03:49.56]
13. I'm A King Bee [0:05:33.17]

Exact Audio Copy V1.3 from 2. September 2016

EAC extraction logfile from 25. December 2019, 21:16

Tom Petty / Broadcast Collection '77-'93 (CD2)

Used drive : PLEXTOR DVDR PX-L890SA Adapter: 1 ID: 1

Read mode : Secure
Utilize accurate stream : Yes
Defeat audio cache : Yes
Make use of C2 pointers : No

Read offset correction : 6
Overread into Lead-In and Lead-Out : No
Fill up missing offset samples with silence : Yes
Delete leading and trailing silent blocks : No
Null samples used in CRC calculations : Yes
Used interface : Native Win32 interface for Win NT & 2000
Gap handling : Appended to previous track

Used output format : User Defined Encoder
Selected bitrate : 1024 kBit/s
Quality : High
Add ID3 tag : No
Command line compressor : C:\Program Files (x86)\Exact Audio Copy\Flac\flac.exe
Additional command line options : -8 -V -T "ARTIST=%artist%" -T "TITLE=%title%" -T "ALBUM=%albumtitle%" -T "DATE=%year%" -T "TRACKNUMBER=%tracknr%" -T "GENRE=%genre%" -T "PERFORMER=%albuminterpret%" -T "COMPOSER=%composer%" %haslyrics%–tag-from-file=LYRICS="%lyricsfile%"%haslyrics% -T "ALBUMARTIST=%albumartist%" -T "DISCNUMBER=%cdnumber%" -T "TOTALDISCS=%totalcds%" -T "TOTALTRACKS=%numtracks%" -T "COMMENT=%comment%" %source% -o %dest%


TOC of the extracted CD

Track | Start | Length | Start sector | End sector
––––––––––––––––––––––––––––-
1 | 0:00.00 | 3:27.54 | 0 | 15578
2 | 3:27.54 | 5:33.23 | 15579 | 40576
3 | 9:01.02 | 2:31.40 | 40577 | 51941
4 | 11:32.42 | 3:43.49 | 51942 | 68715
5 | 15:16.16 | 4:02.34 | 68716 | 86899
6 | 19:18.50 | 5:57.61 | 86900 | 113735
7 | 25:16.36 | 4:24.35 | 113736 | 133570
8 | 29:40.71 | 4:27.47 | 133571 | 153642
9 | 34:08.43 | 5:01.73 | 153643 | 176290
10 | 39:10.41 | 7:45.67 | 176291 | 211232
11 | 46:56.33 | 2:16.70 | 211233 | 221502
12 | 49:13.28 | 3:49.56 | 221503 | 238733
13 | 53:03.09 | 5:33.17 | 238734 | 263725


Track 1

Filename H:\AUDIO\MUSIC\Tom Petty\2017. Tom Petty - Broadcast Collection '77-'93 (Soundstage SS8CDBOX19)\CD2\01 Anything That's Rock 'N' Roll.wav

Pre-gap length 0:00:02.00

Peak level 100.0 %
Extraction speed 3.4 X
Track quality 100.0 %
Test CRC 932AF47B
Copy CRC 932AF47B
Accurately ripped (confidence 4) [F9367811] (AR v2)
Copy OK

Track 2

Filename H:\AUDIO\MUSIC\Tom Petty\2017. Tom Petty - Broadcast Collection '77-'93 (Soundstage SS8CDBOX19)\CD2\02 Fooled Again (I Don't Like It).wav

Peak level 99.7 %
Extraction speed 3.5 X
Track quality 99.9 %
Test CRC 205E37B5
Copy CRC 205E37B5
Accurately ripped (confidence 4) [F9E0B558] (AR v2)
Copy OK

Track 3

Filename H:\AUDIO\MUSIC\Tom Petty\2017. Tom Petty - Broadcast Collection '77-'93 (Soundstage SS8CDBOX19)\CD2\03 I Need To Know.wav

Peak level 100.0 %
Extraction speed 4.0 X
Track quality 100.0 %
Test CRC 0BE6B14B
Copy CRC 0BE6B14B
Accurately ripped (confidence 4) [1F55FC2A] (AR v2)
Copy OK

Track 4

Filename H:\AUDIO\MUSIC\Tom Petty\2017. Tom Petty - Broadcast Collection '77-'93 (Soundstage SS8CDBOX19)\CD2\04 Don't Bring Me Dow.wav

Peak level 100.0 %
Extraction speed 4.5 X
Track quality 100.0 %
Test CRC F2C0F538
Copy CRC F2C0F538
Accurately ripped (confidence 4) [4FE9E009] (AR v2)
Copy OK

Track 5

Filename H:\AUDIO\MUSIC\Tom Petty\2017. Tom Petty - Broadcast Collection '77-'93 (Soundstage SS8CDBOX19)\CD2\05 You're Gonna Get It.wav

Peak level 100.0 %
Extraction speed 4.9 X
Track quality 100.0 %
Test CRC A9ECCE5B
Copy CRC A9ECCE5B
Accurately ripped (confidence 4) [CA9F0C6E] (AR v2)
Copy OK

Track 6

Filename H:\AUDIO\MUSIC\Tom Petty\2017. Tom Petty - Broadcast Collection '77-'93 (Soundstage SS8CDBOX19)\CD2\06 Breakdown.wav

Peak level 99.5 %
Extraction speed 5.4 X
Track quality 100.0 %
Test CRC 634BD411
Copy CRC 634BD411
Accurately ripped (confidence 4) [F592C34C] (AR v2)
Copy OK

Track 7

Filename H:\AUDIO\MUSIC\Tom Petty\2017. Tom Petty - Broadcast Collection '77-'93 (Soundstage SS8CDBOX19)\CD2\07 American Girl.wav

Peak level 100.0 %
Extraction speed 5.6 X
Track quality 100.0 %
Test CRC 2446F2EF
Copy CRC 2446F2EF
Accurately ripped (confidence 4) [4CCAE474] (AR v2)
Copy OK

Track 8

Filename H:\AUDIO\MUSIC\Tom Petty\2017. Tom Petty - Broadcast Collection '77-'93 (Soundstage SS8CDBOX19)\CD2\08 Strangered In The Night.wav

Peak level 100.0 %
Extraction speed 5.8 X
Track quality 100.0 %
Test CRC 999EC9A1
Copy CRC 999EC9A1
Accurately ripped (confidence 4) [7C0320F7] (AR v2)
Copy OK

Track 9

Filename H:\AUDIO\MUSIC\Tom Petty\2017. Tom Petty - Broadcast Collection '77-'93 (Soundstage SS8CDBOX19)\CD2\09 Too Much Ain' t Enough.wav

Peak level 100.0 %
Extraction speed 6.2 X
Track quality 100.0 %
Test CRC 99AABAC2
Copy CRC 99AABAC2
Accurately ripped (confidence 4) [3FA3F2F7] (AR v2)
Copy OK

Track 10

Filename H:\AUDIO\MUSIC\Tom Petty\2017. Tom Petty - Broadcast Collection '77-'93 (Soundstage SS8CDBOX19)\CD2\10 Shout.wav

Peak level 99.4 %
Extraction speed 6.9 X
Track quality 100.0 %
Test CRC 52889D9E
Copy CRC 52889D9E
Accurately ripped (confidence 4) [FA0CCC13] (AR v2)
Copy OK

Track 11

Filename H:\AUDIO\MUSIC\Tom Petty\2017. Tom Petty - Broadcast Collection '77-'93 (Soundstage SS8CDBOX19)\CD2\11 I Fought The Law.wav

Peak level 99.2 %
Extraction speed 6.0 X
Track quality 100.0 %
Test CRC 1FA97939
Copy CRC 1FA97939
Accurately ripped (confidence 4) [6240861C] (AR v2)
Copy OK

Track 12

Filename H:\AUDIO\MUSIC\Tom Petty\2017. Tom Petty - Broadcast Collection '77-'93 (Soundstage SS8CDBOX19)\CD2\12 Route 66.wav

Peak level 100.0 %
Extraction speed 5.3 X
Track quality 99.9 %
Test CRC A4A9AED8
Copy CRC A4A9AED8
Accurately ripped (confidence 4) [C0BDA580] (AR v2)
Copy OK

Track 13

Filename H:\AUDIO\MUSIC\Tom Petty\2017. Tom Petty - Broadcast Collection '77-'93 (Soundstage SS8CDBOX19)\CD2\13 I'm A King Bee.wav

Peak level 100.0 %
Extraction speed 7.3 X
Track quality 100.0 %
Test CRC 29F83969
Copy CRC 29F83969
Accurately ripped (confidence 4) [837B2FFC] (AR v2)
Copy OK


All tracks accurately ripped

No errors occurred

End of status report

==== Log checksum FC38CB28A77E0B32610987E323F2404CF5045D4FC39A43373FD57342FAFE5CCE ====


[CUETools log; Date: 26.12.2019 23:15:56; Version: 2.1.6]
[CTDB TOCID: Q27jlz6JKHgoLqtZd3fRYikchfs-] found.
Track | CTDB Status
1 | (7/7) Accurately ripped
2 | (7/7) Accurately ripped
3 | (7/7) Accurately ripped
4 | (7/7) Accurately ripped
5 | (7/7) Accurately ripped
6 | (7/7) Accurately ripped
7 | (7/7) Accurately ripped
8 | (7/7) Accurately ripped
9 | (7/7) Accurately ripped
10 | (7/7) Accurately ripped
11 | (7/7) Accurately ripped
12 | (7/7) Accurately ripped
13 | (7/7) Accurately ripped
[AccurateRip ID: 001b1a17-0112dcb0-b30dbc0d] found.
Track [ CRC | V2 ] Status
01 [1b6d9359|f9367811] (0+4/4) Accurately ripped
02 [57af386b|f9e0b558] (0+4/4) Accurately ripped
03 [bfd1bc45|1f55fc2a] (0+4/4) Accurately ripped
04 [76393dbb|4fe9e009] (0+4/4) Accurately ripped
05 [ee340b33|ca9f0c6e] (0+4/4) Accurately ripped
06 [35a11462|f592c34c] (0+4/4) Accurately ripped
07 [030077db|4ccae474] (0+4/4) Accurately ripped
08 [ba53abf7|7c0320f7] (0+4/4) Accurately ripped
09 [811e6427|3fa3f2f7] (0+4/4) Accurately ripped
10 [a48399ee|fa0ccc13] (0+4/4) Accurately ripped
11 [54f9d638|6240861c] (0+4/4) Accurately ripped
12 [f4faaa5d|c0bda580] (0+4/4) Accurately ripped
13 [be0d3228|837b2ffc] (0+4/4) Accurately ripped

Track Peak [ CRC32 ] [W/O NULL] [ LOG ]
– 100,0 [18EBA68B] [22D6B3F4]
01 100,0 [932AF47B] [2ABC3A68] CRC32
02 99,7 [205E37B5] [714255B1] CRC32
03 100,0 [0BE6B14B] [7C884589] CRC32
04 100,0 [F2C0F538] [483B7DFB] CRC32
05 100,0 [A9ECCE5B] [8BC4EF04] CRC32
06 99,5 [634BD411] [D20C08CD] CRC32
07 100,0 [2446F2EF] [ECAABCEF] CRC32
08 100,0 [999EC9A1] [D06CF706] CRC32
09 100,0 [99AABAC2] [DD456073] CRC32
10 99,4 [52889D9E] [832AEBFE] CRC32
11 99,2 [1FA97939] [7017307D] CRC32
12 100,0 [A4A9AED8] [D01695D8] CRC32
13 100,0 [29F83969] [66EB3673] CRC32


Tracklist CD3 - Houston Music Hall, Texas December 6th 1979 (King Biscuit Flower Hour):

01. Introduction > Shadow Of A Doubt (A Complex Kid) [0:04:30.67]
02. Anything That's Rock 'N' Roll [0:03:45.06]
03. Fooled Again (I Don't Like It) [0:05:56.36]
04. Here Comes My Girl [0:04:45.42]
05. Even The Losers [0:03:42.07]
06. The Wild One, Forever [0:03:29.14]
07. I Need To Know [0:02:23.21]
08. Don't Do Me Like That [0:02:49.15]
09. Cry To Me [0:05:52.60]
10. Refugee [0:04:28.40]
11. Listen To Her Heart [0:03:20.03]
12. American Girl [0:04:12.08]
13. Breakdown [0:07:32.33]
14. Too Much Ain't Enough [0:04:25.69]
15. Any Way You Want It [0:02:52.11]
16. I Fought The Law (And The Law Won) [0:03:17.00]
17. Strangered In The Night [0:04:36.11]
18. Route 66 [0:03:11.06]

Exact Audio Copy V1.3 from 2. September 2016

EAC extraction logfile from 26. December 2019, 18:55

Tom Petty / Broadcast Collection '77-'93 (CD3)

Used drive : PLEXTOR DVDR PX-L890SA Adapter: 1 ID: 1

Read mode : Secure
Utilize accurate stream : Yes
Defeat audio cache : Yes
Make use of C2 pointers : No

Read offset correction : 6
Overread into Lead-In and Lead-Out : No
Fill up missing offset samples with silence : Yes
Delete leading and trailing silent blocks : No
Null samples used in CRC calculations : Yes
Used interface : Native Win32 interface for Win NT & 2000
Gap handling : Appended to previous track

Used output format : User Defined Encoder
Selected bitrate : 1024 kBit/s
Quality : High
Add ID3 tag : No
Command line compressor : C:\Program Files (x86)\Exact Audio Copy\Flac\flac.exe
Additional command line options : -8 -V -T "ARTIST=%artist%" -T "TITLE=%title%" -T "ALBUM=%albumtitle%" -T "DATE=%year%" -T "TRACKNUMBER=%tracknr%" -T "GENRE=%genre%" -T "PERFORMER=%albuminterpret%" -T "COMPOSER=%composer%" %haslyrics%–tag-from-file=LYRICS="%lyricsfile%"%haslyrics% -T "ALBUMARTIST=%albumartist%" -T "DISCNUMBER=%cdnumber%" -T "TOTALDISCS=%totalcds%" -T "TOTALTRACKS=%numtracks%" -T "COMMENT=%comment%" %source% -o %dest%


TOC of the extracted CD

Track | Start | Length | Start sector | End sector
––––––––––––––––––––––––––––-
1 | 0:00.00 | 4:30.67 | 0 | 20316
2 | 4:30.67 | 3:45.06 | 20317 | 37197
3 | 8:15.73 | 5:56.36 | 37198 | 63933
4 | 14:12.34 | 4:45.42 | 63934 | 85350
5 | 18:58.01 | 3:42.07 | 85351 | 102007
6 | 22:40.08 | 3:29.14 | 102008 | 117696
7 | 26:09.22 | 2:23.21 | 117697 | 128442
8 | 28:32.43 | 2:49.15 | 128443 | 141132
9 | 31:21.58 | 5:52.60 | 141133 | 167592
10 | 37:14.43 | 4:28.40 | 167593 | 187732
11 | 41:43.08 | 3:20.03 | 187733 | 202735
12 | 45:03.11 | 4:12.08 | 202736 | 221643
13 | 49:15.19 | 7:32.33 | 221644 | 255576
14 | 56:47.52 | 4:25.69 | 255577 | 275520
15 | 61:13.46 | 2:52.11 | 275521 | 288431
16 | 64:05.57 | 3:17.00 | 288432 | 303206
17 | 67:22.57 | 4:36.11 | 303207 | 323917
18 | 71:58.68 | 3:11.06 | 323918 | 338248


Track 1

Filename H:\AUDIO\MUSIC\Tom Petty\2017. Tom Petty - Broadcast Collection '77-'93 (Soundstage SS8CDBOX19)\CD3\01 Introduction ] Shadow Of A Doubt (A Complex Kid).wav

Pre-gap length 0:00:02.00

Peak level 75.7 %
Extraction speed 1.8 X
Track quality 99.9 %
Test CRC 83D94747
Copy CRC 83D94747
Accurately ripped (confidence 3) [9E7257AD] (AR v2)
Copy OK

Track 2

Filename H:\AUDIO\MUSIC\Tom Petty\2017. Tom Petty - Broadcast Collection '77-'93 (Soundstage SS8CDBOX19)\CD3\02 Anything That's Rock 'N' Roll.wav

Peak level 79.9 %
Extraction speed 1.9 X
Track quality 99.9 %
Test CRC 2EFC575C
Copy CRC 2EFC575C
Accurately ripped (confidence 3) [BDBA3F12] (AR v2)
Copy OK

Track 3

Filename H:\AUDIO\MUSIC\Tom Petty\2017. Tom Petty - Broadcast Collection '77-'93 (Soundstage SS8CDBOX19)\CD3\03 Fooled Again (I Don't Like It).wav

Peak level 71.2 %
Extraction speed 2.5 X
Track quality 100.0 %
Test CRC 67A56434
Copy CRC 67A56434
Accurately ripped (confidence 3) [8AB8EB30] (AR v2)
Copy OK

Track 4

Filename H:\AUDIO\MUSIC\Tom Petty\2017. Tom Petty - Broadcast Collection '77-'93 (Soundstage SS8CDBOX19)\CD3\04 Here Comes My Girl.wav

Peak level 71.1 %
Extraction speed 2.7 X
Track quality 100.0 %
Test CRC 39262618
Copy CRC 39262618
Accurately ripped (confidence 3) [970E6DD4] (AR v2)
Copy OK

Track 5

Filename H:\AUDIO\MUSIC\Tom Petty\2017. Tom Petty - Broadcast Collection '77-'93 (Soundstage SS8CDBOX19)\CD3\05 Even The Losers.wav

Peak level 77.4 %
Extraction speed 2.4 X
Track quality 99.9 %
Test CRC 51531378
Copy CRC 51531378
Accurately ripped (confidence 3) [B167B0C9] (AR v2)
Copy OK

Track 6

Filename H:\AUDIO\MUSIC\Tom Petty\2017. Tom Petty - Broadcast Collection '77-'93 (Soundstage SS8CDBOX19)\CD3\06 The Wild One, Forever.wav

Peak level 62.1 %
Extraction speed 2.8 X
Track quality 100.0 %
Test CRC E7B63179
Copy CRC E7B63179
Accurately ripped (confidence 3) [B53E279F] (AR v2)
Copy OK

Track 7

Filename H:\AUDIO\MUSIC\Tom Petty\2017. Tom Petty - Broadcast Collection '77-'93 (Soundstage SS8CDBOX19)\CD3\07 I Need To Know.wav

Peak level 71.5 %
Extraction speed 2.7 X
Track quality 100.0 %
Test CRC DFE9ECF4
Copy CRC DFE9ECF4
Accurately ripped (confidence 3) [497BD0B4] (AR v2)
Copy OK

Track 8

Filename H:\AUDIO\MUSIC\Tom Petty\2017. Tom Petty - Broadcast Collection '77-'93 (Soundstage SS8CDBOX19)\CD3\08 Don't Do Me Like That.wav

Peak level 76.4 %
Extraction speed 2.9 X
Track quality 100.0 %
Test CRC 6343C499
Copy CRC 6343C499
Accurately ripped (confidence 3) [8EC6E4E1] (AR v2)
Copy OK

Track 9

Filename H:\AUDIO\MUSIC\Tom Petty\2017. Tom Petty - Broadcast Collection '77-'93 (Soundstage SS8CDBOX19)\CD3\09 Cry To Me.wav

Peak level 75.5 %
Extraction speed 3.4 X
Track quality 100.0 %
Test CRC BB1BA7D6
Copy CRC BB1BA7D6
Accurately ripped (confidence 3) [C71F8D8B] (AR v2)
Copy OK

Track 10

Filename H:\AUDIO\MUSIC\Tom Petty\2017. Tom Petty - Broadcast Collection '77-'93 (Soundstage SS8CDBOX19)\CD3\10 Refugee.wav

Peak level 76.0 %
Extraction speed 3.4 X
Track quality 100.0 %
Test CRC 1DF3A72C
Copy CRC 1DF3A72C
Accurately ripped (confidence 3) [D4F49DB5] (AR v2)
Copy OK

Track 11

Filename H:\AUDIO\MUSIC\Tom Petty\2017. Tom Petty - Broadcast Collection '77-'93 (Soundstage SS8CDBOX19)\CD3\11 Listen To Her Heart.wav

Peak level 75.1 %
Extraction speed 3.4 X
Track quality 100.0 %
Test CRC AC23AAB7
Copy CRC AC23AAB7
Accurately ripped (confidence 3) [35D74E54] (AR v2)
Copy OK

Track 12

Filename H:\AUDIO\MUSIC\Tom Petty\2017. Tom Petty - Broadcast Collection '77-'93 (Soundstage SS8CDBOX19)\CD3\12 American Girl.wav

Peak level 77.8 %
Extraction speed 3.6 X
Track quality 100.0 %
Test CRC 1964E4F3
Copy CRC 1964E4F3
Accurately ripped (confidence 3) [4CD75856] (AR v2)
Copy OK

Track 13

Filename H:\AUDIO\MUSIC\Tom Petty\2017. Tom Petty - Broadcast Collection '77-'93 (Soundstage SS8CDBOX19)\CD3\13 Breakdown.wav

Peak level 64.4 %
Extraction speed 4.0 X
Track quality 100.0 %
Test CRC 0054464F
Copy CRC 0054464F
Accurately ripped (confidence 3) [B7F1579B] (AR v2)
Copy OK

Track 14

Filename H:\AUDIO\MUSIC\Tom Petty\2017. Tom Petty - Broadcast Collection '77-'93 (Soundstage SS8CDBOX19)\CD3\14 Too Much Ain't Enough.wav

Peak level 73.3 %
Extraction speed 3.5 X
Track quality 99.9 %
Test CRC 62EDAB45
Copy CRC 62EDAB45
Accurately ripped (confidence 3) [68BFE873] (AR v2)
Copy OK

Track 15

Filename H:\AUDIO\MUSIC\Tom Petty\2017. Tom Petty - Broadcast Collection '77-'93 (Soundstage SS8CDBOX19)\CD3\15 Any Way You Want It.wav

Peak level 75.9 %
Extraction speed 3.8 X
Track quality 100.0 %
Test CRC 6C340550
Copy CRC 6C340550
Accurately ripped (confidence 3) [245C64DE] (AR v2)
Copy OK

Track 16

Filename H:\AUDIO\MUSIC\Tom Petty\2017. Tom Petty - Broadcast Collection '77-'93 (Soundstage SS8CDBOX19)\CD3\16 I Fought The Law (And The Law Won).wav

Peak level 78.7 %
Extraction speed 3.9 X
Track quality 100.0 %
Test CRC 8DD1FE91
Copy CRC 8DD1FE91
Accurately ripped (confidence 3) [9BCAE996] (AR v2)
Copy OK

Track 17

Filename H:\AUDIO\MUSIC\Tom Petty\2017. Tom Petty - Broadcast Collection '77-'93 (Soundstage SS8CDBOX19)\CD3\17 Strangered In The Night.wav

Peak level 67.3 %
Extraction speed 4.2 X
Track quality 100.0 %
Test CRC 39FD1666
Copy CRC 39FD1666
Accurately ripped (confidence 3) [95B0ED9B] (AR v2)
Copy OK

Track 18

Filename H:\AUDIO\MUSIC\Tom Petty\2017. Tom Petty - Broadcast Collection '77-'93 (Soundstage SS8CDBOX19)\CD3\18 Route 66.wav

Peak level 74.9 %
Extraction speed 4.0 X
Track quality 100.0 %
Test CRC 81F48E25
Copy CRC 81F48E25
Accurately ripped (confidence 3) [A742719E] (AR v2)
Copy OK


All tracks accurately ripped

No errors occurred

End of status report

==== Log checksum 357F014BD3842A87056837C349A1C12AB1026EDFDA5CCB6E80174F13D10DC12C ====


[CUETools log; Date: 26.12.2019 23:26:50; Version: 2.1.6]
[CTDB TOCID: uqAxeIWkAIwv3iVsUAkbUprFu.A-] found.
Track | CTDB Status
1 | (6/6) Accurately ripped
2 | (6/6) Accurately ripped
3 | (6/6) Accurately ripped
4 | (6/6) Accurately ripped
5 | (6/6) Accurately ripped
6 | (6/6) Accurately ripped
7 | (6/6) Accurately ripped
8 | (6/6) Accurately ripped
9 | (6/6) Accurately ripped
10 | (6/6) Accurately ripped
11 | (6/6) Accurately ripped
12 | (6/6) Accurately ripped
13 | (6/6) Accurately ripped
14 | (6/6) Accurately ripped
15 | (6/6) Accurately ripped
16 | (6/6) Accurately ripped
17 | (6/6) Accurately ripped
18 | (6/6) Accurately ripped
[AccurateRip ID: 0031c113-0295a38c-02119d12] found.
Track [ CRC | V2 ] Status
01 [eac899a3|9e7257ad] (0+3/3) Accurately ripped
02 [95c897a8|bdba3f12] (0+3/3) Accurately ripped
03 [8ed6a2ce|8ab8eb30] (0+3/3) Accurately ripped
04 [9d262ba6|970e6dd4] (0+3/3) Accurately ripped
05 [c7ecc990|b167b0c9] (0+3/3) Accurately ripped
06 [1a25d3db|b53e279f] (0+3/3) Accurately ripped
07 [dd591b1e|497bd0b4] (0+3/3) Accurately ripped
08 [07e23b48|8ec6e4e1] (0+3/3) Accurately ripped
09 [feee5f2a|c71f8d8b] (0+3/3) Accurately ripped
10 [ec78798f|d4f49db5] (0+3/3) Accurately ripped
11 [9a6e1699|35d74e54] (0+3/3) Accurately ripped
12 [2dfa2d37|4cd75856] (0+3/3) Accurately ripped
13 [3a8d7bd3|b7f1579b] (0+3/3) Accurately ripped
14 [da12feeb|68bfe873] (0+3/3) Accurately ripped
15 [1b48f397|245c64de] (0+3/3) Accurately ripped
16 [e698f452|9bcae996] (0+3/3) Accurately ripped
17 [9758f63e|95b0ed9b] (0+3/3) Accurately ripped
18 [f6b3f161|a742719e] (0+3/3) Accurately ripped

Track Peak [ CRC32 ] [W/O NULL] [ LOG ]
– 79,9 [ECE3C8CC] [5022E487]
01 75,7 [83D94747] [17665F86] CRC32
02 79,9 [2EFC575C] [A6CD3E18] CRC32
03 71,2 [67A56434] [AF4B89C8] CRC32
04 71,1 [39262618] [1C448FF8] CRC32
05 77,4 [51531378] [77EF8DDB] CRC32
06 62,1 [E7B63179] [438935FF] CRC32
07 71,5 [DFE9ECF4] [9F9BBA5A] CRC32
08 76,4 [6343C499] [68E9A028] CRC32
09 75,5 [BB1BA7D6] [736CF8E9] CRC32
10 76,0 [1DF3A72C] [4FFF6878] CRC32
11 75,1 [AC23AAB7] [653D8CC5] CRC32
12 77,8 [1964E4F3] [BC0CD0F2] CRC32
13 64,4 [0054464F] [7F7714BF] CRC32
14 73,3 [62EDAB45] [99FB0AEB] CRC32
15 75,9 [6C340550] [A8FDB456] CRC32
16 78,7 [8DD1FE91] [FDD9C1AD] CRC32
17 67,3 [39FD1666] [6B556D36] CRC32
18 74,9 [81F48E25] [575D1063] CRC32


Tracklist CD4 - Tom Petty & Bob Dylan, Entertainment Centre, Sydney February 1986 (KSAN-FM):

01. Positively Fourth Street [0:05:12.53]
02. All Along The Watchtower [0:04:13.24]
03. Masters Of War [0:05:07.64]
04. I'll Remember You [0:04:31.30]
05. I Forgot More Than You'll Ever Know [0:03:32.72]
06. Bye Bye Johnny [0:03:20.13]
07. Breakdown [0:07:29.67]
08. Just Like A Woman [0:05:01.39]
09. Blowin' In The Wind [0:03:57.15]
10. That Lucky Old Sun [0:03:06.53]
11. So You Want To Be A R-n-R Star [0:04:02.60]
12. Spike [0:07:12.55]
13. Like A Rolling Stone [0:06:05.42]
14. Knockin' On Heaven's Door [0:07:49.51]

Exact Audio Copy V1.3 from 2. September 2016

EAC extraction logfile from 26. December 2019, 18:48

Tom Petty / Broadcast Collection '77-'93 (CD4)

Used drive : Optiarc DVD RW AD-7263S Adapter: 1 ID: 0

Read mode : Secure
Utilize accurate stream : Yes
Defeat audio cache : Yes
Make use of C2 pointers : No

Read offset correction : 48
Overread into Lead-In and Lead-Out : No
Fill up missing offset samples with silence : Yes
Delete leading and trailing silent blocks : No
Null samples used in CRC calculations : Yes
Used interface : Native Win32 interface for Win NT & 2000
Gap handling : Appended to previous track

Used output format : User Defined Encoder
Selected bitrate : 1024 kBit/s
Quality : High
Add ID3 tag : No
Command line compressor : C:\Program Files (x86)\Exact Audio Copy\Flac\flac.exe
Additional command line options : -8 -V -T "ARTIST=%artist%" -T "TITLE=%title%" -T "ALBUM=%albumtitle%" -T "DATE=%year%" -T "TRACKNUMBER=%tracknr%" -T "GENRE=%genre%" -T "PERFORMER=%albuminterpret%" -T "COMPOSER=%composer%" %haslyrics%–tag-from-file=LYRICS="%lyricsfile%"%haslyrics% -T "ALBUMARTIST=%albumartist%" -T "DISCNUMBER=%cdnumber%" -T "TOTALDISCS=%totalcds%" -T "TOTALTRACKS=%numtracks%" -T "COMMENT=%comment%" %source% -o %dest%


TOC of the extracted CD

Track | Start | Length | Start sector | End sector
––––––––––––––––––––––––––––-
1 | 0:00.00 | 5:12.53 | 0 | 23452
2 | 5:12.53 | 4:13.24 | 23453 | 42451
3 | 9:26.02 | 5:07.64 | 42452 | 65540
4 | 14:33.66 | 4:31.30 | 65541 | 85895
5 | 19:05.21 | 3:32.72 | 85896 | 101867
6 | 22:38.18 | 3:20.13 | 101868 | 116880
7 | 25:58.31 | 7:29.67 | 116881 | 150622
8 | 33:28.23 | 5:01.39 | 150623 | 173236
9 | 38:29.62 | 3:57.15 | 173237 | 191026
10 | 42:27.02 | 3:06.53 | 191027 | 205029
11 | 45:33.55 | 4:02.60 | 205030 | 223239
12 | 49:36.40 | 7:12.55 | 223240 | 255694
13 | 56:49.20 | 6:05.42 | 255695 | 283111
14 | 62:54.62 | 7:49.51 | 283112 | 318337


Track 1

Filename H:\AUDIO\MUSIC\Tom Petty\2017. Tom Petty - Broadcast Collection '77-'93 (Soundstage SS8CDBOX19)\CD4\01 Positively Fourth Street.wav

Pre-gap length 0:00:02.00

Peak level 99.9 %
Extraction speed 2.2 X
Track quality 99.9 %
Test CRC 7C15EAD0
Copy CRC 7C15EAD0
Accurately ripped (confidence 10) [98FD76D3] (AR v2)
Copy OK

Track 2

Filename H:\AUDIO\MUSIC\Tom Petty\2017. Tom Petty - Broadcast Collection '77-'93 (Soundstage SS8CDBOX19)\CD4\02 All Along The Watchtower.wav

Peak level 99.9 %
Extraction speed 2.4 X
Track quality 99.9 %
Test CRC 7CAA40D9
Copy CRC 7CAA40D9
Accurately ripped (confidence 10) [FFF6FF0F] (AR v2)
Copy OK

Track 3

Filename H:\AUDIO\MUSIC\Tom Petty\2017. Tom Petty - Broadcast Collection '77-'93 (Soundstage SS8CDBOX19)\CD4\03 Masters Of War.wav

Peak level 99.9 %
Extraction speed 3.0 X
Track quality 100.0 %
Test CRC 342FEB48
Copy CRC 342FEB48
Accurately ripped (confidence 10) [558DC84C] (AR v2)
Copy OK

Track 4

Filename H:\AUDIO\MUSIC\Tom Petty\2017. Tom Petty - Broadcast Collection '77-'93 (Soundstage SS8CDBOX19)\CD4\04 I'll Remember You.wav

Peak level 99.9 %
Extraction speed 3.2 X
Track quality 100.0 %
Test CRC 68488698
Copy CRC 68488698
Accurately ripped (confidence 10) [03862D23] (AR v2)
Copy OK

Track 5

Filename H:\AUDIO\MUSIC\Tom Petty\2017. Tom Petty - Broadcast Collection '77-'93 (Soundstage SS8CDBOX19)\CD4\05 I Forgot More Than You'll Ever Know.wav

Peak level 99.9 %
Extraction speed 3.3 X
Track quality 100.0 %
Test CRC 743B0911
Copy CRC 743B0911
Accurately ripped (confidence 10) [1435AEBB] (AR v2)
Copy OK

Track 6

Filename H:\AUDIO\MUSIC\Tom Petty\2017. Tom Petty - Broadcast Collection '77-'93 (Soundstage SS8CDBOX19)\CD4\06 Bye Bye Johnny.wav

Peak level 99.9 %
Extraction speed 2.9 X
Track quality 99.9 %
Test CRC EE955BC6
Copy CRC EE955BC6
Accurately ripped (confidence 10) [12EDCCFB] (AR v2)
Copy OK

Track 7

Filename H:\AUDIO\MUSIC\Tom Petty\2017. Tom Petty - Broadcast Collection '77-'93 (Soundstage SS8CDBOX19)\CD4\07 Breakdown.wav

Peak level 99.9 %
Extraction speed 4.0 X
Track quality 100.0 %
Test CRC 56EE3EE6
Copy CRC 56EE3EE6
Accurately ripped (confidence 10) [62DA88E7] (AR v2)
Copy OK

Track 8

Filename H:\AUDIO\MUSIC\Tom Petty\2017. Tom Petty - Broadcast Collection '77-'93 (Soundstage SS8CDBOX19)\CD4\08 Just Like A Woman.wav

Peak level 99.9 %
Extraction speed 4.1 X
Track quality 100.0 %
Test CRC BB2923C1
Copy CRC BB2923C1
Accurately ripped (confidence 10) [CAF96DC6] (AR v2)
Copy OK

Track 9

Filename H:\AUDIO\MUSIC\Tom Petty\2017. Tom Petty - Broadcast Collection '77-'93 (Soundstage SS8CDBOX19)\CD4\09 Blowin' In The Wind.wav

Peak level 99.9 %
Extraction speed 4.2 X
Track quality 100.0 %
Test CRC 3EC0F3E6
Copy CRC 3EC0F3E6
Accurately ripped (confidence 10) [CDD973E8] (AR v2)
Copy OK

Track 10

Filename H:\AUDIO\MUSIC\Tom Petty\2017. Tom Petty - Broadcast Collection '77-'93 (Soundstage SS8CDBOX19)\CD4\10 That Lucky Old Sun.wav

Peak level 99.9 %
Extraction speed 4.1 X
Track quality 100.0 %
Test CRC 81B3BAF6
Copy CRC 81B3BAF6
Accurately ripped (confidence 10) [D50CC51D] (AR v2)
Copy OK

Track 11

Filename H:\AUDIO\MUSIC\Tom Petty\2017. Tom Petty - Broadcast Collection '77-'93 (Soundstage SS8CDBOX19)\CD4\11 So You Want To Be A R-n-R Star.wav

Peak level 99.9 %
Extraction speed 4.4 X
Track quality 100.0 %
Test CRC 1A2A18FA
Copy CRC 1A2A18FA
Accurately ripped (confidence 10) [5B2F135A] (AR v2)
Copy OK

Track 12

Filename H:\AUDIO\MUSIC\Tom Petty\2017. Tom Petty - Broadcast Collection '77-'93 (Soundstage SS8CDBOX19)\CD4\12 Spike.wav

Peak level 99.9 %
Extraction speed 4.9 X
Track quality 100.0 %
Test CRC 32A7EE21
Copy CRC 32A7EE21
Accurately ripped (confidence 10) [8A6A9404] (AR v2)
Copy OK

Track 13

Filename H:\AUDIO\MUSIC\Tom Petty\2017. Tom Petty - Broadcast Collection '77-'93 (Soundstage SS8CDBOX19)\CD4\13 Like A Rolling Stone.wav

Peak level 99.9 %
Extraction speed 4.6 X
Track quality 99.9 %
Test CRC EC16D846
Copy CRC EC16D846
Accurately ripped (confidence 10) [F760B90A] (AR v2)
Copy OK

Track 14

Filename H:\AUDIO\MUSIC\Tom Petty\2017. Tom Petty - Broadcast Collection '77-'93 (Soundstage SS8CDBOX19)\CD4\14 Knockin' On Heaven's Door.wav

Peak level 99.9 %
Extraction speed 5.3 X
Track quality 100.0 %
Test CRC 63BF6D5A
Copy CRC 63BF6D5A
Accurately ripped (confidence 10) [95732BFE] (AR v2)
Copy OK


All tracks accurately ripped

No errors occurred

End of status report

==== Log checksum 11A13E0C068C751DA7C1FCC2FD0B79CBD426592A5014FE53AF4979BF8ED4CBDE ====


[CUETools log; Date: 26.12.2019 23:30:49; Version: 2.1.6]
[CTDB TOCID: SZc8xHpJujNCGpWe3TL6QXKmSW0-] found.
Track | CTDB Status
1 | (40/40) Accurately ripped
2 | (40/40) Accurately ripped
3 | (40/40) Accurately ripped
4 | (40/40) Accurately ripped
5 | (40/40) Accurately ripped
6 | (40/40) Accurately ripped
7 | (40/40) Accurately ripped
8 | (40/40) Accurately ripped
9 | (40/40) Accurately ripped
10 | (40/40) Accurately ripped
11 | (40/40) Accurately ripped
12 | (39/40) Accurately ripped
13 | (40/40) Accurately ripped
14 | (40/40) Accurately ripped
[AccurateRip ID: 00221fe9-016db358-bd10940e] found.
Track [ CRC | V2 ] Status
01 [ad6c7fd3|98fd76d3] (00+10/16) Accurately ripped
02 [cfce96f9|fff6ff0f] (00+10/16) Accurately ripped
03 [5d2dd172|558dc84c] (00+10/16) Accurately ripped
04 [c4b7e249|03862d23] (00+10/16) Accurately ripped
05 [6b912ead|1435aebb] (00+10/16) Accurately ripped
06 [10d0ac94|12edccfb] (00+10/16) Accurately ripped
07 [aaeac120|62da88e7] (00+10/16) Accurately ripped
08 [7781ccd6|caf96dc6] (00+10/16) Accurately ripped
09 [67799c4e|cdd973e8] (00+10/16) Accurately ripped
10 [8516883e|d50cc51d] (00+10/16) Accurately ripped
11 [6aebe8d7|5b2f135a] (00+10/16) Accurately ripped
12 [1b01c8bb|8a6a9404] (00+10/16) Accurately ripped
13 [50d7dbbb|f760b90a] (00+10/16) Accurately ripped
14 [d83912c3|95732bfe] (00+10/16) Accurately ripped
Offsetted by -12:
01 [1b76af2e] (00/16) No match (V2 was not tested)
02 [381991d1] (00/16) No match (V2 was not tested)
03 [d3f60b6a] (00/16) No match (V2 was not tested)
04 [1659c696] (00/16) No match (V2 was not tested)
05 [a2e479a2] (00/16) No match (V2 was not tested)
06 [85cd481e] (00/16) No match (V2 was not tested)
07 [2b231391] (00/16) No match (V2 was not tested)
08 [5f13b048] (00/16) No match (V2 was not tested)
09 [9549edf0] (00/16) No match (V2 was not tested)
10 [bd911072] (00/16) No match (V2 was not tested)
11 [abd9cb9e] (00/16) No match (V2 was not tested)
12 [a7e434da] (00/16) No match (V2 was not tested)
13 [d63a13d3] (00/16) No match (V2 was not tested)
14 [6a9e9e89] (00/16) No match (V2 was not tested)

Track Peak [ CRC32 ] [W/O NULL] [ LOG ]
– 99,9 [E31B45C7] [7FEC3C23]
01 99,9 [7C15EAD0] [2CC1C263] CRC32
02 99,9 [7CAA40D9] [C444987C] CRC32
03 99,9 [342FEB48] [210A7F16] CRC32
04 99,9 [68488698] [A69ED823] CRC32
05 99,9 [743B0911] [2D3FCE4B] CRC32
06 99,9 [EE955BC6] [8FE71189] CRC32
07 99,9 [56EE3EE6] [F085FC39] CRC32
08 99,9 [BB2923C1] [DDBE8116] CRC32
09 99,9 [3EC0F3E6] [DC0619FD] CRC32
10 99,9 [81B3BAF6] [2937C299] CRC32
11 99,9 [1A2A18FA] [F3D1C811] CRC32
12 99,9 [32A7EE21] [D7FFAA17] CRC32
13 99,9 [EC16D846] [53C71489] CRC32
14 99,9 [63BF6D5A] [FE4E5CB7] CRC32


Tracklist CD5 - The Coliseum, Jacksonville July 25th 1987 (WJCT-FM):

01. Bye, Bye Johnny [0:03:12.70]
02. Break Down [0:04:32.71]
03. King's Road [0:06:44.71]
04. The Waiting [0:07:10.71]
05. Don't Come Around Here No More [0:07:21.70]
06. For What It's Worth [0:05:10.69]
07. The Image Of Me [0:03:19.70]
08. Here Comes My Girl [0:06:34.71]
09. Should I Stay Or Should I Go [0:02:58.71]
10. Can't Judge A Book By It's Cover [0:03:35.71]
11. Anyway You Want It [0:03:18.70]
12. Runaway Trains [0:05:57.72]
13. Refugee [0:05:31.32]

Exact Audio Copy V1.3 from 2. September 2016

EAC extraction logfile from 26. December 2019, 19:24

Tom Petty / Broadcast Collection '77-'93 (CD5)

Used drive : PLEXTOR DVDR PX-L890SA Adapter: 1 ID: 1

Read mode : Secure
Utilize accurate stream : Yes
Defeat audio cache : Yes
Make use of C2 pointers : No

Read offset correction : 6
Overread into Lead-In and Lead-Out : No
Fill up missing offset samples with silence : Yes
Delete leading and trailing silent blocks : No
Null samples used in CRC calculations : Yes
Used interface : Native Win32 interface for Win NT & 2000
Gap handling : Appended to previous track

Used output format : User Defined Encoder
Selected bitrate : 1024 kBit/s
Quality : High
Add ID3 tag : No
Command line compressor : C:\Program Files (x86)\Exact Audio Copy\Flac\flac.exe
Additional command line options : -8 -V -T "ARTIST=%artist%" -T "TITLE=%title%" -T "ALBUM=%albumtitle%" -T "DATE=%year%" -T "TRACKNUMBER=%tracknr%" -T "GENRE=%genre%" -T "PERFORMER=%albuminterpret%" -T "COMPOSER=%composer%" %haslyrics%–tag-from-file=LYRICS="%lyricsfile%"%haslyrics% -T "ALBUMARTIST=%albumartist%" -T "DISCNUMBER=%cdnumber%" -T "TOTALDISCS=%totalcds%" -T "TOTALTRACKS=%numtracks%" -T "COMMENT=%comment%" %source% -o %dest%


TOC of the extracted CD

Track | Start | Length | Start sector | End sector
––––––––––––––––––––––––––––-
1 | 0:00.00 | 3:12.70 | 0 | 14469
2 | 3:12.70 | 4:32.71 | 14470 | 34940
3 | 7:45.66 | 6:44.71 | 34941 | 65311
4 | 14:30.62 | 7:10.71 | 65312 | 97632
5 | 21:41.58 | 7:21.70 | 97633 | 130777
6 | 29:03.53 | 5:10.69 | 130778 | 154096
7 | 34:14.47 | 3:19.70 | 154097 | 169091
8 | 37:34.42 | 6:34.71 | 169092 | 198712
9 | 44:09.38 | 2:58.71 | 198713 | 212133
10 | 47:08.34 | 3:35.71 | 212134 | 228329
11 | 50:44.30 | 3:18.70 | 228330 | 243249
12 | 54:03.25 | 5:57.72 | 243250 | 270096
13 | 60:01.22 | 5:31.32 | 270097 | 294953


Track 1

Filename H:\AUDIO\MUSIC\Tom Petty\2017. Tom Petty - Broadcast Collection '77-'93 (Soundstage SS8CDBOX19)\CD5\01 Bye, Bye Johnny.wav

Pre-gap length 0:00:02.00

Peak level 99.8 %
Extraction speed 3.3 X
Track quality 100.0 %
Test CRC E2ACC953
Copy CRC E2ACC953
Accurately ripped (confidence 3) [8B296FB6] (AR v2)
Copy OK

Track 2

Filename H:\AUDIO\MUSIC\Tom Petty\2017. Tom Petty - Broadcast Collection '77-'93 (Soundstage SS8CDBOX19)\CD5\02 Break Down.wav

Peak level 96.6 %
Extraction speed 3.9 X
Track quality 100.0 %
Test CRC 280F7486
Copy CRC 280F7486
Accurately ripped (confidence 3) [B940D43B] (AR v2)
Copy OK

Track 3

Filename H:\AUDIO\MUSIC\Tom Petty\2017. Tom Petty - Broadcast Collection '77-'93 (Soundstage SS8CDBOX19)\CD5\03 King's Road.wav

Peak level 99.4 %
Extraction speed 4.7 X
Track quality 100.0 %
Test CRC 4334A8B6
Copy CRC 4334A8B6
Accurately ripped (confidence 3) [A7B258E8] (AR v2)
Copy OK

Track 4

Filename H:\AUDIO\MUSIC\Tom Petty\2017. Tom Petty - Broadcast Collection '77-'93 (Soundstage SS8CDBOX19)\CD5\04 The Waiting.wav

Peak level 93.3 %
Extraction speed 4.6 X
Track quality 99.9 %
Test CRC 4A536423
Copy CRC 4A536423
Accurately ripped (confidence 4) [946FF082] (AR v2)
Copy OK

Track 5

Filename H:\AUDIO\MUSIC\Tom Petty\2017. Tom Petty - Broadcast Collection '77-'93 (Soundstage SS8CDBOX19)\CD5\05 Don't Come Around Here No More.wav

Peak level 98.9 %
Extraction speed 5.7 X
Track quality 100.0 %
Test CRC CBE33B79
Copy CRC CBE33B79
Accurately ripped (confidence 4) [93FD4A5D] (AR v2)
Copy OK

Track 6

Filename H:\AUDIO\MUSIC\Tom Petty\2017. Tom Petty - Broadcast Collection '77-'93 (Soundstage SS8CDBOX19)\CD5\06 For What It's Worth.wav

Peak level 98.1 %
Extraction speed 6.0 X
Track quality 100.0 %
Test CRC 2C66F5C2
Copy CRC 2C66F5C2
Accurately ripped (confidence 4) [28E28915] (AR v2)
Copy OK

Track 7

Filename H:\AUDIO\MUSIC\Tom Petty\2017. Tom Petty - Broadcast Collection '77-'93 (Soundstage SS8CDBOX19)\CD5\07 The Image Of Me.wav

Peak level 97.1 %
Extraction speed 5.8 X
Track quality 100.0 %
Test CRC F914EBBF
Copy CRC F914EBBF
Accurately ripped (confidence 4) [C2C94CD7] (AR v2)
Copy OK

Track 8

Filename H:\AUDIO\MUSIC\Tom Petty\2017. Tom Petty - Broadcast Collection '77-'93 (Soundstage SS8CDBOX19)\CD5\08 Here Comes My Girl.wav

Peak level 92.7 %
Extraction speed 6.7 X
Track quality 100.0 %
Test CRC 7E54AC75
Copy CRC 7E54AC75
Accurately ripped (confidence 4) [8F2C47FD] (AR v2)
Copy OK

Track 9

Filename H:\AUDIO\MUSIC\Tom Petty\2017. Tom Petty - Broadcast Collection '77-'93 (Soundstage SS8CDBOX19)\CD5\09 Should I Stay Or Should I Go.wav

Peak level 94.3 %
Extraction speed 4.7 X
Track quality 99.9 %
Test CRC 54DC23BE
Copy CRC 54DC23BE
Accurately ripped (confidence 4) [F61021BD] (AR v2)
Copy OK

Track 10

Filename H:\AUDIO\MUSIC\Tom Petty\2017. Tom Petty - Broadcast Collection '77-'93 (Soundstage SS8CDBOX19)\CD5\10 Can't Judge A Book By It's Cover.wav

Peak level 93.2 %
Extraction speed 6.6 X
Track quality 100.0 %
Test CRC 9D5D2D01
Copy CRC 9D5D2D01
Accurately ripped (confidence 4) [1538E231] (AR v2)
Copy OK

Track 11

Filename H:\AUDIO\MUSIC\Tom Petty\2017. Tom Petty - Broadcast Collection '77-'93 (Soundstage SS8CDBOX19)\CD5\11 Anyway You Want It.wav

Peak level 94.5 %
Extraction speed 6.7 X
Track quality 100.0 %
Test CRC B2694076
Copy CRC B2694076
Accurately ripped (confidence 4) [4A4F6606] (AR v2)
Copy OK

Track 12

Filename H:\AUDIO\MUSIC\Tom Petty\2017. Tom Petty - Broadcast Collection '77-'93 (Soundstage SS8CDBOX19)\CD5\12 Runaway Trains.wav

Peak level 85.0 %
Extraction speed 7.5 X
Track quality 100.0 %
Test CRC BA5E6070
Copy CRC BA5E6070
Accurately ripped (confidence 4) [97388B36] (AR v2)
Copy OK

Track 13

Filename H:\AUDIO\MUSIC\Tom Petty\2017. Tom Petty - Broadcast Collection '77-'93 (Soundstage SS8CDBOX19)\CD5\13 Refugee.wav

Peak level 96.6 %
Extraction speed 7.7 X
Track quality 100.0 %
Test CRC 22CEFD1B
Copy CRC 22CEFD1B
Accurately ripped (confidence 4) [DB80E749] (AR v2)
Copy OK


All tracks accurately ripped

No errors occurred

End of status report

==== Log checksum 491D3A807FD71941BE084F4A0B1E887429AE79F0EC108B6EA6BF6082E1E214CA ====


[CUETools log; Date: 26.12.2019 23:34:54; Version: 2.1.6]
[CTDB TOCID: C.I0l.p6Gt42ANk1_cr4tZpPNTg-] found.
Track | CTDB Status
1 | (8/8) Accurately ripped
2 | (8/8) Accurately ripped
3 | (8/8) Accurately ripped
4 | (8/8) Accurately ripped
5 | (8/8) Accurately ripped
6 | (8/8) Accurately ripped
7 | (8/8) Accurately ripped
8 | (8/8) Accurately ripped
9 | (8/8) Accurately ripped
10 | (8/8) Accurately ripped
11 | (8/8) Accurately ripped
12 | (8/8) Accurately ripped
13 | (8/8) Accurately ripped
[AccurateRip ID: 00204109-0141a8c8-a80f5c0d] found.
Track [ CRC | V2 ] Status
01 [6d065ea2|8b296fb6] (0+3/3) Accurately ripped
02 [4699e27a|b940d43b] (0+3/3) Accurately ripped
03 [4c4a6b57|a7b258e8] (0+3/3) Accurately ripped
04 [d96587be|946ff082] (0+4/4) Accurately ripped
05 [a5554a60|93fd4a5d] (0+4/4) Accurately ripped
06 [ec0fb40f|28e28915] (0+4/4) Accurately ripped
07 [46bbc56d|c2c94cd7] (0+4/4) Accurately ripped
08 [6f00d524|8f2c47fd] (0+4/4) Accurately ripped
09 [9447b86d|f61021bd] (0+4/4) Accurately ripped
10 [73b44a51|1538e231] (0+4/4) Accurately ripped
11 [d7baccd6|4a4f6606] (0+4/4) Accurately ripped
12 [31249c79|97388b36] (0+4/4) Accurately ripped
13 [5361a05d|db80e749] (0+4/4) Accurately ripped

Track Peak [ CRC32 ] [W/O NULL] [ LOG ]
– 99,8 [AA677839] [70D1C972]
01 99,8 [E2ACC953] [AB7E46FC] CRC32
02 96,6 [280F7486] [F0B4C30E] CRC32
03 99,4 [4334A8B6] [AE4D3E16] CRC32
04 93,3 [4A536423] [D2744270] CRC32
05 98,9 [CBE33B79] [0D339146] CRC32
06 98,1 [2C66F5C2] [35B1C8E7] CRC32
07 97,1 [F914EBBF] [7FBAD6F8] CRC32
08 92,7 [7E54AC75] [C5B431BF] CRC32
09 94,3 [54DC23BE] [0EBF0AF6] CRC32
10 93,2 [9D5D2D01] [5B7DC300] CRC32
11 94,5 [B2694076] [EB923130] CRC32
12 85,0 [BA5E6070] [0DE77847] CRC32
13 96,6 [22CEFD1B] [C1531441] CRC32


Tracklist CD6 - Dean E Smith Activity Center, North Carolina September 13th 1989 (WBCN-FM):

01. Bye Bye Johnny [0:03:44.09]
02. The Damage You've Done [0:04:55.71]
03. Breakdown [0:04:55.11]
04. Free Fallin' [0:04:58.20]
05. The Waiting [0:05:34.51]
06. Benmont's Boogie [0:02:38.05]
07. Don't Come Around Here No More [0:08:21.43]
08. Southern Accents [0:04:50.40]
09. Even The Losers [0:04:14.21]
10. Listen To Her Heart [0:02:58.46]
11. A Face In The Crowd [0:03:54.53]
12. Something Big [0:04:42.18]
13. I Won't Back Down [0:03:19.60]
14. I Need To Know [0:02:18.02]
15. Refugee [0:05:25.33]
16. Runnin' Down A Dream [0:05:22.54]

Exact Audio Copy V1.3 from 2. September 2016

EAC extraction logfile from 26. December 2019, 19:41

Tom Petty / Broadcast Collection '77-'93 (CD6)

Used drive : Optiarc DVD RW AD-7263S Adapter: 1 ID: 0

Read mode : Secure
Utilize accurate stream : Yes
Defeat audio cache : Yes
Make use of C2 pointers : No

Read offset correction : 48
Overread into Lead-In and Lead-Out : No
Fill up missing offset samples with silence : Yes
Delete leading and trailing silent blocks : No
Null samples used in CRC calculations : Yes
Used interface : Native Win32 interface for Win NT & 2000
Gap handling : Appended to previous track

Used output format : User Defined Encoder
Selected bitrate : 1024 kBit/s
Quality : High
Add ID3 tag : No
Command line compressor : C:\Program Files (x86)\Exact Audio Copy\Flac\flac.exe
Additional command line options : -8 -V -T "ARTIST=%artist%" -T "TITLE=%title%" -T "ALBUM=%albumtitle%" -T "DATE=%year%" -T "TRACKNUMBER=%tracknr%" -T "GENRE=%genre%" -T "PERFORMER=%albuminterpret%" -T "COMPOSER=%composer%" %haslyrics%–tag-from-file=LYRICS="%lyricsfile%"%haslyrics% -T "ALBUMARTIST=%albumartist%" -T "DISCNUMBER=%cdnumber%" -T "TOTALDISCS=%totalcds%" -T "TOTALTRACKS=%numtracks%" -T "COMMENT=%comment%" %source% -o %dest%


TOC of the extracted CD

Track | Start | Length | Start sector | End sector
––––––––––––––––––––––––––––-
1 | 0:00.00 | 3:44.09 | 0 | 16808
2 | 3:44.09 | 4:55.71 | 16809 | 39004
3 | 8:40.05 | 4:55.11 | 39005 | 61140
4 | 13:35.16 | 4:58.20 | 61141 | 83510
5 | 18:33.36 | 5:34.51 | 83511 | 108611
6 | 24:08.12 | 2:38.05 | 108612 | 120466
7 | 26:46.17 | 8:21.43 | 120467 | 158084
8 | 35:07.60 | 4:50.40 | 158085 | 179874
9 | 39:58.25 | 4:14.21 | 179875 | 198945
10 | 44:12.46 | 2:58.46 | 198946 | 212341
11 | 47:11.17 | 3:54.53 | 212342 | 229944
12 | 51:05.70 | 4:42.18 | 229945 | 251112
13 | 55:48.13 | 3:19.60 | 251113 | 266097
14 | 59:07.73 | 2:18.02 | 266098 | 276449
15 | 61:26.00 | 5:25.33 | 276450 | 300857
16 | 66:51.33 | 5:22.54 | 300858 | 325061


Track 1

Filename H:\AUDIO\MUSIC\Tom Petty\2017. Tom Petty - Broadcast Collection '77-'93 (Soundstage SS8CDBOX19)\CD6\01 Bye Bye Johnny.wav

Pre-gap length 0:00:02.00

Peak level 91.2 %
Extraction speed 2.1 X
Track quality 99.9 %
Test CRC 00D6D340
Copy CRC 00D6D340
Accurately ripped (confidence 5) [D5AAD1E8] (AR v2)
Copy OK

Track 2

Filename H:\AUDIO\MUSIC\Tom Petty\2017. Tom Petty - Broadcast Collection '77-'93 (Soundstage SS8CDBOX19)\CD6\02 The Damage You've Done.wav

Peak level 91.2 %
Extraction speed 2.7 X
Track quality 100.0 %
Test CRC 95D27AB2
Copy CRC 95D27AB2
Accurately ripped (confidence 5) [C2A5E397] (AR v2)
Copy OK

Track 3

Filename H:\AUDIO\MUSIC\Tom Petty\2017. Tom Petty - Broadcast Collection '77-'93 (Soundstage SS8CDBOX19)\CD6\03 Breakdown.wav

Peak level 91.2 %
Extraction speed 2.7 X
Track quality 99.9 %
Test CRC DB629553
Copy CRC DB629553
Accurately ripped (confidence 5) [4EADB0FA] (AR v2)
Copy OK

Track 4

Filename H:\AUDIO\MUSIC\Tom Petty\2017. Tom Petty - Broadcast Collection '77-'93 (Soundstage SS8CDBOX19)\CD6\04 Free Fallin'.wav

Peak level 91.2 %
Extraction speed 3.3 X
Track quality 100.0 %
Test CRC 5954C528
Copy CRC 5954C528
Accurately ripped (confidence 5) [70A8DC17] (AR v2)
Copy OK

Track 5

Filename H:\AUDIO\MUSIC\Tom Petty\2017. Tom Petty - Broadcast Collection '77-'93 (Soundstage SS8CDBOX19)\CD6\05 The Waiting.wav

Peak level 91.2 %
Extraction speed 3.6 X
Track quality 100.0 %
Test CRC 12C96CD6
Copy CRC 12C96CD6
Accurately ripped (confidence 5) [BDCA605F] (AR v2)
Copy OK

Track 6

Filename H:\AUDIO\MUSIC\Tom Petty\2017. Tom Petty - Broadcast Collection '77-'93 (Soundstage SS8CDBOX19)\CD6\06 Benmont's Boogie.wav

Peak level 91.2 %
Extraction speed 3.3 X
Track quality 100.0 %
Test CRC 3FDB78A5
Copy CRC 3FDB78A5
Accurately ripped (confidence 5) [E7D5260A] (AR v2)
Copy OK

Track 7

Filename H:\AUDIO\MUSIC\Tom Petty\2017. Tom Petty - Broadcast Collection '77-'93 (Soundstage SS8CDBOX19)\CD6\07 Don't Come Around Here No More.wav

Peak level 91.2 %
Extraction speed 4.1 X
Track quality 100.0 %
Test CRC 64505B5C
Copy CRC 64505B5C
Accurately ripped (confidence 5) [E4B819C6] (AR v2)
Copy OK

Track 8

Filename H:\AUDIO\MUSIC\Tom Petty\2017. Tom Petty - Broadcast Collection '77-'93 (Soundstage SS8CDBOX19)\CD6\08 Southern Accents.wav

Peak level 86.1 %
Extraction speed 4.2 X
Track quality 100.0 %
Test CRC A0BC21E5
Copy CRC A0BC21E5
Accurately ripped (confidence 5) [064B949A] (AR v2)
Copy OK

Track 9

Filename H:\AUDIO\MUSIC\Tom Petty\2017. Tom Petty - Broadcast Collection '77-'93 (Soundstage SS8CDBOX19)\CD6\09 Even The Losers.wav

Peak level 91.2 %
Extraction speed 3.8 X
Track quality 99.9 %
Test CRC EB9EA40E
Copy CRC EB9EA40E
Accurately ripped (confidence 5) [2646E82C] (AR v2)
Copy OK

Track 10

Filename H:\AUDIO\MUSIC\Tom Petty\2017. Tom Petty - Broadcast Collection '77-'93 (Soundstage SS8CDBOX19)\CD6\10 Listen To Her Heart.wav

Peak level 91.2 %
Extraction speed 3.5 X
Track quality 99.9 %
Test CRC 1A6B8B87
Copy CRC 1A6B8B87
Accurately ripped (confidence 5) [2E485D7E] (AR v2)
Copy OK

Track 11

Filename H:\AUDIO\MUSIC\Tom Petty\2017. Tom Petty - Broadcast Collection '77-'93 (Soundstage SS8CDBOX19)\CD6\11 A Face In The Crowd.wav

Peak level 91.2 %
Extraction speed 3.9 X
Track quality 99.9 %
Test CRC D2EC99F2
Copy CRC D2EC99F2
Accurately ripped (confidence 5) [4A302219] (AR v2)
Copy OK

Track 12

Filename H:\AUDIO\MUSIC\Tom Petty\2017. Tom Petty - Broadcast Collection '77-'93 (Soundstage SS8CDBOX19)\CD6\12 Something Big.wav

Peak level 91.2 %
Extraction speed 4.7 X
Track quality 100.0 %
Test CRC B9515A6C
Copy CRC B9515A6C
Accurately ripped (confidence 5) [EC688121] (AR v2)
Copy OK

Track 13

Filename H:\AUDIO\MUSIC\Tom Petty\2017. Tom Petty - Broadcast Collection '77-'93 (Soundstage SS8CDBOX19)\CD6\13 I Won't Back Down.wav

Peak level 91.2 %
Extraction speed 4.6 X
Track quality 100.0 %
Test CRC C3FCAF76
Copy CRC C3FCAF76
Accurately ripped (confidence 5) [BD19EC51] (AR v2)
Copy OK

Track 14

Filename H:\AUDIO\MUSIC\Tom Petty\2017. Tom Petty - Broadcast Collection '77-'93 (Soundstage SS8CDBOX19)\CD6\14 I Need To Know.wav

Peak level 91.2 %
Extraction speed 4.3 X
Track quality 100.0 %
Test CRC 46613054
Copy CRC 46613054
Accurately ripped (confidence 5) [AD9E3E54] (AR v2)
Copy OK

Track 15

Filename H:\AUDIO\MUSIC\Tom Petty\2017. Tom Petty - Broadcast Collection '77-'93 (Soundstage SS8CDBOX19)\CD6\15 Refugee.wav

Peak level 91.2 %
Extraction speed 5.2 X
Track quality 100.0 %
Test CRC 289829CA
Copy CRC 289829CA
Accurately ripped (confidence 5) [BC942EC5] (AR v2)
Copy OK

Track 16

Filename H:\AUDIO\MUSIC\Tom Petty\2017. Tom Petty - Broadcast Collection '77-'93 (Soundstage SS8CDBOX19)\CD6\16 Runnin' Down A Dream.wav

Peak level 91.2 %
Extraction speed 4.8 X
Track quality 99.9 %
Test CRC 3DFE2D10
Copy CRC 3DFE2D10
Accurately ripped (confidence 5) [23ED195C] (AR v2)
Copy OK


All tracks accurately ripped

No errors occurred

End of status report

==== Log checksum 4864AC3BA836D82EEC6D84EBF3B2247FB679C644062137AE248D47A5B574EDA8 ====


[CUETools log; Date: 26.12.2019 23:38:15; Version: 2.1.6]
[CTDB TOCID: 6p8Eu4v57jOAAftUAISHdwJrX6s-] found.
Track | CTDB Status
1 | (9/9) Accurately ripped
2 | (9/9) Accurately ripped
3 | (9/9) Accurately ripped
4 | (9/9) Accurately ripped
5 | (9/9) Accurately ripped
6 | (9/9) Accurately ripped
7 | (9/9) Accurately ripped
8 | (9/9) Accurately ripped
9 | (9/9) Accurately ripped
10 | (9/9) Accurately ripped
11 | (9/9) Accurately ripped
12 | (9/9) Accurately ripped
13 | (9/9) Accurately ripped
14 | (9/9) Accurately ripped
15 | (9/9) Accurately ripped
16 | (9/9) Accurately ripped
[AccurateRip ID: 002b281f-02030478-ca10ee10] found.
Track [ CRC | V2 ] Status
01 [4f68040a|d5aad1e8] (0+5/5) Accurately ripped
02 [ec9f1f33|c2a5e397] (0+5/5) Accurately ripped
03 [d0399252|4eadb0fa] (0+5/5) Accurately ripped
04 [f6e41435|70a8dc17] (0+5/5) Accurately ripped
05 [4cf02c3c|bdca605f] (0+5/5) Accurately ripped
06 [cb4351a5|e7d5260a] (0+5/5) Accurately ripped
07 [2d277a8a|e4b819c6] (0+5/5) Accurately ripped
08 [2ffae175|064b949a] (0+5/5) Accurately ripped
09 [225ed53f|2646e82c] (0+5/5) Accurately ripped
10 [a530bd04|2e485d7e] (0+5/5) Accurately ripped
11 [978be43a|4a302219] (0+5/5) Accurately ripped
12 [4a793eb2|ec688121] (0+5/5) Accurately ripped
13 [1f61277d|bd19ec51] (0+5/5) Accurately ripped
14 [f63516d7|ad9e3e54] (0+5/5) Accurately ripped
15 [5788864b|bc942ec5] (0+5/5) Accurately ripped
16 [bf31e5a4|23ed195c] (0+5/5) Accurately ripped

Track Peak [ CRC32 ] [W/O NULL] [ LOG ]
– 91,2 [CB94D68D] [D0055768]
01 91,2 [00D6D340] [D98306C9] CRC32
02 91,2 [95D27AB2] [6DAC9D34] CRC32
03 91,2 [DB629553] [F953B52A] CRC32
04 91,2 [5954C528] [9B0CD411] CRC32
05 91,2 [12C96CD6] [621A3FED] CRC32
06 91,2 [3FDB78A5] [EC6CB4C1] CRC32
07 91,2 [64505B5C] [BBD8837A] CRC32
08 86,1 [A0BC21E5] [5E14AAC6] CRC32
09 91,2 [EB9EA40E] [160D8476] CRC32
10 91,2 [1A6B8B87] [7C3C111C] CRC32
11 91,2 [D2EC99F2] [0DBD49E2] CRC32
12 91,2 [B9515A6C] [6B3D4C80] CRC32
13 91,2 [C3FCAF76] [1C2D8883] CRC32
14 91,2 [46613054] [122DCF3E] CRC32
15 91,2 [289829CA] [9EF56846] CRC32
16 91,2 [3DFE2D10] [03F881EB] CRC32


Tracklist CD7 - Stephen C. O'Connell Center, Gainesville November 4th 1993 (Syndicated Radio):

01. Love Is A Long Road [0:04:43.69]
02. Into The Great Wide Open [0:04:25.68]
03. Listen To Her Heart [0:04:25.60]
04. I Won't Back Down [0:04:59.49]
05. Free Fallin' [0:05:05.65]
06. Psychotic Reaction [0:06:51.69]
07. Ben's Boogie [0:03:57.60]
08. Don't Come Around Here No More [0:09:14.38]
09. Something In The Air [0:04:27.23]
10. Mary Jane's Last Dance [0:08:50.28]
11. King's Highway [0:03:40.65]
12. A Face In The Crowd [0:04:31.26]

Exact Audio Copy V1.3 from 2. September 2016

EAC extraction logfile from 26. December 2019, 19:53

Tom Petty / Broadcast Collection '77-'93 (CD7)

Used drive : PLEXTOR DVDR PX-L890SA Adapter: 1 ID: 1

Read mode : Secure
Utilize accurate stream : Yes
Defeat audio cache : Yes
Make use of C2 pointers : No

Read offset correction : 6
Overread into Lead-In and Lead-Out : No
Fill up missing offset samples with silence : Yes
Delete leading and trailing silent blocks : No
Null samples used in CRC calculations : Yes
Used interface : Native Win32 interface for Win NT & 2000
Gap handling : Appended to previous track

Used output format : User Defined Encoder
Selected bitrate : 1024 kBit/s
Quality : High
Add ID3 tag : No
Command line compressor : C:\Program Files (x86)\Exact Audio Copy\Flac\flac.exe
Additional command line options : -8 -V -T "ARTIST=%artist%" -T "TITLE=%title%" -T "ALBUM=%albumtitle%" -T "DATE=%year%" -T "TRACKNUMBER=%tracknr%" -T "GENRE=%genre%" -T "PERFORMER=%albuminterpret%" -T "COMPOSER=%composer%" %haslyrics%–tag-from-file=LYRICS="%lyricsfile%"%haslyrics% -T "ALBUMARTIST=%albumartist%" -T "DISCNUMBER=%cdnumber%" -T "TOTALDISCS=%totalcds%" -T "TOTALTRACKS=%numtracks%" -T "COMMENT=%comment%" %source% -o %dest%


TOC of the extracted CD

Track | Start | Length | Start sector | End sector
––––––––––––––––––––––––––––-
1 | 0:00.00 | 4:43.69 | 0 | 21293
2 | 4:43.69 | 4:25.68 | 21294 | 41236
3 | 9:09.62 | 4:25.60 | 41237 | 61171
4 | 13:35.47 | 4:59.49 | 61172 | 83645
5 | 18:35.21 | 5:05.65 | 83646 | 106585
6 | 23:41.11 | 6:51.69 | 106586 | 137479
7 | 30:33.05 | 3:57.60 | 137480 | 155314
8 | 34:30.65 | 9:14.38 | 155315 | 196902
9 | 43:45.28 | 4:27.23 | 196903 | 216950
10 | 48:12.51 | 8:50.28 | 216951 | 256728
11 | 57:03.04 | 3:40.65 | 256729 | 273293
12 | 60:43.69 | 4:31.26 | 273294 | 293644


Track 1

Filename H:\AUDIO\MUSIC\Tom Petty\2017. Tom Petty - Broadcast Collection '77-'93 (Soundstage SS8CDBOX19)\CD7\01 Love Is A Long Road.wav

Pre-gap length 0:00:02.00

Peak level 96.5 %
Extraction speed 3.6 X
Track quality 100.0 %
Test CRC BE3BA910
Copy CRC BE3BA910
Accurately ripped (confidence 4) [91963705] (AR v2)
Copy OK

Track 2

Filename H:\AUDIO\MUSIC\Tom Petty\2017. Tom Petty - Broadcast Collection '77-'93 (Soundstage SS8CDBOX19)\CD7\02 Into The Great Wide Open.wav

Peak level 96.5 %
Extraction speed 3.3 X
Track quality 99.9 %
Test CRC 34414C90
Copy CRC 34414C90
Accurately ripped (confidence 4) [6D4FF813] (AR v2)
Copy OK

Track 3

Filename H:\AUDIO\MUSIC\Tom Petty\2017. Tom Petty - Broadcast Collection '77-'93 (Soundstage SS8CDBOX19)\CD7\03 Listen To Her Heart.wav

Peak level 96.5 %
Extraction speed 4.5 X
Track quality 100.0 %
Test CRC D8F3FF34
Copy CRC D8F3FF34
Accurately ripped (confidence 4) [0324C947] (AR v2)
Copy OK

Track 4

Filename H:\AUDIO\MUSIC\Tom Petty\2017. Tom Petty - Broadcast Collection '77-'93 (Soundstage SS8CDBOX19)\CD7\04 I Won't Back Down.wav

Peak level 96.5 %
Extraction speed 4.9 X
Track quality 100.0 %
Test CRC E027BBF0
Copy CRC E027BBF0
Accurately ripped (confidence 4) [7663E25E] (AR v2)
Copy OK

Track 5

Filename H:\AUDIO\MUSIC\Tom Petty\2017. Tom Petty - Broadcast Collection '77-'93 (Soundstage SS8CDBOX19)\CD7\05 Free Fallin'.wav

Peak level 96.5 %
Extraction speed 5.2 X
Track quality 100.0 %
Test CRC BAA12708
Copy CRC BAA12708
Accurately ripped (confidence 4) [016F33BC] (AR v2)
Copy OK

Track 6

Filename H:\AUDIO\MUSIC\Tom Petty\2017. Tom Petty - Broadcast Collection '77-'93 (Soundstage SS8CDBOX19)\CD7\06 Psychotic Reaction.wav

Peak level 96.5 %
Extraction speed 5.8 X
Track quality 100.0 %
Test CRC 808A4825
Copy CRC 808A4825
Accurately ripped (confidence 4) [2FDCC1D4] (AR v2)
Copy OK

Track 7

Filename H:\AUDIO\MUSIC\Tom Petty\2017. Tom Petty - Broadcast Collection '77-'93 (Soundstage SS8CDBOX19)\CD7\07 Ben's Boogie.wav

Peak level 96.5 %
Extraction speed 5.8 X
Track quality 100.0 %
Test CRC FC0EC020
Copy CRC FC0EC020
Accurately ripped (confidence 4) [722EABEE] (AR v2)
Copy OK

Track 8

Filename H:\AUDIO\MUSIC\Tom Petty\2017. Tom Petty - Broadcast Collection '77-'93 (Soundstage SS8CDBOX19)\CD7\08 Don't Come Around Here No More.wav

Peak level 96.5 %
Extraction speed 6.7 X
Track quality 100.0 %
Test CRC 115CDE3B
Copy CRC 115CDE3B
Accurately ripped (confidence 4) [599CA796] (AR v2)
Copy OK

Track 9

Filename H:\AUDIO\MUSIC\Tom Petty\2017. Tom Petty - Broadcast Collection '77-'93 (Soundstage SS8CDBOX19)\CD7\09 Something In The Air.wav

Peak level 96.5 %
Extraction speed 6.7 X
Track quality 100.0 %
Test CRC 49B88685
Copy CRC 49B88685
Accurately ripped (confidence 4) [D5A9888D] (AR v2)
Copy OK

Track 10

Filename H:\AUDIO\MUSIC\Tom Petty\2017. Tom Petty - Broadcast Collection '77-'93 (Soundstage SS8CDBOX19)\CD7\10 Mary Jane's Last Dance.wav

Peak level 96.5 %
Extraction speed 7.5 X
Track quality 100.0 %
Test CRC AC6B1D38
Copy CRC AC6B1D38
Accurately ripped (confidence 4) [C25BF360] (AR v2)
Copy OK

Track 11

Filename H:\AUDIO\MUSIC\Tom Petty\2017. Tom Petty - Broadcast Collection '77-'93 (Soundstage SS8CDBOX19)\CD7\11 King's Highway.wav

Peak level 96.5 %
Extraction speed 7.1 X
Track quality 100.0 %
Test CRC 8937357C
Copy CRC 8937357C
Accurately ripped (confidence 4) [0095FF5B] (AR v2)
Copy OK

Track 12

Filename H:\AUDIO\MUSIC\Tom Petty\2017. Tom Petty - Broadcast Collection '77-'93 (Soundstage SS8CDBOX19)\CD7\12 A Face In The Crowd.wav

Peak level 96.5 %
Extraction speed 7.5 X
Track quality 100.0 %
Test CRC 90D9221E
Copy CRC 90D9221E
Accurately ripped (confidence 4) [A2CA0DDF] (AR v2)
Copy OK


All tracks accurately ripped

No errors occurred

End of status report

==== Log checksum FA141FF4F71CDD4410C994726D15D339AF4C40D42FD85BB826238DC5DB1F8922 ====


[CUETools log; Date: 26.12.2019 23:41:53; Version: 2.1.6]
[CTDB TOCID: R8yBgxKgnXloGZt.PfLQYF1ONyY-] found.
Track | CTDB Status
1 | (9/9) Accurately ripped
2 | (9/9) Accurately ripped
3 | (9/9) Accurately ripped
4 | (9/9) Accurately ripped
5 | (9/9) Accurately ripped
6 | (9/9) Accurately ripped
7 | (9/9) Accurately ripped
8 | (9/9) Accurately ripped
9 | (9/9) Accurately ripped
10 | (9/9) Accurately ripped
11 | (9/9) Accurately ripped
12 | (9/9) Accurately ripped
[AccurateRip ID: 001c241c-010b94b7-a40f4b0c] found.
Track [ CRC | V2 ] Status
01 [268c59a3|91963705] (0+4/4) Accurately ripped
02 [cae7c62c|6d4ff813] (0+4/4) Accurately ripped
03 [a59dbc9c|0324c947] (0+4/4) Accurately ripped
04 [b5566783|7663e25e] (0+4/4) Accurately ripped
05 [7694b649|016f33bc] (0+4/4) Accurately ripped
06 [dcf420e2|2fdcc1d4] (0+4/4) Accurately ripped
07 [051ad178|722eabee] (0+4/4) Accurately ripped
08 [cdcaf86a|599ca796] (0+4/4) Accurately ripped
09 [3a9b347e|d5a9888d] (0+4/4) Accurately ripped
10 [9ab98e09|c25bf360] (0+4/4) Accurately ripped
11 [2980357b|0095ff5b] (0+4/4) Accurately ripped
12 [f4922b04|a2ca0ddf] (0+4/4) Accurately ripped

Track Peak [ CRC32 ] [W/O NULL] [ LOG ]
– 96,5 [ACD2F490] [CB4648A8]
01 96,5 [BE3BA910] [5942290A] CRC32
02 96,5 [34414C90] [30BE2A44] CRC32
03 96,5 [D8F3FF34] [59314CE2] CRC32
04 96,5 [E027BBF0] [0FC0A292] CRC32
05 96,5 [BAA12708] [07DFBF96] CRC32
06 96,5 [808A4825] [1756BA6E] CRC32
07 96,5 [FC0EC020] [E7117C14] CRC32
08 96,5 [115CDE3B] [8554B0E9] CRC32
09 96,5 [49B88685] [EF8B6EFF] CRC32
10 96,5 [AC6B1D38] [CB64DEE8] CRC32
11 96,5 [8937357C] [F20DEF2A] CRC32
12 96,5 [90D9221E] [63C6E39E] CRC32


Tracklist CD8 - Stephen C. O'Connell Center, Gainesville November 4th 1993 (Syndicated Radio):

01. Ballad Of Easy Rider [0:04:08.18]
02. Take Out Some Insurance [0:05:44.67]
03. Thirteen Days [0:04:59.41]
04. Southern Accents [0:05:22.48]
05. Yer So Bad [0:03:27.68]
06. Driving Down To Georgia [0:06:30.74]
07. Lost Without You [0:06:53.45]
08. Refugee [0:04:39.24]
09. Running Down A Dream [0:05:12.30]
10. Learning To Fly [0:04:56.59]
11. Rainy Day Women [0:04:21.07]
12. American Girl [0:04:44.30]
13. Alright For Now [0:02:40.20]

Exact Audio Copy V1.3 from 2. September 2016

EAC extraction logfile from 26. December 2019, 20:32

Tom Petty / Broadcast Collection '77-'93 (CD8)

Used drive : Optiarc DVD RW AD-7263S Adapter: 1 ID: 0

Read mode : Secure
Utilize accurate stream : Yes
Defeat audio cache : Yes
Make use of C2 pointers : No

Read offset correction : 48
Overread into Lead-In and Lead-Out : No
Fill up missing offset samples with silence : Yes
Delete leading and trailing silent blocks : No
Null samples used in CRC calculations : Yes
Used interface : Native Win32 interface for Win NT & 2000
Gap handling : Appended to previous track

Used output format : User Defined Encoder
Selected bitrate : 1024 kBit/s
Quality : High
Add ID3 tag : No
Command line compressor : C:\Program Files (x86)\Exact Audio Copy\Flac\flac.exe
Additional command line options : -8 -V -T "ARTIST=%artist%" -T "TITLE=%title%" -T "ALBUM=%albumtitle%" -T "DATE=%year%" -T "TRACKNUMBER=%tracknr%" -T "GENRE=%genre%" -T "PERFORMER=%albuminterpret%" -T "COMPOSER=%composer%" %haslyrics%–tag-from-file=LYRICS="%lyricsfile%"%haslyrics% -T "ALBUMARTIST=%albumartist%" -T "DISCNUMBER=%cdnumber%" -T "TOTALDISCS=%totalcds%" -T "TOTALTRACKS=%numtracks%" -T "COMMENT=%comment%" %source% -o %dest%


TOC of the extracted CD

Track | Start | Length | Start sector | End sector
––––––––––––––––––––––––––––-
1 | 0:00.00 | 4:08.18 | 0 | 18617
2 | 4:08.18 | 5:44.67 | 18618 | 44484
3 | 9:53.10 | 4:59.41 | 44485 | 66950
4 | 14:52.51 | 5:22.48 | 66951 | 91148
5 | 20:15.24 | 3:27.68 | 91149 | 106741
6 | 23:43.17 | 6:30.74 | 106742 | 136065
7 | 30:14.16 | 6:53.45 | 136066 | 167085
8 | 37:07.61 | 4:39.24 | 167086 | 188034
9 | 41:47.10 | 5:12.30 | 188035 | 211464
10 | 46:59.40 | 4:56.59 | 211465 | 233723
11 | 51:56.24 | 4:21.07 | 233724 | 253305
12 | 56:17.31 | 4:44.30 | 253306 | 274635
13 | 61:01.61 | 2:40.20 | 274636 | 286655


Track 1

Filename H:\AUDIO\MUSIC\Tom Petty\2017. Tom Petty - Broadcast Collection '77-'93 (Soundstage SS8CDBOX19)\CD8\01 Ballad Of Easy Rider.wav

Pre-gap length 0:00:02.00

Peak level 96.5 %
Extraction speed 2.4 X
Track quality 100.0 %
Test CRC AF843021
Copy CRC AF843021
Accurately ripped (confidence 4) [F0CBD747] (AR v2)
Copy OK

Track 2

Filename H:\AUDIO\MUSIC\Tom Petty\2017. Tom Petty - Broadcast Collection '77-'93 (Soundstage SS8CDBOX19)\CD8\02 Take Out Some Insurance.wav

Peak level 96.5 %
Extraction speed 2.8 X
Track quality 100.0 %
Test CRC 61F57D57
Copy CRC 61F57D57
Accurately ripped (confidence 4) [CE026597] (AR v2)
Copy OK

Track 3

Filename H:\AUDIO\MUSIC\Tom Petty\2017. Tom Petty - Broadcast Collection '77-'93 (Soundstage SS8CDBOX19)\CD8\03 Thirteen Days.wav

Peak level 96.5 %
Extraction speed 3.1 X
Track quality 100.0 %
Test CRC 19CB291A
Copy CRC 19CB291A
Accurately ripped (confidence 4) [4A72237A] (AR v2)
Copy OK

Track 4

Filename H:\AUDIO\MUSIC\Tom Petty\2017. Tom Petty - Broadcast Collection '77-'93 (Soundstage SS8CDBOX19)\CD8\04 Southern Accents.wav

Peak level 96.5 %
Extraction speed 3.4 X
Track quality 100.0 %
Test CRC 01A93477
Copy CRC 01A93477
Accurately ripped (confidence 4) [9CA18BF8] (AR v2)
Copy OK

Track 5

Filename H:\AUDIO\MUSIC\Tom Petty\2017. Tom Petty - Broadcast Collection '77-'93 (Soundstage SS8CDBOX19)\CD8\05 Yer So Bad.wav

Peak level 96.5 %
Extraction speed 3.4 X
Track quality 100.0 %
Test CRC 0471E535
Copy CRC 0471E535
Accurately ripped (confidence 4) [FBD86F16] (AR v2)
Copy OK

Track 6

Filename H:\AUDIO\MUSIC\Tom Petty\2017. Tom Petty - Broadcast Collection '77-'93 (Soundstage SS8CDBOX19)\CD8\06 Driving Down To Georgia.wav

Peak level 95.0 %
Extraction speed 3.9 X
Track quality 100.0 %
Test CRC 68A4C23B
Copy CRC 68A4C23B
Accurately ripped (confidence 4) [D6B0A3D0] (AR v2)
Copy OK

Track 7

Filename H:\AUDIO\MUSIC\Tom Petty\2017. Tom Petty - Broadcast Collection '77-'93 (Soundstage SS8CDBOX19)\CD8\07 Lost Without You.wav

Peak level 93.0 %
Extraction speed 4.2 X
Track quality 100.0 %
Test CRC D4C327C7
Copy CRC D4C327C7
Accurately ripped (confidence 4) [E741216D] (AR v2)
Copy OK

Track 8

Filename H:\AUDIO\MUSIC\Tom Petty\2017. Tom Petty - Broadcast Collection '77-'93 (Soundstage SS8CDBOX19)\CD8\08 Refugee.wav

Peak level 91.6 %
Extraction speed 4.3 X
Track quality 100.0 %
Test CRC D7FE4B86
Copy CRC D7FE4B86
Accurately ripped (confidence 4) [112D2702] (AR v2)
Copy OK

Track 9

Filename H:\AUDIO\MUSIC\Tom Petty\2017. Tom Petty - Broadcast Collection '77-'93 (Soundstage SS8CDBOX19)\CD8\09 Running Down A Dream.wav

Peak level 96.5 %
Extraction speed 4.1 X
Track quality 99.9 %
Test CRC B9588679
Copy CRC B9588679
Accurately ripped (confidence 4) [7876ECBD] (AR v2)
Copy OK

Track 10

Filename H:\AUDIO\MUSIC\Tom Petty\2017. Tom Petty - Broadcast Collection '77-'93 (Soundstage SS8CDBOX19)\CD8\10 Learning To Fly.wav

Peak level 96.5 %
Extraction speed 4.2 X
Track quality 99.9 %
Test CRC F10FF42A
Copy CRC F10FF42A
Accurately ripped (confidence 4) [6980ABFB] (AR v2)
Copy OK

Track 11

Filename H:\AUDIO\MUSIC\Tom Petty\2017. Tom Petty - Broadcast Collection '77-'93 (Soundstage SS8CDBOX19)\CD8\11 Rainy Day Women.wav

Peak level 96.5 %
Extraction speed 4.8 X
Track quality 100.0 %
Test CRC B373BAE5
Copy CRC B373BAE5
Accurately ripped (confidence 4) [2452AEC0] (AR v2)
Copy OK

Track 12

Filename H:\AUDIO\MUSIC\Tom Petty\2017. Tom Petty - Broadcast Collection '77-'93 (Soundstage SS8CDBOX19)\CD8\12 American Girl.wav

Peak level 96.5 %
Extraction speed 5.0 X
Track quality 100.0 %
Test CRC 4DDBA609
Copy CRC 4DDBA609
Accurately ripped (confidence 4) [5F5475C1] (AR v2)
Copy OK

Track 13

Filename H:\AUDIO\MUSIC\Tom Petty\2017. Tom Petty - Broadcast Collection '77-'93 (Soundstage SS8CDBOX19)\CD8\13 Alright For Now.wav

Peak level 96.5 %
Extraction speed 4.6 X
Track quality 100.0 %
Test CRC F2E57186
Copy CRC F2E57186
Accurately ripped (confidence 4) [8FC8E03E] (AR v2)
Copy OK


All tracks accurately ripped

No errors occurred

End of status report

==== Log checksum 5CF1EAEFEC66720E9BBB4AF50073A5567F49E881CF1AF3B30DE3E6B19FE1F3A5 ====


[CUETools log; Date: 26.12.2019 23:44:55; Version: 2.1.6]
[CTDB TOCID: .x.QtxFuY0mDw2Ql2XFe.vNz3KY-] found.
Track | CTDB Status
1 | (9/9) Accurately ripped
2 | (9/9) Accurately ripped
3 | (9/9) Accurately ripped
4 | (9/9) Accurately ripped
5 | (9/9) Accurately ripped
6 | (9/9) Accurately ripped
7 | (9/9) Accurately ripped
8 | (9/9) Accurately ripped
9 | (9/9) Accurately ripped
10 | (9/9) Accurately ripped
11 | (9/9) Accurately ripped
12 | (9/9) Accurately ripped
13 | (9/9) Accurately ripped
[AccurateRip ID: 001fb8c7-013dc340-b90eee0d] found.
Track [ CRC | V2 ] Status
01 [6f97aa4c|f0cbd747] (0+4/4) Accurately ripped
02 [43810a38|ce026597] (0+4/4) Accurately ripped
03 [1266d90e|4a72237a] (0+4/4) Accurately ripped
04 [4a80d337|9ca18bf8] (0+4/4) Accurately ripped
05 [9900e1be|fbd86f16] (0+4/4) Accurately ripped
06 [d6c42766|d6b0a3d0] (0+4/4) Accurately ripped
07 [0c044e5c|e741216d] (0+4/4) Accurately ripped
08 [d27802c6|112d2702] (0+4/4) Accurately ripped
09 [fb117d88|7876ecbd] (0+4/4) Accurately ripped
10 [8e2acfce|6980abfb] (0+4/4) Accurately ripped
11 [a2a4d160|2452aec0] (0+4/4) Accurately ripped
12 [53a1e038|5f5475c1] (0+4/4) Accurately ripped
13 [7a11d6cf|8fc8e03e] (0+4/4) Accurately ripped

Track Peak [ CRC32 ] [W/O NULL] [ LOG ]
– 96,5 [AD215242] [FA739C4A]
01 96,5 [AF843021] [E115BF00] CRC32
02 96,5 [61F57D57] [03266703] CRC32
03 96,5 [19CB291A] [42EA563E] CRC32
04 96,5 [01A93477] [100999AB] CRC32
05 96,5 [0471E535] [329B1EEF] CRC32
06 95,0 [68A4C23B] [6B613E8E] CRC32
07 93,0 [D4C327C7] [2B45A4FD] CRC32
08 91,6 [D7FE4B86] [07747AF6] CRC32
09 96,5 [B9588679] [4DE9A769] CRC32
10 96,5 [F10FF42A] [77DDF969] CRC32
11 96,5 [B373BAE5] [73B4485A] CRC32
12 96,5 [4DDBA609] [CE705FA4] CRC32
13 96,5 [F2E57186] [B4B90961] CRC32


Tom Petty - Broadcast Collection '77-'93 (2017) [8CD Box Set]

All thanks go to snakesharmer

Tom Petty in my Blog

Download Tom Petty - Broadcast Collection '77-'93 (2017):