Subcategories

Tom Petty - Full Moon Fever (1989)

Posted By: popsakov
Tom Petty - Full Moon Fever (1989)

Tom Petty - Full Moon Fever (1989)
EAC Rip | FLAC (Img) + Cue + Log ~ 291 Mb | MP3 CBR320 ~ 111 Mb
Covers Included (JPG, 600 dpi) | RAR 5% Recovery
Classic Rock, Heartland Rock, Rock & Roll | MCA Records #MCAD-6253 | US

Full Moon Fever is the debut solo studio album by Tom Petty, released on April 24, 1989, by MCA Records. It features contributions from members of his band the Heartbreakers, notably Mike Campbell, as well as Jeff Lynne, Roy Orbison (who died prior to its release), and George Harrison, Petty's bandmates in the Traveling Wilburys. The record shows Petty exploring his musical roots with nods to his influences. The songwriting is mainly collaborations between Petty and Lynne, who was also a producer on the album. The album became a commercial and critical success peaking at No. 3 on the U.S. Billboard 200 and being certified 5× platinum in the United States and 6× platinum in Canada.
~ Wiki

Although Let Me Up (I've Had Enough) found the Heartbreakers regaining their strength as a band and discovering a newfound ease at songcraft, it just didn't sell that well. Perhaps that factor, along with road fatigue, led Tom Petty to record his first solo album, Full Moon Fever. Nevertheless, the distinction between "solo" and "Heartbreakers" is a fuzzy one because Full Moon Fever is essentially in the same style as the Heartbreakers albums; Mike Campbell co-wrote two songs and co-produced the record, and he, along with Benmont Tench and Howie Epstein, all play on the album. However, the album sounds different from any Heartbreakers record due to the presence of former Electric Light Orchestra leader Jeff Lynne. Petty co-wrote the lion's share of the album with Lynne, who also is the record's main producer. In his hands, Petty's roots rock becomes clean and glossy, layered with shimmering vocal harmonies, keyboards, and acoustic guitars. It's a friendly, radio-ready sound, and if it has dated somewhat over the years, the craft is still admirable and appealing. But the real reason Full Moon Fever became Petty's biggest hit is that it boasted a selection of songs that rivaled Damn the Torpedoes. Full Moon Fever didn't have a weak track; even if a few weren't quite as strong as others, the album was filled with highlights: "I Won't Back Down," the wistful "A Face in the Crowd," the rockabilly throwaways "Yer So Bad" and "A Mind with a Heart of Its Own," the Byrds cover "Feel a Whole Lot Better," the charging "Runnin' Down a Dream," and "Free Fallin'," a coming-of-age ballad that could be Petty's best song. Full Moon Fever might have been meant as an off-the-cuff detour, but it turned into a minor masterpiece.
~ Stephen Thomas Erlewine, All Music

***************

Tom Petty - Full Moon Fever (1989)

Tom Petty - Full Moon Fever (1989)

Track List:

01. Free Fallin' [4:16]
02. I Won't Back Down [2:58]
03. Love Is A Long Road [4:08]
04. A Face In The Crowd [3:59]
05. Runnin' Down A Dream [4:52]
06. Feel A Whole Lot Better [2:50]
07. Yer So Bad [3:06]
08. Depending On You [2:49]
09. The Apartment Song [2:32]
10. Alright For Now [2:01]
11. A Mind With A Heart Of Its Own [3:31]
12. Zombie Zoo [2:56]

Personnel:
Tom Petty – lead and backing vocals, 6 and 12 string acoustic and electric guitars, keyboards, tambourine
Mike Campbell – lead guitar, bass, mandolin, slide guitar, dobro, resonator guitar, keyboards
Jeff Lynne – bass, guitar, guitar synthesizer, piano, keyboards, backing vocals
Phil Jones – drums, percussion

Additional musicians:
George Harrison – acoustic guitar and backing vocals on "I Won't Back Down"
Jim Keltner – drums, maracas and tambourine on "Love Is a Long Road"
Benmont Tench – piano on "The Apartment Song"
Howie Epstein – backing vocals on "I Won't Back Down" and "Love Is a Long Road"
Roy Orbison – backing vocals on "Zombie Zoo"
Kelsey Campbell – scream on "Zombie Zoo"
Alan Weidel, Jeff Lynne, Tom Petty – hand claps on "I'll Feel a Whole Lot Better"
Del Shannon – barnyard noises in the "Hello, CD listeners …" interlude

Exact Audio Copy V1.3 from 2. September 2016

Отчёт EAC об извлечении, выполненном 12. ноября 2017, 21:15

Tom Petty / Full Moon Fever

Дисковод: ASUS DRW-1814BLT Adapter: 1 ID: 1

Режим чтения : Достоверность
Использование точного потока : Да
Отключение кэша аудио : Да
Использование указателей C2 : Нет

Коррекция смещения при чтении : 6
Способность читать области Lead-in и Lead-out : Нет
Заполнение пропущенных сэмплов тишиной : Да
Удаление блоков с тишиной в начале и конце : Нет
При вычислениях CRC использовались нулевые сэмплы : Да
Интерфейс : Встроенный Win32-интерфейс для Win NT/2000

Выходной формат : Пользовательский кодировщик
Выбранный битрейт : 1024 kBit/s
Качество : Высокий
Добавление ID3-тега : Нет
Утилита сжатия : C:\Program Files\Exact Audio Copy\Flac\flac.exe
Дополнительные параметры : -V -8 -T "Date=%year%" -T "Genre=%genre%" %source%


TOC извлечённого CD

Трек | Старт | Длительность | Начальный сектор | Конечный сектор
––––––––––––––––––––––––––––––––––-
1 | 0:00.00 | 4:16.00 | 0 | 19199
2 | 4:16.00 | 2:58.25 | 19200 | 32574
3 | 7:14.25 | 4:07.45 | 32575 | 51144
4 | 11:21.70 | 3:59.22 | 51145 | 69091
5 | 15:21.17 | 4:52.00 | 69092 | 90991
6 | 20:13.17 | 2:49.50 | 90992 | 103716
7 | 23:02.67 | 3:05.48 | 103717 | 117639
8 | 26:08.40 | 2:48.40 | 117640 | 130279
9 | 28:57.05 | 2:32.37 | 130280 | 141716
10 | 31:29.42 | 2:00.65 | 141717 | 150781
11 | 33:30.32 | 3:31.25 | 150782 | 166631
12 | 37:01.57 | 2:56.25 | 166632 | 179856


Характеристики диапазона извлечения и сообщения об ошибках

Выбранный диапазон

Имя файла D:\Tom Petty 1989 Full Moon Fever\Tom Petty - Full Moon Fever.wav

Пиковый уровень 100.0 %
Скорость извлечения 2.4 X
Качество диапазона 100.0 %
CRC теста 3E619EBB
CRC копии 3E619EBB
Копирование… OK

Ошибок не произошло


AccurateRip: сводка

Трек 1 : извлечено точно (доверие 200) [1BBFD9D7] (AR v2)
Трек 2 : извлечено точно (доверие 200) [806A19FE] (AR v2)
Трек 3 : извлечено точно (доверие 200) [09C722A9] (AR v2)
Трек 4 : извлечено точно (доверие 200) [1264BCB8] (AR v2)
Трек 5 : извлечено точно (доверие 200) [29CBC2E8] (AR v2)
Трек 6 : извлечено точно (доверие 200) [C0FF3427] (AR v2)
Трек 7 : извлечено точно (доверие 200) [D899FFD5] (AR v2)
Трек 8 : извлечено точно (доверие 200) [241FE75F] (AR v2)
Трек 9 : извлечено точно (доверие 200) [C030BD81] (AR v2)
Трек 10 : извлечено точно (доверие 200) [A1489F96] (AR v2)
Трек 11 : извлечено точно (доверие 200) [7CCAA996] (AR v2)
Трек 12 : извлечено точно (доверие 200) [0AA281C2] (AR v2)

Все треки извлечены точно

Конец отчёта

–– CUETools DB Plugin V2.1.6

[CTDB TOCID: 4woMeaXYI4YM2uhL7ynBunlqh2A-] found
Submit result: 4woMeaXYI4YM2uhL7ynBunlqh2A- has been confirmed
Track | CTDB Status
1 | (415/419) Accurately ripped
2 | (415/419) Accurately ripped
3 | (415/419) Accurately ripped
4 | (414/419) Accurately ripped
5 | (414/419) Accurately ripped
6 | (414/419) Accurately ripped
7 | (415/419) Accurately ripped
8 | (414/419) Accurately ripped
9 | (412/419) Accurately ripped
10 | (415/419) Accurately ripped
11 | (414/419) Accurately ripped
12 | (413/419) Accurately ripped


==== Контрольная сумма отчёта 2507BAC3FF878D34B55A700881EBB500AF135482719D48171E2516CFE3F5ABA9 ====

foobar2000 1.3.16 / Dynamic Range Meter 1.1.1
log date: 2018-04-25 02:14:58

––––––––––––––––––––––––––––––––––––––––
Analyzed: Tom Petty / Full Moon Fever
––––––––––––––––––––––––––––––––––––––––

DR Peak RMS Duration Track
––––––––––––––––––––––––––––––––––––––––
DR13 0.00 dB -16.72 dB 4:16 01-Free Fallin'
DR13 -1.05 dB -16.81 dB 2:58 02-I Won't Back Down
DR12 -0.57 dB -15.03 dB 4:08 03-Love Is A Long Road
DR14 -1.03 dB -17.02 dB 3:59 04-A Face In The Crowd
DR12 -0.34 dB -15.48 dB 4:52 05-Runnin' Down A Dream
DR12 -1.66 dB -14.82 dB 2:50 06-Feel A Whole Lot Better
DR12 -2.40 dB -16.07 dB 3:06 07-Yer So Bad
DR12 -1.46 dB -14.89 dB 2:49 08-Depending On You
DR14 -0.22 dB -15.73 dB 2:32 09-The Apartment Song
DR11 -5.49 dB -21.09 dB 2:01 10-Alright For Now
DR13 -0.85 dB -15.14 dB 3:31 11-A Mind With A Heart Of Its Own
DR12 -0.48 dB -14.96 dB 2:56 12-Zombie Zoo
––––––––––––––––––––––––––––––––––––––––

Number of tracks: 12
Official DR value: DR12

Samplerate: 44100 Hz
Channels: 2
Bits per sample: 16
Bitrate: 918 kbps
Codec: FLAC
================================================================================

[CUETools log; Date: 25.04.2018 2:14:49; Version: 2.1.6]
[CTDB TOCID: 4woMeaXYI4YM2uhL7ynBunlqh2A-] found.
Track | CTDB Status
1 | (476/480) Accurately ripped
2 | (476/480) Accurately ripped
3 | (476/480) Accurately ripped
4 | (475/480) Accurately ripped
5 | (475/480) Accurately ripped
6 | (475/480) Accurately ripped
7 | (476/480) Accurately ripped
8 | (475/480) Accurately ripped
9 | (473/480) Accurately ripped
10 | (476/480) Accurately ripped
11 | (475/480) Accurately ripped
12 | (474/480) Accurately ripped
[AccurateRip ID: 001320fd-00af405a-98095e0c] found.
Track [ CRC | V2 ] Status
01 [065c48a7|1bbfd9d7] (200+200/400) Accurately ripped
02 [b52ee073|806a19fe] (200+200/400) Accurately ripped
03 [54ec23af|09c722a9] (200+200/400) Accurately ripped
04 [076e0983|1264bcb8] (200+200/400) Accurately ripped
05 [b0148de4|29cbc2e8] (200+200/400) Accurately ripped
06 [bedf411b|c0ff3427] (200+200/400) Accurately ripped
07 [c54ac1a0|d899ffd5] (200+200/400) Accurately ripped
08 [3207af46|241fe75f] (200+200/400) Accurately ripped
09 [b4fc4f3b|c030bd81] (200+200/400) Accurately ripped
10 [24cefd45|a1489f96] (200+200/400) Accurately ripped
11 [fb382dea|7ccaa996] (200+200/400) Accurately ripped
12 [1fa84750|0aa281c2] (200+200/400) Accurately ripped

Track Peak [ CRC32 ] [W/O NULL] [ LOG ]
– 100,0 [3E619EBB] [B311C449] CRC32
01 100,0 [701FE724] [03A00AED]
02 88,5 [953A1151] [9D9A7615]
03 93,6 [DAE2B462] [C91D2267]
04 88,8 [FF8FF766] [AFA5EAC6]
05 96,1 [FB375226] [A5865B9A]
06 82,5 [339104DD] [4BEE1D36]
07 75,8 [2D7CC125] [46C821B2]
08 84,5 [B11C9197] [38FE43E8]
09 97,4 [62DECA37] [AA9EB27E]
10 53,1 [C2715123] [4351DCF5]
11 90,7 [6ECB4369] [F689356C]
12 94,6 [B619D0EF] [6DAE5AE0]

Tom Petty - Full Moon Fever (1989)

All thanks go to barsu-1

>>> Tom Petty in my Blog <<<

Download from icerbox.com: