Tom Petty - Full Moon Fever (1989)

Posted By: v3122
Tom Petty - Full Moon Fever (1989)

Tom Petty - Full Moon Fever (1989)
EAC | Flac(Image) + Cue + Log & MP3 CBR 320Kbps
2009 | Universal Music, UICY-93956 | Japan | ~ 288 or 94 Mb | Scans(jpg) -> 51 Mb
Classic Rock / Southern Rock

Although Let Me Up (I've Had Enough) found the Heartbreakers regaining their strength as a band and discovering a newfound ease at songcraft, it just didn't sell that well. Perhaps that factor, along with road fatigue, led Tom Petty to record his first solo album, Full Moon Fever. Nevertheless, the distinction between "solo" and "Heartbreakers" is a fuzzy one because Full Moon Fever is essentially in the same style as the Heartbreakers albums; Mike Campbell co-wrote two songs and co-produced the record, and he, along with Benmont Tench and Howie Epstein, all play on the album. However, the album sounds different from any Heartbreakers record due to the presence of former Electric Light Orchestra leader Jeff Lynne. Petty co-wrote the lion's share of the album with Lynne, who also is the record's main producer. In his hands, Petty's roots rock becomes clean and glossy, layered with shimmering vocal harmonies, keyboards, and acoustic guitars. It's a friendly, radio-ready sound, and if it has dated somewhat over the years, the craft is still admirable and appealing. But the real reason Full Moon Fever became Petty's biggest hit is that it boasted a selection of songs that rivaled Damn the Torpedoes. Full Moon Fever didn't have a weak track; even if a few weren't quite as strong as others, the album was filled with highlights: "I Won't Back Down," the wistful "A Face in the Crowd," the rockabilly throwaways "Yer So Bad" and "A Mind with a Heart of Its Own," the Byrds cover "Feel a Whole Lot Better," the charging "Runnin' Down a Dream," and "Free Fallin'," a coming-of-age ballad that could be Petty's best song. Full Moon Fever might have been meant as an off-the-cuff detour, but it turned into a minor masterpiece.

by Stephen Thomas Erlewine, allmusic
Tom Petty - Full Moon Fever (1989)


Tom Petty - Full Moon Fever (1989):

Tom Petty - Full Moon Fever (1989)

Tracklist:

01. Free Fallin' [04:17]
02. I Wont Back Down [02:59]
03. Love Is A Long Road [04:08]
04. A Face In The Crowd [04:00]
05. Runnin' Down A Dream [04:52]
06. Feel A Whole Lot Better [02:50]
07. Yer So Bad [03:06]
08. Depending On You [02:49]
09. The Apartment Song [02:33]
10. Alright For Now [02:01]
11. A Mind With A Heart Of Its Own [03:32]
12. Zombie Zoo [02:56]

Exact Audio Copy V0.99 prebeta 5 from 4. May 2009

EAC extraction logfile from 26. November 2015, 17:05

TOM PETTY & HEARTBREAKERS / Full Moon Fever ( UICY-93956 )

Used drive : ASUS DRW-24B3ST Adapter: 4 ID: 0

Read mode : Secure
Utilize accurate stream : Yes
Defeat audio cache : Yes
Make use of C2 pointers : No

Read offset correction : 6
Overread into Lead-In and Lead-Out : No
Fill up missing offset samples with silence : Yes
Delete leading and trailing silent blocks : No
Null samples used in CRC calculations : Yes
Used interface : Native Win32 interface for Win NT & 2000

Used output format : User Defined Encoder
Selected bitrate : 1024 kBit/s
Quality : High
Add ID3 tag : No
Command line compressor : C:\Program Files (x86)\EAC\WV\wavpack.exe
Additional command line options : -h -hh -m %s %d


TOC of the extracted CD

Track | Start | Length | Start sector | End sector
––––––––––––––––––––––––––––-
1 | 0:00.00 | 4:16.13 | 0 | 19212
2 | 4:16.13 | 2:58.23 | 19213 | 32585
3 | 7:14.36 | 4:07.51 | 32586 | 51161
4 | 11:22.12 | 3:59.20 | 51162 | 69106
5 | 15:21.32 | 4:51.73 | 69107 | 91004
6 | 20:13.30 | 2:49.66 | 91005 | 103745
7 | 23:03.21 | 3:05.50 | 103746 | 117670
8 | 26:08.71 | 2:48.40 | 117671 | 130310
9 | 28:57.36 | 2:32.36 | 130311 | 141746
10 | 31:29.72 | 2:00.72 | 141747 | 150818
11 | 33:30.69 | 3:31.20 | 150819 | 166663
12 | 37:02.14 | 2:55.35 | 166664 | 179823


Range status and errors

Selected range

Filename F:\TOM PETTY & HEARTBREAKERS - Full Moon Fever (1989) (JP 2009 Universal International, Japan • UICY-93956)\TOM PETTY & HEARTBREAKERS - Full Moon Fever ( UICY-93956 ).wav

Peak level 99.8 %
Range quality 100.0 %
Test CRC 6000C730
Copy CRC 6000C730
Copy OK

No errors occurred


AccurateRip summary

Track 1 accurately ripped (confidence 4) [A8ECE619]
Track 2 accurately ripped (confidence 4) [3417D24E]
Track 3 accurately ripped (confidence 4) [03060AB0]
Track 4 accurately ripped (confidence 4) [C70E175E]
Track 5 accurately ripped (confidence 4) [CDD5FF10]
Track 6 accurately ripped (confidence 4) [BFB55DED]
Track 7 accurately ripped (confidence 4) [2DDFD831]
Track 8 accurately ripped (confidence 4) [DC923113]
Track 9 accurately ripped (confidence 4) [6667835C]
Track 10 accurately ripped (confidence 4) [A772DE2B]
Track 11 accurately ripped (confidence 4) [06190283]
Track 12 accurately ripped (confidence 4) [7FE90806]

All tracks accurately ripped

End of status report

foobar2000 1.2.9 / Dynamic Range Meter 1.1.1
log date: 2017-03-21 21:43:51

––––––––––––––––––––––––––––––––––––––––
Analyzed: TOM PETTY & HEARTBREAKERS / Full Moon Fever ( UICY-93956 )
––––––––––––––––––––––––––––––––––––––––

DR Peak RMS Duration Track
––––––––––––––––––––––––––––––––––––––––
DR12 -0.01 dB -13.86 dB 4:16 01-Free Fallin'
DR12 -0.01 dB -13.80 dB 2:58 02-I Wont Back Down
DR10 -0.01 dB -12.05 dB 4:08 03-Love Is A Long Road
DR13 -0.01 dB -13.95 dB 3:59 04-A Face In The Crowd
DR11 -0.01 dB -12.26 dB 4:52 05-Runnin' Down A Dream
DR11 -0.01 dB -11.91 dB 2:50 06-Feel A Whole Lot Better
DR12 -0.01 dB -13.11 dB 3:06 07-Yer So Bad
DR11 -0.01 dB -12.07 dB 2:49 08-Depending On You
DR12 -0.01 dB -12.81 dB 2:32 09-The Apartment Song
DR11 -2.90 dB -18.18 dB 2:01 10-Alright For Now
DR11 -0.01 dB -12.26 dB 3:31 11-A Mind With A Heart Of Its Own
DR11 -0.01 dB -11.92 dB 2:55 12-Zombie Zoo
––––––––––––––––––––––––––––––––––––––––

Number of tracks: 12
Official DR value: DR11

Samplerate: 44100 Hz
Channels: 2
Bits per sample: 16
Bitrate: 979 kbps
Codec: FLAC

[CUETools log; Date: 21.03.2017 21:43:41; Version: 2.1.4]
[CTDB TOCID: VqHXQsjdX4bX2kzIU52jjI3AAj8-] found.
Track | CTDB Status
1 | (10/10) Accurately ripped
2 | (10/10) Accurately ripped
3 | (10/10) Accurately ripped
4 | (10/10) Accurately ripped
5 | (10/10) Accurately ripped
6 | (10/10) Accurately ripped
7 | (10/10) Accurately ripped
8 | (10/10) Accurately ripped
9 | (10/10) Accurately ripped
10 | (10/10) Accurately ripped
11 | (10/10) Accurately ripped
12 | (10/10) Accurately ripped
[AccurateRip ID: 001321df-00af46e2-9b095d0c] found.
Track [ CRC | V2 ] Status
01 [a8ece619|e912df76] (5+2/7) Accurately ripped
02 [3417d24e|cde82c12] (5+2/7) Accurately ripped
03 [03060ab0|36dbd6a1] (5+2/7) Accurately ripped
04 [c70e175e|4df0b11d] (5+2/7) Accurately ripped
05 [cdd5ff10|9ed99e95] (5+2/7) Accurately ripped
06 [bfb55ded|6db6bb04] (5+2/7) Accurately ripped
07 [2ddfd831|017ecf0b] (5+2/7) Accurately ripped
08 [dc923113|0649f429] (5+2/7) Accurately ripped
09 [6667835c|23011c02] (5+2/7) Accurately ripped
10 [a772de2b|60d5e1e3] (5+2/7) Accurately ripped
11 [06190283|622cecc2] (5+2/7) Accurately ripped
12 [7fe90806|e8b5c223] (5+2/7) Accurately ripped

Track Peak [ CRC32 ] [W/O NULL] [ LOG ]
– 99,8 [6000C730] [CECFAEB1] CRC32
01 99,8 [5D1834FA] [4BD48E13]
02 99,8 [72DF44D3] [23C46F26]
03 99,8 [D2BB6CCB] [8EC806AA]
04 99,8 [80D076C3] [267B96B4]
05 99,8 [F85D8CBF] [D91A275C]
06 99,8 [6DC208EE] [66E9E97B]
07 99,8 [0DD377E6] [83794ABA]
08 99,8 [253469BE] [C0C7D448]
09 99,8 [0EAD584A] [5CDAD4AD]
10 71,5 [5377CAE9] [1B18FAF7]
11 99,8 [6B40425A] [957D6453]
12 99,8 [C7583491] [82A713BB]

Tom Petty - Full Moon Fever (1989)

All thanks go to the original releaser

Tom Petty in my Blog

Download Tom Petty - Full Moon Fever (1989):