Subcategories

Tom Petty & The Heartbreakers - Long After Dark (1982)

Posted By: v3122
Tom Petty & The Heartbreakers - Long After Dark (1982)

Tom Petty & The Heartbreakers - Long After Dark (1982)
EAC | Flac(Image) + Cue + Log & MP3 CBR 320Kbps
2009 | Universal Music, UICY-93951 | Japan | ~ 267 or 89 Mb | Scans(jpg) -> 39 Mb
Classic Rock / Southern Rock

Riding high on the back-to-back Top Five, platinum hits Damn the Torpedoes and Hard Promises, Tom Petty quickly returned to the studio to record the Heartbreakers' fifth album, Long After Dark. Truth be told, there was about as long a gap between Dark and Promises as there was between Promises and Torpedoes, but there was a difference this time around – Petty & the Heartbreakers sounded tired. Even if there are a few new wave flourishes here and there, the band hasn't really changed its style at all – it's still Stonesy, Byrdsian heartland rock. As their first four albums illustrated, that isn't a problem in itself, since they've found numerous variations within their signature sound, providing they have the right songs. Unfortunately, Petty had a dry spell on Long After Dark. With its swirling, minor key guitars, "You Got Lucky" is a classic and "Change of Heart" comes close to matching those peaks, but the remaining songs rarely rise above agreeable filler. Since the Heartbreakers are a very good band, it means the record sounds pretty good as it's playing, but apart from those few highlights, nothing much is memorable once the album has finished. And coming on the heels of two excellent records, that's quite a disappointment.

by Stephen Thomas Erlewine, allmusic
Tom Petty & The Heartbreakers - Long After Dark (1982)


Tom Petty & The Heartbreakers - Long After Dark (1982):

Tom Petty & The Heartbreakers - Long After Dark (1982)

Tracklist:

01. A One Story Town [03:07]
02. You Got Lucky [03:38]
03. Deliver Me [03:29]
04. Change Of Heart [03:18]
05. Finding Out [03:38]
06. We Stand A Chance [03:38]
07. Straight Into Darkness [03:49]
08. The Same Old You [03:31]
09. Between Two Worlds [05:13]
10. A Wasted Life [04:38]

Exact Audio Copy V0.99 prebeta 5 from 4. May 2009

EAC extraction logfile from 17. November 2015, 10:31

TOM PETTY & HEARTBREAKERS / Long After Dark ( UICY-93951 )

Used drive : ASUS DRW-24B3ST Adapter: 4 ID: 0

Read mode : Secure
Utilize accurate stream : Yes
Defeat audio cache : Yes
Make use of C2 pointers : No

Read offset correction : 6
Overread into Lead-In and Lead-Out : No
Fill up missing offset samples with silence : Yes
Delete leading and trailing silent blocks : No
Null samples used in CRC calculations : Yes
Used interface : Native Win32 interface for Win NT & 2000

Used output format : User Defined Encoder
Selected bitrate : 1024 kBit/s
Quality : High
Add ID3 tag : No
Command line compressor : C:\Program Files (x86)\EAC\WV\wavpack.exe
Additional command line options : -h -hh -m %s %d


TOC of the extracted CD

Track | Start | Length | Start sector | End sector
––––––––––––––––––––––––––––-
1 | 0:00.00 | 3:06.22 | 0 | 13971
2 | 3:06.22 | 3:37.44 | 13972 | 30290
3 | 6:43.66 | 3:28.03 | 30291 | 45893
4 | 10:11.69 | 3:17.63 | 45894 | 60731
5 | 13:29.57 | 3:37.73 | 60732 | 77079
6 | 17:07.55 | 3:37.68 | 77080 | 93422
7 | 20:45.48 | 3:48.65 | 93423 | 110587
8 | 24:34.38 | 3:30.57 | 110588 | 126394
9 | 28:05.20 | 5:12.36 | 126395 | 149830
10 | 33:17.56 | 4:37.17 | 149831 | 170622


Range status and errors

Selected range

Filename F:\TOM PETTY & HEARTBREAKERS - Long After Dark (1982) (JP 2009 Universal International, Japan • UICY-93951)\TOM PETTY & HEARTBREAKERS - Long After Dark ( UICY-93951 ).wav

Peak level 99.8 %
Range quality 99.9 %
Test CRC E4002E44
Copy CRC E4002E44
Copy OK

No errors occurred


AccurateRip summary

Track 1 accurately ripped (confidence 5) [E807FB6E]
Track 2 accurately ripped (confidence 5) [078CB148]
Track 3 accurately ripped (confidence 5) [8E72D66F]
Track 4 accurately ripped (confidence 5) [3DCDC84C]
Track 5 accurately ripped (confidence 5) [137CF9D8]
Track 6 accurately ripped (confidence 5) [196167E4]
Track 7 accurately ripped (confidence 5) [92531A1D]
Track 8 accurately ripped (confidence 5) [2E1CB5CC]
Track 9 accurately ripped (confidence 5) [A49C3311]
Track 10 accurately ripped (confidence 5) [2008D584]

All tracks accurately ripped

End of status report

foobar2000 1.2.9 / Dynamic Range Meter 1.1.1
log date: 2017-03-07 23:57:28

––––––––––––––––––––––––––––––––––––––––
Analyzed: TOM PETTY & HEARTBREAKERS / Long After Dark ( UICY-93951 )
––––––––––––––––––––––––––––––––––––––––

DR Peak RMS Duration Track
––––––––––––––––––––––––––––––––––––––––
DR10 -0.01 dB -11.83 dB 3:06 01-A One Story Town
DR12 -0.01 dB -14.29 dB 3:38 02-You Got Lucky
DR11 -0.01 dB -12.91 dB 3:28 03-Deliver Me
DR11 -0.01 dB -12.39 dB 3:18 04-Change Of Heart
DR10 -0.01 dB -11.59 dB 3:38 05-Finding Out
DR11 -0.01 dB -12.63 dB 3:38 06-We Stand A Chance
DR12 -0.01 dB -14.29 dB 3:49 07-Straight Into Darkness
DR11 -0.01 dB -12.63 dB 3:31 08-The Same Old You
DR11 -0.01 dB -13.09 dB 5:12 09-Between Two Worlds
DR14 -0.01 dB -16.69 dB 4:37 10-A Wasted Life
––––––––––––––––––––––––––––––––––––––––

Number of tracks: 10
Official DR value: DR11

Samplerate: 44100 Hz
Channels: 2
Bits per sample: 16
Bitrate: 956 kbps
Codec: FLAC

[CUETools log; Date: 07.03.2017 23:57:29; Version: 2.1.4]
[CTDB TOCID: htx9aqKkXprpq.njHKPkHE7i3L0-] found.
Track | CTDB Status
1 | (10/10) Accurately ripped
2 | ( 9/10) Accurately ripped
3 | ( 9/10) Accurately ripped
4 | ( 9/10) Accurately ripped
5 | ( 9/10) Accurately ripped
6 | ( 9/10) Accurately ripped
7 | ( 9/10) Accurately ripped
8 | ( 9/10) Accurately ripped
9 | ( 9/10) Accurately ripped
10 | ( 9/10) Accurately ripped
[AccurateRip ID: 000d68ed-006ca42d-8e08e20a] found.
Track [ CRC | V2 ] Status
01 [e807fb6e|b37d4b9e] (06+04/10) Accurately ripped
02 [078cb148|657ce54e] (06+04/10) Accurately ripped
03 [8e72d66f|204755ce] (06+04/10) Accurately ripped
04 [3dcdc84c|f0d38556] (06+04/10) Accurately ripped
05 [137cf9d8|d888eb59] (06+04/10) Accurately ripped
06 [196167e4|0043c369] (06+04/10) Accurately ripped
07 [92531a1d|3c80c306] (06+04/10) Accurately ripped
08 [2e1cb5cc|ffbc635b] (06+04/10) Accurately ripped
09 [a49c3311|25292295] (06+04/10) Accurately ripped
10 [2008d584|0097a0f0] (06+04/10) Accurately ripped

Track Peak [ CRC32 ] [W/O NULL] [ LOG ]
– 99,8 [E4002E44] [161F2C8A] CRC32
01 99,8 [F222AC82] [86A9544C]
02 99,8 [C0B89FF1] [C0B89FF1]
03 99,8 [68F7AD58] [68F7AD58]
04 99,8 [F2EB5E51] [F2EB5E51]
05 99,8 [C50D08FE] [892BF099]
06 99,8 [F6D47850] [2506A35E]
07 99,8 [CA9D1645] [BB3A195E]
08 99,8 [B14D18A5] [29E3A7D1]
09 99,8 [774EFA61] [591BB52F]
10 99,8 [2C418EF4] [D932DCA4]

Tom Petty & The Heartbreakers - Long After Dark (1982)

All thanks go to the original releaser

Tom Petty in my Blog

Download Tom Petty & The Heartbreakers - Long After Dark (1982):