Subcategories
Please register here if you want to download anything!

If domain in your address bar is different from the list below
PLEASE LEAVE THAT SITE IMMEDIATELY
❗IT'S A DANGEROUS FAKE❗



Spicy Magazines for Men! ;-)

Tom Petty & The Heartbreakers - The Live Anthology (2009) 4CD Box Set [Re-Up]

Posted By: Designol
Tom Petty & The Heartbreakers - The Live Anthology (2009) 4CD Box Set [Re-Up]

Tom Petty & The Heartbreakers - The Live Anthology (2009) 4CD Box Set
EAC | FLAC | Image (Cue&Log) ~ 1.47 Gb | Mp3 (CBR320) ~ 523 Mb | Scans ~ 91 Mb
Classic Rock, Heartland Rock, Rock & Roll | Label: Reprise | # 512765-2 | 03:47:45

The Live Anthology is a multiple-disc set of recordings drawn from thirty years of live performances. The collection brings together material from 1978-2007 culled from hundreds of hours of live concert recordings covering every era of Tom Petty and the Heartbreakers' tours and represents the best tracks as chosen by producers Tom Petty, Mike Campbell and Ryan Ulyate. The producers made no fixes or overdubs, letting the newly mixed original recordings showcase the invention, spontaneity, craft, and the musicianship that has made Tom Petty and the Heartbreakers among the most celebrated live performers of their time. Along with powerful interpretations of their own classic hits and originals, The Live Anthology features the band tackling some of their best-loved cover material, from classics to obscure beauties to unexpected adaptations. The theme from Goldfinger, the Zombies' 'I Want You Back Again,' the Grateful Dead's 'Friend of the Devil,' early Fleetwood Mac's 'Oh Well,' Booker T. and the MGs' 'Green Onions,' James Brown's 'Good, Good Lovin' and many more. Tom Petty and The Heartbreakers travel wide, paying their musical debts through song and showing just how confidently the band moves across genres and over time.

It's a commonly held opinion among fans and band alike that Tom Petty & the Heartbreakers' lone live album, 1986's Pack Up the Plantation, didn't quite capture the group at its peak, so there has been a long-standing need for another live set, which 2009's Live Anthology finally provides. Like its closest cousin, Bruce Springsteen's Live 1975-1985, Live Anthology almost overcompensates for the long wait by offering almost too much music, cherrypicking highlights from 1978 to 2007. In its simplest incarnation, Live Anthology is a super-affordable, four-disc box set running 48 tracks, which is eight cuts longer than Springsteen's box, plenty long enough for most fans, but in its deluxe version, there's an additional CD, plus two previously unreleased DVDs – a 1978 New Years Eve concert from Santa Monica, a documentary called 400 Days shot during the Wildflowers tour – a Blu-Ray edition of all 62 tracks on the five-CD version, a vinyl copy of the 1976 Official Live 'Leg LP, plus a book and lithograph, along with other assorted bonuses. Certainly, the deluxe edition lives up to its billing, offering enough extras to justify its price tag, but the standard edition is plenty generous as it is, serving up enough consistently strong music from throughout the decades, ranging from expert covers of Willie Dixon and the Grateful Dead to deep treasures from the Heartbreakers catalog. Apart from the tendency to favor performances that stretch on a little too long with jamming – something that is a matter of taste, as some prefer energy to improvisations – if there's any flaw to the set, it's how it goes out of its way to prove the band's consistency by skipping through the decades, letting a version of "Louisiana Rain" from 1972 sit next to a 1997 cover of "Green Onions" and "Melinda" from 2003. This certainly goes a long way to illustrating that Petty & the Heartbreakers always delivered the goods, but it's somewhat at the expense of forward momentum; it's hard not to wish that it was arranged chronologically, to be able to hear the raw energy give way to easy skill, but that's just nitpicking – any way you look at it, this Live Anthology offers an overdose of prime rock & roll.

Review by Stephen Thomas Erlewine, Allmusic.com

Tom Petty & The Heartbreakers - The Live Anthology (2009) 4CD Box Set [Re-Up]



Tracklist:

CD1 (1:05:52):

01. Ladies And Gentlemen… (1:16)
02. Nightwatchman (4:33)
03. Even The Losers (3:41)
04. Here Comes My Girl (4:53)
05. A Thing About You (5:05)
06. I'm In Love (3:55)
07. I'm A Man (2:46)
08. Straight Into Darkness (4:35)
09. Breakdown (7:55)
10. Something In The Air (3:50)
11. I Just Want To Make Love To You (3:55)
12. Drivin' Down To Georgia (6:25)
13. Lost Without You (6:55)
14. Refugee (6:06)


CD2 (55:17):

01. Diddy Wah Diddy (2:55)
02. I Want You Back Again (2:54)
03. Wildflowers (3:13)
04. Friend Of The Devil (5:42)
05. A Woman In Love (It's Not Me) (5:43)
06. It's Good To Be King (12:15)
07. Angel Dream (No. 2) (2:56)
08. Learning To Fly (4:45)
09. Mary Jane's Last Dance (5:55)
10. Mystic Eyes (8:59)


CD3 (53:03):

01. Jammin' Me (4:33)
02. The Wild One, Forever (3:36)
03. Green Onions (4:19)
04. Louisiana Rain (5:11)
05. Melinda (8:16)
06. Goldfinger (4:03)
07. Surrender (3:12)
08. Dreamville (3:55)
09. Spike (7:40)
10. Any Way You Want It (2:59)
11. American Girl (5:20)


CD4 (53:33):

01. Runnin' Down A Dream (5:11)
02. Oh Well (3:36)
03. Southern Accents (5:01)
04. Crawling Back To You (4:38)
05. My Life\Your World (4:55)
06. I Won't Back Down (3:27)
07. Square One (3:44)
08. Have Love Will Travel (3:58)
09. Free Fallin' (4:46)
10. The Waiting (4:14)
11. Good, Good Lovin' (2:50)
12. Century City (4:22)
13. Alright For Now (2:50)


Exact Audio Copy V0.99 prebeta 5 from 4. May 2009

EAC extraction logfile from 6. February 2011, 23:02

Tom Petty & The Heartbreakers / The Live Anthology CD1

Used drive : Optiarc DVD RW AD-7240S Adapter: 3 ID: 1

Read mode : Secure
Utilize accurate stream : Yes
Defeat audio cache : Yes
Make use of C2 pointers : No

Read offset correction : 48
Overread into Lead-In and Lead-Out : No
Fill up missing offset samples with silence : Yes
Delete leading and trailing silent blocks : No
Null samples used in CRC calculations : Yes
Used interface : Native Win32 interface for Win NT & 2000

Used output format : User Defined Encoder
Selected bitrate : 768 kBit/s
Quality : High
Add ID3 tag : No
Command line compressor : C:\Program Files\Exact Audio Copy\FLAC\FLAC.EXE
Additional command line options : -8 -V %s


TOC of the extracted CD

Track | Start | Length | Start sector | End sector
––––––––––––––––––––––––––––-
1 | 0:00.00 | 1:16.31 | 0 | 5730
2 | 1:16.31 | 4:33.18 | 5731 | 26223
3 | 5:49.49 | 3:40.62 | 26224 | 42785
4 | 9:30.36 | 4:52.58 | 42786 | 64743
5 | 14:23.19 | 5:05.28 | 64744 | 87646
6 | 19:28.47 | 3:55.08 | 87647 | 105279
7 | 23:23.55 | 2:46.20 | 105280 | 117749
8 | 26:10.00 | 4:35.24 | 117750 | 138398
9 | 30:45.24 | 7:55.06 | 138399 | 174029
10 | 38:40.30 | 3:50.21 | 174030 | 191300
11 | 42:30.51 | 3:55.17 | 191301 | 208942
12 | 46:25.68 | 6:25.15 | 208943 | 237832
13 | 52:51.08 | 6:55.33 | 237833 | 268990
14 | 59:46.41 | 6:05.42 | 268991 | 296407


Range status and errors

Selected range

Filename F:\music\Tom Petty\2009 - The Live Anthology (4 CD Set)\CD 1\Tom Petty & The Heartbreakers - The Live Anthology CD1.wav

Peak level 100.0 %
Range quality 100.0 %
Test CRC B132FE6A
Copy CRC B132FE6A
Copy OK

No errors occurred


AccurateRip summary

Track 1 accurately ripped (confidence 71) [E23EAC8A]
Track 2 accurately ripped (confidence 72) [EF72030D]
Track 3 accurately ripped (confidence 73) [16FDBFEC]
Track 4 accurately ripped (confidence 72) [686F9958]
Track 5 accurately ripped (confidence 71) [372736CD]
Track 6 accurately ripped (confidence 72) [B2FA2E08]
Track 7 accurately ripped (confidence 72) [A11A635F]
Track 8 accurately ripped (confidence 73) [D1D4825A]
Track 9 accurately ripped (confidence 73) [CB786DA5]
Track 10 accurately ripped (confidence 73) [4A1212E7]
Track 11 accurately ripped (confidence 72) [FB9B0448]
Track 12 accurately ripped (confidence 72) [881FB8BB]
Track 13 accurately ripped (confidence 69) [B2C8311C]
Track 14 accurately ripped (confidence 71) [4CDA18CA]

All tracks accurately ripped

End of status report

[CUETools log; Date: 03.10.2017 22:31:22; Version: 2.1.4]
[CTDB TOCID: f41mFgCN2UXNn1aa5u_BNoaM5Dk-] found.
Track | CTDB Status
1 | (239/244) Accurately ripped
2 | (239/244) Accurately ripped
3 | (239/244) Accurately ripped
4 | (239/244) Accurately ripped
5 | (239/244) Accurately ripped
6 | (239/244) Accurately ripped
7 | (235/244) Accurately ripped
8 | (240/244) Accurately ripped
9 | (239/244) Accurately ripped
10 | (239/244) Accurately ripped
11 | (239/244) Accurately ripped
12 | (238/244) Accurately ripped
13 | (236/244) Accurately ripped
14 | (235/244) Accurately ripped
[AccurateRip ID: 001dfff3-014afb2e-c60f700e] found.
Track [ CRC | V2 ] Status
01 [e23eac8a|e69ad893] (092+139/362) Accurately ripped
02 [ef72030d|31531271] (093+137/360) Accurately ripped
03 [16fdbfec|8f499cf0] (095+140/366) Accurately ripped
04 [686f9958|a7d307d9] (094+140/363) Accurately ripped
05 [372736cd|e6e750fe] (091+139/360) Accurately ripped
06 [b2fa2e08|871559db] (092+137/359) Accurately ripped
07 [a11a635f|211ed1fd] (092+138/361) Accurately ripped
08 [d1d4825a|009a7de5] (095+139/365) Accurately ripped
09 [cb786da5|fdfce3ff] (095+138/363) Accurately ripped
10 [4a1212e7|af55d702] (094+138/363) Accurately ripped
11 [fb9b0448|67576700] (092+138/360) Accurately ripped
12 [881fb8bb|ec9afd71] (092+138/361) Accurately ripped
13 [b2c8311c|d7ef957d] (089+138/357) Accurately ripped
14 [4cda18ca|4d18e7b1] (092+137/359) Accurately ripped
Offsetted by -30:
01 [4fb3cfce] (004/362) Accurately ripped
02 [278e61dd] (004/360) Accurately ripped
03 [9b5c0f6a] (004/366) Accurately ripped
04 [da942f0b] (004/363) Accurately ripped
05 [8d94f55a] (004/360) Accurately ripped
06 [063dec1c] (004/359) Accurately ripped
07 [75c37d76] (004/361) Accurately ripped
08 [d9721610] (004/365) Accurately ripped
09 [c00a2ec8] (004/363) Accurately ripped
10 [9b389cf8] (004/363) Accurately ripped
11 [75247c5d] (004/360) Accurately ripped
12 [4ad51852] (004/361) Accurately ripped
13 [8897fe1d] (004/357) Accurately ripped
14 [3dfee2ee] (004/359) Accurately ripped
Offsetted by 6:
01 [516b7d1c] (046/362) Accurately ripped
02 [55d9019b] (046/360) Accurately ripped
03 [1a43073f] (046/366) Accurately ripped
04 [e77e447f] (045/363) Accurately ripped
05 [7647ea92] (046/360) Accurately ripped
06 [bee56097] (045/359) Accurately ripped
07 [736aab0f] (046/361) Accurately ripped
08 [181fe4be] (046/365) Accurately ripped
09 [d78fd4d7] (046/363) Accurately ripped
10 [d98be3fd] (046/363) Accurately ripped
11 [faa177f8] (046/360) Accurately ripped
12 [c9521a43] (046/361) Accurately ripped
13 [c710f085] (045/357) Accurately ripped
14 [00c1979c] (045/359) Accurately ripped
Offsetted by -661:
01 [0e7d7115] (000/362) No match (V2 was not tested)
02 [141d503a] (000/360) No match (V2 was not tested)
03 [9ec07dbd] (000/366) No match (V2 was not tested)
04 [8686ad13] (000/363) No match (V2 was not tested)
05 [9bb0324c] (000/360) No match (V2 was not tested)
06 [e4806000] (000/359) No match (V2 was not tested)
07 [8815487b] (000/361) No match (V2 was not tested)
08 [baf09c7a] (000/365) No match (V2 was not tested)
09 [3e9c69ca] (000/363) No match (V2 was not tested)
10 [e79ba1f3] (000/363) No match (V2 was not tested)
11 [1e2c9a43] (000/360) No match (V2 was not tested)
12 [a1949c86] (000/361) No match (V2 was not tested)
13 [5967fbba] (000/357) No match (V2 was not tested)
14 [e551a9a9] (000/359) No match (V2 was not tested)
Offsetted by -36:
01 [1f61aa66] (000/362) No match (V2 was not tested)
02 [b9c17903] (000/360) No match (V2 was not tested)
03 [05af97ea] (000/366) No match (V2 was not tested)
04 [a5054e69] (000/363) No match (V2 was not tested)
05 [318b0943] (000/360) No match (V2 was not tested)
06 [c44569ba] (000/359) No match (V2 was not tested)
07 [a1ce1dd3] (000/361) No match (V2 was not tested)
08 [d67386a4] (000/365) No match (V2 was not tested)
09 [3ca0295b] (000/363) No match (V2 was not tested)
10 [6b5189d4] (000/363) No match (V2 was not tested)
11 [885a5be6] (000/360) No match (V2 was not tested)
12 [3c21ed7b] (000/361) No match (V2 was not tested)
13 [52105f97] (000/357) No match (V2 was not tested)
14 [2a2bd674] (000/359) No match (V2 was not tested)
Offsetted by -18:
01 [b715af2e] (000/362) No match (V2 was not tested)
02 [50f96cb9] (000/360) No match (V2 was not tested)
03 [c5e4cda7] (000/366) No match (V2 was not tested)
04 [2d6854aa] (000/363) No match (V2 was not tested)
05 [4b4dedd8] (000/360) No match (V2 was not tested)
06 [6b33923e] (000/359) No match (V2 was not tested)
07 [9fefa930] (000/361) No match (V2 was not tested)
08 [67b6e049] (000/365) No match (V2 was not tested)
09 [e828d041] (000/363) No match (V2 was not tested)
10 [fdf58e2f] (000/363) No match (V2 was not tested)
11 [b4ac3780] (000/360) No match (V2 was not tested)
12 [359233d2] (000/361) No match (V2 was not tested)
13 [f906dac8] (000/357) No match (V2 was not tested)
14 [ef9be505] (000/359) No match (V2 was not tested)

Track Peak [ CRC32 ] [W/O NULL] [ LOG ]
– 100,0 [B132FE6A] [369FC6DE] CRC32
01 97,3 [4633EB97] [5D31ECDF]
02 100,0 [D4745D78] [27E4A174]
03 100,0 [4986F397] [DA00F778]
04 100,0 [814541C9] [059BDE75]
05 100,0 [3E0CBAE8] [81A4FD03]
06 99,7 [0958B1C3] [CD3D23C1]
07 100,0 [DC7FFAE5] [F28CA7C6]
08 100,0 [EC63CC32] [C37AEA5B]
09 99,6 [C27AC834] [EEEC33E0]
10 100,0 [66107226] [4D58EDD8]
11 100,0 [B2DB024F] [DB4002C2]
12 100,0 [BA6F5B2E] [EAE246E1]
13 100,0 [C7D9EC36] [449C87E4]
14 100,0 [A604F048] [ACCCD62E]

foobar2000 1.2 / Dynamic Range Meter 1.1.1
log date: 2017-10-03 22:14:44

––––––––––––––––––––––––––––––––––––––––
Analyzed: Tom Petty & The Heartbreakers / The Live Anthology CD1
––––––––––––––––––––––––––––––––––––––––

DR Peak RMS Duration Track
––––––––––––––––––––––––––––––––––––––––
DR12 -0.23 dB -16.60 dB 1:16 01-Ladies And Gentlemen . . .
DR8 0.00 dB -9.63 dB 4:33 02-Nightwatchman
DR8 0.00 dB -9.34 dB 3:41 03-Even The Losers
DR8 0.00 dB -9.28 dB 4:53 04-Here Comes My Girl
DR7 0.00 dB -9.57 dB 5:05 05-A Thing About You
DR8 -0.02 dB -11.66 dB 3:55 06-I'm In Love
DR7 0.00 dB -8.88 dB 2:46 07-I'm A Man
DR8 0.00 dB -9.68 dB 4:35 08-Straight Into Darkness
DR10 -0.03 dB -13.24 dB 7:55 09-Breakdown
DR9 0.00 dB -10.74 dB 3:50 10-Something In The Air
DR12 0.00 dB -13.27 dB 3:55 11-I Just Want To Make Love To You
DR7 0.00 dB -10.13 dB 6:25 12-Drivin' Down To Georgia
DR10 0.00 dB -14.77 dB 6:55 13-Lost Without You
DR7 0.00 dB -9.17 dB 6:06 14-Refugee
––––––––––––––––––––––––––––––––––––––––

Number of tracks: 14
Official DR value: DR9

Samplerate: 44100 Hz
Channels: 2
Bits per sample: 16
Bitrate: 926 kbps
Codec: FLAC
================================================================================


Exact Audio Copy V0.99 prebeta 5 from 4. May 2009

EAC extraction logfile from 7. February 2011, 8:03

Tom Petty & The Heartbreakers / The Live Anthology CD 2

Used drive : Optiarc DVD RW AD-7240S Adapter: 3 ID: 1

Read mode : Secure
Utilize accurate stream : Yes
Defeat audio cache : Yes
Make use of C2 pointers : No

Read offset correction : 48
Overread into Lead-In and Lead-Out : No
Fill up missing offset samples with silence : Yes
Delete leading and trailing silent blocks : No
Null samples used in CRC calculations : Yes
Used interface : Native Win32 interface for Win NT & 2000

Used output format : User Defined Encoder
Selected bitrate : 768 kBit/s
Quality : High
Add ID3 tag : No
Command line compressor : C:\Program Files\Exact Audio Copy\FLAC\FLAC.EXE
Additional command line options : -8 -V %s


TOC of the extracted CD

Track | Start | Length | Start sector | End sector
––––––––––––––––––––––––––––-
1 | 0:00.00 | 2:55.28 | 0 | 13152
2 | 2:55.28 | 2:54.26 | 13153 | 26228
3 | 5:49.54 | 3:12.49 | 26229 | 40677
4 | 9:02.28 | 5:41.51 | 40678 | 66303
5 | 14:44.04 | 5:42.47 | 66304 | 92000
6 | 20:26.51 | 12:14.61 | 92001 | 147111
7 | 32:41.37 | 2:56.12 | 147112 | 160323
8 | 35:37.49 | 4:44.56 | 160324 | 181679
9 | 40:22.30 | 5:54.49 | 181680 | 208278
10 | 46:17.04 | 8:59.34 | 208279 | 248737


Range status and errors

Selected range

Filename F:\music\Tom Petty\2009 - The Live Anthology (4 CD Set)\CD 2\Tom Petty & The Heartbreakers - The Live Anthology CD 2.wav

Peak level 100.0 %
Range quality 100.0 %
Test CRC 65CBA13B
Copy CRC 65CBA13B
Copy OK

No errors occurred


AccurateRip summary

Track 1 accurately ripped (confidence 15) [319380AB]
Track 2 accurately ripped (confidence 16) [3C76D7AE]
Track 3 accurately ripped (confidence 16) [53727756]
Track 4 accurately ripped (confidence 16) [2887F73E]
Track 5 accurately ripped (confidence 16) [A1BD528F]
Track 6 accurately ripped (confidence 16) [9679AB2E]
Track 7 accurately ripped (confidence 16) [FA4BE35E]
Track 8 accurately ripped (confidence 16) [729368D8]
Track 9 accurately ripped (confidence 16) [CB5BD1CF]
Track 10 accurately ripped (confidence 16) [FD50695A]

All tracks accurately ripped

End of status report

[CUETools log; Date: 03.10.2017 22:31:41; Version: 2.1.4]
[CTDB TOCID: js0ltA8nCFIsAZ2mIVE_tIQUh78-] found.
Track | CTDB Status
1 | (237/243) Accurately ripped
2 | (236/243) Accurately ripped
3 | (236/243) Accurately ripped
4 | (236/243) Accurately ripped
5 | (237/243) Accurately ripped
6 | (237/243) Accurately ripped
7 | (236/243) Accurately ripped
8 | (234/243) Accurately ripped
9 | (232/243) Accurately ripped
10 | (227/243) Accurately ripped
[AccurateRip ID: 001212f2-009754c4-910cf40a] found.
Track [ CRC | V2 ] Status
01 [319380ab|03851f3d] (021+055/359) Accurately ripped
02 [3c76d7ae|96c0b833] (023+054/359) Accurately ripped
03 [53727756|91dc4a32] (023+054/358) Accurately ripped
04 [2887f73e|6497c1fb] (023+055/362) Accurately ripped
05 [a1bd528f|9c86ce3f] (023+054/362) Accurately ripped
06 [9679ab2e|9478f588] (023+055/360) Accurately ripped
07 [fa4be35e|e71a4fcb] (023+054/359) Accurately ripped
08 [729368d8|38e1a274] (023+055/359) Accurately ripped
09 [cb5bd1cf|8cedacb5] (023+055/360) Accurately ripped
10 [fd50695a|11e7a264] (023+053/350) Accurately ripped
Offsetted by -42:
01 [1ef3220a] (004/359) Accurately ripped
02 [96c48445] (004/359) Accurately ripped
03 [ae7bccdd] (003/358) Accurately ripped
04 [5df8540e] (004/362) Accurately ripped
05 [16b60a99] (004/362) Accurately ripped
06 [3205eda3] (004/360) Accurately ripped
07 [8239df3b] (004/359) Accurately ripped
08 [39e851c9] (004/359) Accurately ripped
09 [2c54fd0d] (004/360) Accurately ripped
10 [3d2060c3] (004/350) Accurately ripped
Offsetted by 6:
01 [8147232e] (115/359) Accurately ripped
02 [3da4f732] (115/359) Accurately ripped
03 [3011f9e2] (114/358) Accurately ripped
04 [9dc483ec] (116/362) Accurately ripped
05 [98b48cb6] (117/362) Accurately ripped
06 [ec86be8c] (115/360) Accurately ripped
07 [3dc2f341] (116/359) Accurately ripped
08 [e6693fa3] (114/359) Accurately ripped
09 [e3863b3d] (116/360) Accurately ripped
10 [64c35265] (114/350) Accurately ripped
Offsetted by -661:
01 [bbf18f99] (000/359) No match (V2 was not tested)
02 [3796a042] (000/359) No match (V2 was not tested)
03 [6703b667] (000/358) No match (V2 was not tested)
04 [f6e3cf3f] (000/362) No match (V2 was not tested)
05 [2febda46] (000/362) No match (V2 was not tested)
06 [5ce7feb9] (000/360) No match (V2 was not tested)
07 [f349db5f] (000/359) No match (V2 was not tested)
08 [7d01e6b1] (000/359) No match (V2 was not tested)
09 [aa13c693] (000/360) No match (V2 was not tested)
10 [e64d6722] (000/350) No match (V2 was not tested)

Track Peak [ CRC32 ] [W/O NULL] [ LOG ]
– 100,0 [65CBA13B] [829F711D] CRC32
01 100,0 [7B1A7D90] [0D0CC5E8]
02 100,0 [D57DED1D] [69CDADDD]
03 97,9 [0275B649] [9ED8B84D]
04 100,0 [D490497F] [856CE1DF]
05 100,0 [73848C05] [E7BC4B6F]
06 100,0 [5535D283] [506278ED]
07 97,3 [6B7BBA16] [D7E32B50]
08 97,9 [21D4CBFA] [0F9A5DC3]
09 100,0 [5D38D5CF] [D8F37277]
10 100,0 [5C384CEC] [EC186070]

foobar2000 1.2 / Dynamic Range Meter 1.1.1
log date: 2017-10-03 22:15:27

––––––––––––––––––––––––––––––––––––––––
Analyzed: Tom Petty & The Heartbreakers / The Live Anthology CD 2
––––––––––––––––––––––––––––––––––––––––

DR Peak RMS Duration Track
––––––––––––––––––––––––––––––––––––––––
DR9 0.00 dB -10.38 dB 2:55 01-Diddy Wah Diddy
DR9 0.00 dB -11.26 dB 2:54 02-I Want You Back Again
DR11 -0.18 dB -13.76 dB 3:13 03-Wildflowers
DR9 0.00 dB -10.93 dB 5:42 04-Friend Of The Devil
DR8 0.00 dB -10.63 dB 5:43 05-A Woman In Love (It's Not Me)
DR8 0.00 dB -10.67 dB 12:15 06-It's Good To Be King
DR11 -0.23 dB -15.16 dB 2:56 07-Angel Dream (No. 2)
DR11 -0.18 dB -14.33 dB 4:45 08-Learning To Fly
DR7 0.00 dB -8.12 dB 5:55 09-Mary Jane's Last Dance
DR7 0.00 dB -11.51 dB 8:59 10-Mystic Eyes
––––––––––––––––––––––––––––––––––––––––

Number of tracks: 10
Official DR value: DR9

Samplerate: 44100 Hz
Channels: 2
Bits per sample: 16
Bitrate: 906 kbps
Codec: FLAC
================================================================================


Exact Audio Copy V0.99 prebeta 5 from 4. May 2009

EAC extraction logfile from 7. February 2011, 0:42

Tom Petty & The Heartbreakers / The Live Anthology CD 3

Used drive : Optiarc DVD RW AD-7240S Adapter: 3 ID: 1

Read mode : Secure
Utilize accurate stream : Yes
Defeat audio cache : Yes
Make use of C2 pointers : No

Read offset correction : 48
Overread into Lead-In and Lead-Out : No
Fill up missing offset samples with silence : Yes
Delete leading and trailing silent blocks : No
Null samples used in CRC calculations : Yes
Used interface : Native Win32 interface for Win NT & 2000

Used output format : User Defined Encoder
Selected bitrate : 768 kBit/s
Quality : High
Add ID3 tag : No
Command line compressor : C:\Program Files\Exact Audio Copy\FLAC\FLAC.EXE
Additional command line options : -8 -V %s


TOC of the extracted CD

Track | Start | Length | Start sector | End sector
––––––––––––––––––––––––––––-
1 | 0:00.00 | 4:32.73 | 0 | 20472
2 | 4:32.73 | 3:35.61 | 20473 | 36658
3 | 8:08.59 | 4:19.24 | 36659 | 56107
4 | 12:28.08 | 5:10.54 | 56108 | 79411
5 | 17:38.62 | 8:15.56 | 79412 | 116592
6 | 25:54.43 | 4:02.46 | 116593 | 134788
7 | 29:57.14 | 3:11.60 | 134789 | 149173
8 | 33:08.74 | 3:54.62 | 149174 | 166785
9 | 37:03.61 | 7:40.35 | 166786 | 201320
10 | 44:44.21 | 2:59.31 | 201321 | 214776
11 | 47:43.52 | 5:19.54 | 214777 | 238755


Range status and errors

Selected range

Filename F:\music\Tom Petty\2009 - The Live Anthology (4 CD Set)\CD 3\Tom Petty & The Heartbreakers - The Live Anthology CD 3.wav

Peak level 100.0 %
Range quality 100.0 %
Test CRC 8DE89F81
Copy CRC 8DE89F81
Copy OK

No errors occurred


AccurateRip summary

Track 1 accurately ripped (confidence 100) [9EC7A0CC]
Track 2 accurately ripped (confidence 102) [A66CE3F5]
Track 3 accurately ripped (confidence 102) [177A8FAB]
Track 4 accurately ripped (confidence 102) [660A43C8]
Track 5 accurately ripped (confidence 101) [5D2C8AEE]
Track 6 accurately ripped (confidence 100) [BE620645]
Track 7 accurately ripped (confidence 101) [11647A54]
Track 8 accurately ripped (confidence 101) [ED9F9463]
Track 9 accurately ripped (confidence 101) [FEFDCA1B]
Track 10 accurately ripped (confidence 101) [545C0F0E]
Track 11 accurately ripped (confidence 98) [6A13752C]

All tracks accurately ripped

End of status report

[CUETools log; Date: 03.10.2017 22:32:00; Version: 2.1.4]
[CTDB TOCID: 1mQpfeF92Dh.mASKnWg_irG0yFE-] found.
Track | CTDB Status
1 | (242/247) Accurately ripped
2 | (242/247) Accurately ripped
3 | (241/247) Accurately ripped
4 | (240/247) Accurately ripped
5 | (241/247) Accurately ripped
6 | (239/247) Accurately ripped
7 | (240/247) Accurately ripped
8 | (240/247) Accurately ripped
9 | (240/247) Accurately ripped
10 | (241/247) Accurately ripped
11 | (239/247) Accurately ripped
[AccurateRip ID: 001596c0-00bc7548-a30c6f0b] found.
Track [ CRC | V2 ] Status
01 [9ec7a0cc|709fc580] (136+200/351) Accurately ripped
02 [a66ce3f5|fe5b7aab] (138+200/354) Accurately ripped
03 [177a8fab|957280c6] (139+200/355) Accurately ripped
04 [660a43c8|830abc79] (138+200/354) Accurately ripped
05 [5d2c8aee|6d887a74] (136+200/352) Accurately ripped
06 [be620645|e424c7e0] (137+200/353) Accurately ripped
07 [11647a54|efb2302b] (137+200/353) Accurately ripped
08 [ed9f9463|0b5811af] (136+200/352) Accurately ripped
09 [fefdca1b|e6a1cc5c] (137+200/353) Accurately ripped
10 [545c0f0e|15404839] (136+200/352) Accurately ripped
11 [6a13752c|24c9f82a] (133+200/351) Accurately ripped
Offsetted by -48:
01 [64d59158] (004/351) Accurately ripped
02 [5743e7d5] (004/354) Accurately ripped
03 [80f7dd76] (004/355) Accurately ripped
04 [18479b69] (004/354) Accurately ripped
05 [94711d4f] (004/352) Accurately ripped
06 [609d33b1] (004/353) Accurately ripped
07 [e3c0c665] (004/353) Accurately ripped
08 [06c80587] (004/352) Accurately ripped
09 [a66fc179] (004/353) Accurately ripped
10 [62deb9bc] (004/352) Accurately ripped
11 [fee3691f] (004/351) Accurately ripped
Offsetted by -667:
01 [fda0e6bb] (000/351) No match (V2 was not tested)
02 [314d4660] (000/354) No match (V2 was not tested)
03 [e9b52050] (000/355) No match (V2 was not tested)
04 [28cbdbfa] (000/354) No match (V2 was not tested)
05 [046f621f] (000/352) No match (V2 was not tested)
06 [4d79c148] (000/353) No match (V2 was not tested)
07 [97494cab] (000/353) No match (V2 was not tested)
08 [311a34d6] (000/352) No match (V2 was not tested)
09 [2249d467] (000/353) No match (V2 was not tested)
10 [07deba85] (000/352) No match (V2 was not tested)
11 [bdb985c5] (000/351) No match (V2 was not tested)
Offsetted by -66:
01 [09182a70] (000/351) No match (V2 was not tested)
02 [cd50c8c3] (000/354) No match (V2 was not tested)
03 [e8ee51d2] (000/355) No match (V2 was not tested)
04 [f9df688a] (000/354) No match (V2 was not tested)
05 [ad2d9e3c] (000/352) No match (V2 was not tested)
06 [27a2e72d] (000/353) No match (V2 was not tested)
07 [7d849bd3] (000/353) No match (V2 was not tested)
08 [9ac177b0] (000/352) No match (V2 was not tested)
09 [c8d107ad] (000/353) No match (V2 was not tested)
10 [751541d3] (000/352) No match (V2 was not tested)
11 [ff4708ae] (000/351) No match (V2 was not tested)

Track Peak [ CRC32 ] [W/O NULL] [ LOG ]
– 100,0 [8DE89F81] [D581254F] CRC32
01 100,0 [E15E6334] [5C87F7F8]
02 100,0 [1E4EAB79] [6D858D5D]
03 99,6 [A5D85D24] [55B1581C]
04 100,0 [8C754288] [81BD901C]
05 100,0 [7EC2F5A9] [3E23AECD]
06 100,0 [5B3D0324] [8D06FCF4]
07 100,0 [BC0D4CB9] [68CF2C55]
08 100,0 [5E6C9722] [F40CE7C5]
09 99,7 [B06BA1D4] [B027EBE1]
10 100,0 [027C5EAC] [49982F8F]
11 100,0 [DCAF7070] [1F00B64D]

foobar2000 1.2 / Dynamic Range Meter 1.1.1
log date: 2017-10-03 22:15:56

––––––––––––––––––––––––––––––––––––––––
Analyzed: Tom Petty & The Heartbreakers / The Live Anthology CD 3
––––––––––––––––––––––––––––––––––––––––

DR Peak RMS Duration Track
––––––––––––––––––––––––––––––––––––––––
DR7 0.00 dB -8.43 dB 4:33 01-Jammin' Me
DR8 0.00 dB -11.01 dB 3:36 02-The Wild One, Forever
DR10 -0.03 dB -11.25 dB 4:19 03-Green Onions
DR9 0.00 dB -10.82 dB 5:11 04-Louisiana Rain
DR10 0.00 dB -13.41 dB 8:16 05-Melinda
DR9 0.00 dB -10.27 dB 4:03 06-Goldfinger
DR8 0.00 dB -9.67 dB 3:12 07-Surrender
DR9 0.00 dB -11.66 dB 3:55 08-Dreamville
DR12 -0.02 dB -14.28 dB 7:40 09-Spike
DR7 0.00 dB -8.22 dB 2:59 10-Any Way You Want It
DR7 0.00 dB -9.04 dB 5:20 11-American Girl
––––––––––––––––––––––––––––––––––––––––

Number of tracks: 11
Official DR value: DR9

Samplerate: 44100 Hz
Channels: 2
Bits per sample: 16
Bitrate: 929 kbps
Codec: FLAC
================================================================================


Exact Audio Copy V0.99 prebeta 5 from 4. May 2009

EAC extraction logfile from 7. February 2011, 1:12

Tom Petty & The Heartbreakers / The Live Anthology CD 4

Used drive : Optiarc DVD RW AD-7240S Adapter: 3 ID: 1

Read mode : Secure
Utilize accurate stream : Yes
Defeat audio cache : Yes
Make use of C2 pointers : No

Read offset correction : 48
Overread into Lead-In and Lead-Out : No
Fill up missing offset samples with silence : Yes
Delete leading and trailing silent blocks : No
Null samples used in CRC calculations : Yes
Used interface : Native Win32 interface for Win NT & 2000

Used output format : User Defined Encoder
Selected bitrate : 768 kBit/s
Quality : High
Add ID3 tag : No
Command line compressor : C:\Program Files\Exact Audio Copy\FLAC\FLAC.EXE
Additional command line options : -8 -V %s


TOC of the extracted CD

Track | Start | Length | Start sector | End sector
––––––––––––––––––––––––––––-
1 | 0:00.00 | 5:11.10 | 0 | 23334
2 | 5:11.10 | 3:35.62 | 23335 | 39521
3 | 8:46.72 | 5:00.65 | 39522 | 62086
4 | 13:47.62 | 4:38.33 | 62087 | 82969
5 | 18:26.20 | 4:55.26 | 82970 | 105120
6 | 23:21.46 | 3:26.55 | 105121 | 120625
7 | 26:48.26 | 3:44.34 | 120626 | 137459
8 | 30:32.60 | 3:57.38 | 137460 | 155272
9 | 34:30.23 | 4:46.21 | 155273 | 176743
10 | 39:16.44 | 4:14.09 | 176744 | 195802
11 | 43:30.53 | 2:50.30 | 195803 | 208582
12 | 46:21.08 | 4:22.35 | 208583 | 228267
13 | 50:43.43 | 2:49.67 | 228268 | 241009


Range status and errors

Selected range

Filename F:\music\Tom Petty\2009 - The Live Anthology (4 CD Set)\CD 4\Tom Petty & The Heartbreakers - The Live Anthology CD 4.wav

Peak level 100.0 %
Range quality 100.0 %
Test CRC D4CCAF8F
Copy CRC D4CCAF8F
Copy OK

No errors occurred


AccurateRip summary

Track 1 accurately ripped (confidence 74) [B3C20D2E]
Track 2 accurately ripped (confidence 73) [C753F8A0]
Track 3 accurately ripped (confidence 72) [148E6479]
Track 4 accurately ripped (confidence 73) [90A76863]
Track 5 accurately ripped (confidence 74) [F3861593]
Track 6 accurately ripped (confidence 74) [F1306ADA]
Track 7 accurately ripped (confidence 74) [7EE209F4]
Track 8 accurately ripped (confidence 74) [550E8235]
Track 9 accurately ripped (confidence 74) [E847B710]
Track 10 accurately ripped (confidence 74) [E0A229A4]
Track 11 accurately ripped (confidence 73) [195C33CC]
Track 12 accurately ripped (confidence 72) [A79F4CD9]
Track 13 accurately ripped (confidence 73) [057DDE40]

All tracks accurately ripped

End of status report

[CUETools log; Date: 03.10.2017 22:32:18; Version: 2.1.4]
[CTDB TOCID: Y9JACgGZnUr0uGT5unUtUiN35Dw-] found.
Track | CTDB Status
1 | (252/258) Accurately ripped
2 | (251/258) Accurately ripped
3 | (251/258) Accurately ripped
4 | (253/258) Accurately ripped
5 | (252/258) Accurately ripped
6 | (252/258) Accurately ripped
7 | (252/258) Accurately ripped
8 | (252/258) Accurately ripped
9 | (247/258) Accurately ripped, or (5/258) differs in 4549 samples @02:41:30-02:41:31,02:41:63-02:41:64,02:42:05-02:42:06,02:42:22-02:42:23,02:42:38-02:42:39,02:42:55-02:42:56,02:42:71-02:42:72,02:43:13-02:43:14,02:43:30,02:43:46-02:43:47,02:43:63-02:43:64,02:44:04-02:44:05,02:44:21-02:44:22,02:44:37-02:44:38,02:44:54-02:44:55,02:44:71-02:44:72,02:45:12-02:45:13,02:45:29-02:45:30,02:45:45-02:45:46,02:45:62-02:45:63,02:46:04-02:46:05,02:46:20-02:46:21,02:46:37-02:46:38,02:46:53-02:46:54,02:46:70-02:46:71,02:47:12,02:47:28-02:47:29,02:47:45-02:47:46,02:47:61-02:47:62,02:48:03-02:48:04,02:48:19-02:48:20
10 | (251/258) Accurately ripped
11 | (253/258) Accurately ripped
12 | (250/258) Accurately ripped
13 | (250/258) Accurately ripped
[AccurateRip ID: 001b1ca2-010c0b6d-9d0c8d0d] found.
Track [ CRC | V2 ] Status
01 [b3c20d2e|62ef95b4] (095+138/362) Accurately ripped
02 [c753f8a0|338ec0fb] (094+135/358) Accurately ripped
03 [148e6479|76ff515a] (091+137/357) Accurately ripped
04 [90a76863|9518383d] (093+136/356) Accurately ripped
05 [f3861593|44842586] (093+136/357) Accurately ripped
06 [f1306ada|f2cf9059] (094+137/360) Accurately ripped
07 [7ee209f4|dd1773a1] (094+137/357) Accurately ripped
08 [550e8235|19192afb] (094+136/359) Accurately ripped
09 [e847b710|e00e3e30] (092+137/357) Accurately ripped
10 [e0a229a4|66a3ca7f] (096+137/362) Accurately ripped
11 [195c33cc|0c4e52c4] (094+137/359) Accurately ripped
12 [a79f4cd9|79ad6571] (092+136/353) Accurately ripped
13 [057dde40|c98061c6] (092+136/355) Accurately ripped
Offsetted by 6:
01 [bf70ee65] (046/362) Accurately ripped
02 [4f98c56a] (046/358) Accurately ripped
03 [aee189d6] (045/357) Accurately ripped
04 [9fce383f] (046/356) Accurately ripped
05 [6f78ea55] (045/357) Accurately ripped
06 [44b860a4] (046/360) Accurately ripped
07 [2486b6d1] (045/357) Accurately ripped
08 [1ac0fa4d] (046/359) Accurately ripped
09 [f0a4e1d2] (045/357) Accurately ripped
10 [8cfbfb81] (046/362) Accurately ripped
11 [f74a7edb] (045/359) Accurately ripped
12 [2c4665f1] (046/353) Accurately ripped
13 [33440b23] (047/355) Accurately ripped
Offsetted by -661:
01 [59d54ed8] (000/362) No match (V2 was not tested)
02 [ac342fee] (000/358) No match (V2 was not tested)
03 [dcdd849b] (000/357) No match (V2 was not tested)
04 [e6f35982] (000/356) No match (V2 was not tested)
05 [34a6d204] (000/357) No match (V2 was not tested)
06 [9de609eb] (000/360) No match (V2 was not tested)
07 [53824522] (000/357) No match (V2 was not tested)
08 [7229599f] (000/359) No match (V2 was not tested)
09 [dc08c01d] (000/357) No match (V2 was not tested)
10 [7d67e5e2] (000/362) No match (V2 was not tested)
11 [0101f5a0] (000/359) No match (V2 was not tested)
12 [b761eebf] (000/353) No match (V2 was not tested)
13 [50375b5f] (000/355) No match (V2 was not tested)
Offsetted by -48:
01 [551e51af] (004/362) Accurately ripped
02 [eeab7586] (004/358) Accurately ripped
03 [f9714b6e] (004/357) Accurately ripped
04 [5e9d32b7] (004/356) Accurately ripped
05 [13f65403] (004/357) Accurately ripped
06 [c2bb8d74] (004/360) Accurately ripped
07 [1b30f0d9] (004/357) Accurately ripped
08 [ff81ea7d] (004/359) Accurately ripped
09 [e417635a] (000/357) No match (V2 was not tested)
10 [ab72830f] (004/362) Accurately ripped
11 [0b4a1280] (004/359) Accurately ripped
12 [c43d76c2] (003/353) Accurately ripped
13 [d67d9d9f] (003/355) Accurately ripped

Track Peak [ CRC32 ] [W/O NULL] [ LOG ]
– 100,0 [D4CCAF8F] [B8A221C3] CRC32
01 100,0 [9528C1FD] [A323496D]
02 100,0 [C920AB3B] [8873B348]
03 96,9 [2E9746E7] [7468A722]
04 99,5 [EF5B88EC] [27B8F13D]
05 100,0 [8F0D1C16] [FDB25533]
06 100,0 [545FB54B] [13BF0CE9]
07 96,7 [D2646D61] [DAB9C3B6]
08 100,0 [C7E9F079] [C55DDE31]
09 100,0 [13F415D9] [62778CCA]
10 100,0 [0918A40F] [27082210]
11 100,0 [44416DDB] [41606694]
12 100,0 [F368C4E7] [DFAC32D7]
13 98,1 [36308DBE] [94C2FDEF]

foobar2000 1.2 / Dynamic Range Meter 1.1.1
log date: 2017-10-03 22:16:36

––––––––––––––––––––––––––––––––––––––––
Analyzed: Tom Petty & The Heartbreakers / The Live Anthology CD 4
––––––––––––––––––––––––––––––––––––––––

DR Peak RMS Duration Track
––––––––––––––––––––––––––––––––––––––––
DR7 0.00 dB -8.19 dB 5:11 01-Runnin' Down A Dream
DR8 0.00 dB -9.85 dB 3:36 02-Oh Well
DR12 -0.27 dB -14.76 dB 5:01 03-Southern Accents
DR9 -0.04 dB -11.61 dB 4:38 04-Crawling Back To You
DR8 0.00 dB -9.34 dB 4:55 05-My Life\Your World
DR11 0.00 dB -13.41 dB 3:27 06-I Won't Back Down
DR12 -0.29 dB -14.88 dB 3:44 07-Square One
DR8 0.00 dB -9.94 dB 3:58 08-Have Love Will Travel
DR7 0.00 dB -9.42 dB 4:46 09-Free Fallin'
DR7 0.00 dB -8.74 dB 4:14 10-The Waiting
DR8 0.00 dB -9.95 dB 2:50 11-Good, Good Lovin'
DR7 0.00 dB -8.60 dB 4:22 12-Century City
DR11 -0.17 dB -14.17 dB 2:50 13-Alright For Now
––––––––––––––––––––––––––––––––––––––––

Number of tracks: 13
Official DR value: DR9

Samplerate: 44100 Hz
Channels: 2
Bits per sample: 16
Bitrate: 919 kbps
Codec: FLAC
================================================================================

Tom Petty & The Heartbreakers - The Live Anthology (2009) 4CD Box Set [Re-Up]

Tom Petty & The Heartbreakers - The Live Anthology (2009) 4CD Box Set [Re-Up]

All thanks to original releaser - dmvitaly32

More interesting music in My Blog