Subcategories

Tom Waits - Austin City Limits 1978 (2015) [HDTV 720p]

Posted By: v3122
Tom Waits - Austin City Limits 1978 (2015) [HDTV 720p]

Tom Waits - Austin City Limits 1978 (2015)
TS, MPEG2 Video 1280x720, 59.94fps | Dolby AC3, 6 ch, 448 Kbps
Jazz / Blues / Rock | 00:53:05 | ~ 4.69 Gb

~ Austin City Limits (Austin/Texas/U.S.A.) - December 5, 1978 ~

Tom Waits - Austin City Limits 1978 (2015) [HDTV 720p]


Tom Waits - Austin City Limits 1978 (2015):


Tracklist:

01. Summertime/Burma Shave
02. Annie's Back in Town/I Wish I Was in New Orleans
03. A Sweet Little Bullet From a Pretty Blue Gun
04. On the Nickel
05. Romeo is Bleeding
06. Silent Night/Christmas Card From a Hooker in Minneapolis
07. Small Change

Musicians:

Tom Waits - vocals
Herbert Hardesty - sax, flugelhorn, trumpet
Arthur Richardson - guitar
John Thomassie - drums
Greg Cohen - bass


General
ID : 16 (0x10)
Complete name : G:\UP\Mix\Tom Waits - Austin City Limits 1978\Tom Waits - Austin City Limits 1978 (2015) .ts
Format : MPEG-TS
File size : 4.45 GiB
Duration : 53mn 5s
Overall bit rate mode : Variable
Overall bit rate : 12.0 Mbps

Video
ID : 49 (0x31)
Menu ID : 1 (0x1)
Format : MPEG Video
Format version : Version 2
Format profile : Main@High
Format settings, BVOP : Yes
Format settings, Matrix : Custom
Format settings, GOP : M=3, N=15
Codec ID : 2
Duration : 53mn 4s
Bit rate mode : Variable
Bit rate : 10.8 Mbps
Maximum bit rate : 65.0 Mbps
Width : 1 280 pixels
Height : 720 pixels
Display aspect ratio : 16:9
Frame rate : 59.940 fps
Color space : YUV
Chroma subsampling : 4:2:0
Bit depth : 8 bits
Scan type : Progressive
Compression mode : Lossy
Bits/(Pixel*Frame) : 0.195
Stream size : 3.99 GiB (90%)

Audio #1
ID : 52 (0x34)
Menu ID : 1 (0x1)
Format : AC-3
Format/Info : Audio Coding 3
Mode extension : CM (complete main)
Format settings, Endianness : Big
Codec ID : 6
Duration : 53mn 4s
Bit rate mode : Constant
Bit rate : 448 Kbps
Channel(s) : 6 channels
Channel positions : Front: L C R, Side: L R, LFE
Sampling rate : 48.0 KHz
Bit depth : 16 bits
Compression mode : Lossy
Delay relative to video : 84ms
Stream size : 170 MiB (4%)

Audio #2
ID : 53 (0x35)
Menu ID : 1 (0x1)
Format : AC-3
Format/Info : Audio Coding 3
Mode extension : CM (complete main)
Format settings, Endianness : Big
Codec ID : 6
Duration : 53mn 4s
Bit rate mode : Constant
Bit rate : 96.0 Kbps
Channel(s) : 1 channel
Channel positions : Front: C
Sampling rate : 48.0 KHz
Bit depth : 16 bits
Compression mode : Lossy
Delay relative to video : 2ms
Stream size : 36.4 MiB (1%)

Audio #3
ID : 54 (0x36)
Menu ID : 1 (0x1)
Format : AC-3
Format/Info : Audio Coding 3
Mode extension : CM (complete main)
Format settings, Endianness : Big
Codec ID : 6
Duration : 53mn 4s
Bit rate mode : Constant
Bit rate : 96.0 Kbps
Channel(s) : 1 channel
Channel positions : Front: C
Sampling rate : 48.0 KHz
Bit depth : 16 bits
Compression mode : Lossy
Delay relative to video : 97ms
Stream size : 36.4 MiB (1%)

Text #1
ID : 49 (0x31)-CC1
Menu ID : 1 (0x1)
Format : EIA-608
Muxing mode : A/53 / DTVCC Transport
Muxing mode, more info : Muxed in Video #1
Duration : 53mn 4s
Bit rate mode : Constant
Stream size : 0.00 Byte (0%)

Text #2
ID : 49 (0x31)-1
Menu ID : 1 (0x1)
Format : EIA-708
Muxing mode : A/53 / DTVCC Transport
Muxing mode, more info : Muxed in Video #1
Duration : 53mn 4s
Bit rate mode : Constant
Stream size : 0.00 Byte (0%)

Text #3
ID : 49 (0x31)-6
Menu ID : 1 (0x1)
Format : EIA-708
Muxing mode : A/53 / DTVCC Transport
Muxing mode, more info : Muxed in Video #1
Duration : 53mn 4s
Bit rate mode : Constant
Stream size : 0.00 Byte (0%)

Tom Waits - Austin City Limits 1978 (2015) [HDTV 720p]

Tom Waits - Austin City Limits 1978 (2015) [HDTV 720p]

Tom Waits - Austin City Limits 1978 (2015) [HDTV 720p]

Tom Waits - Austin City Limits 1978 (2015) [HDTV 720p]

All thanks go to meloman67

Tom Waits in my Blog

Download Tom Waits - Austin City Limits 1978 (2015):