Subcategories

Tom Petty - An American Treasure (2018) [4CD Deluxe Remastered Box Set]

Posted By: SERTiL
Tom Petty - An American Treasure (2018) [4CD Deluxe Remastered Box Set]

Tom Petty - An American Treasure (2018) [4CD Deluxe Remastered Box Set]
EAC Rip | CD FLAC (tracks+.cue, m3u, log) | 1.58 GB
Label: Reprise Records – 9362-49055-6 | Tracks: 63 | Time: 245:03 min
Rock, Singer-Songwriter

Reprise Records will release An American Treasure—a career-spanning Tom Petty box set. The 60-track set unveils dozens of previously unreleased recordings, alternate versions of classic songs, rarities, historic live performances and deep tracks that spotlight Tom’s remarkable depth and evolution as a revered and tremendously influential songwriter, recording artist and performer. An American Treasure marks the first release of Tom Petty music since the artist’s tragic passing in October 2017.

The first single from An American Treasure is “Keep A Little Soul”—a previously unreleased recording from 1982 sessions that resulted in Tom Petty & The Heartbreakers’ classic album, Long After Dark.

Tom’s daughter, Adria Petty, and his wife, Dana Petty, were the primary catalysts for the commission, creation and release of An American Treasure¬—a tribute and love letter pointing to the music in between the hits, and a strong musical portrait of the person they know in their hearts. Adria and Dana both serve as the project’s Executive Producers, and, together with Tom’s bandmates of 45 years, Heartbreakers Mike Campbell and Benmont Tench, and his studio collaborator, Ryan Ulyate, curated the box set’s track list from Petty’s rich song catalog. Campbell, Tench and Ulyate also produced An American Treasure.

An American Treasure: Deluxe Edition 4 album-set that features all 60 tracks, plus a 52-page booklet with rare and previously unseen photographs of Tom, his bandmates, family and friends. The booklet also features detailed track-by-track liner notes by noted journalist and Tom Petty aficionado Bud Scoppa, who drew upon his previous interviews with Tom and new conversations with Mike Campbell, Benmont Tench and Ryan Ulyate, as well as Adria and Dana Petty.

All newly released recordings on An American Treasure have been mixed by Ryan Ulyate from pristine transfers of the original studio multitrack masters. All 60 recordings have been re-mastered for this collection by Chris Bellman at Bernie Grundman Mastering.

Tracklist:

Disc 1
1 Surrender (Prev. Unreleased, 1976)
2 Listen To Her Heart (Live, 1977)
3 Anything That's Rock 'N' Roll (Live, 1977)
4 When The Time Comes (Alt. Version, 1978)
5 You're Gonna Get It (Alt. Version, 1978)
6 Radio Promotion Spot (1977)
7 Rockin' Around (With You) (Album Track, 1976)
8 Fooled Again (I Don't Like It) (Alt. Version, 1976)
9 Breakdown (Live, 1977)
10 The Wild One, Forever (Album Track, 1976)
11 No Second Thoughts (Album Track, 1978)
12 Here Comes My Girl (Alt. Version, 1979)
13 What Are You Doing In My Life (Alt. Version, 1979)
14 Louisiana Rain (Alt. Version, 1979)
15 Lost In Your Eyes (Prev. Unreleased, 1975)

Disc 2
1 Keep A Little Soul (Prev. Unreleased, 1982)
2 Even The Losers (Live, 1988)
3 Keeping Me Alive (Prev. Unreleased, 1982)
4 Don't Treat Me Like A Stranger (B-Side, 1989)
5 The Apartment Song (Demo, 1984) (with Stevie Nicks)
6 Concert Intro (Live, 1981)
7 Kings Road (Live, 1981)
8 Clear The Aisles (Live, 1981)
9 A Woman In Love (It's Not Me) (Live, 1981)
10 Straight Into Darkness (Alt. Version, 1982)
11 You Can Still Change Your Mind (Album Track, 1981)
12 Rebels (Alt. Version, 1985)
13 Deliver Me (Alt. Version, 1982)
14 Alright For Now (Album Track, 1989)
15 The Damage You've Done (Alt. Version, 1987)
16 The Best Of Everything (Alt. Version, 1985)
17 Walkin' From The Fire (Prev. Unreleased, 1984)
18 King Of The Hill (Early Take, 1987) (Roger McGuinn)

Disc 3
1 I Won't Back Down (Live, 1997)
2 Gainesville (Prev. Unreleased 1994)
3 You And I Will Meet Again (Album Track, 1991)
4 Into The Great Wide Open (Live, 1991)
5 Two Gunslingers (Live, 2013)
6 Lonesome Dave (Prev. Unreleased, 1993)
7 To Find A Friend (Album Track, 1994)
8 Crawling Back To You (Album Track, 1994)
9 Wake Up Time (Alt. Take, 1992)
10 Grew Up Fast (Album Track, 1996)
11 I Don't Belong (Prev. Unreleased, 1998)
12 Accused Of Love (Album Track, 1999)
13 Lonesome Sundown (Album Track, 1999)
14 Don't Fade On Me (Alt. Take, 1994)

Disc 4
1 You And Me (Clubhouse Version, 2007)
2 Have Love Will Travel (Album Track, 2002)
3 Money Becomes King (Album Track, 2002)
4 Bus To Tampa Bay (Prev. Unreleased, 2011)
5 Saving Grace (Live, 2008)
6 Down South (Album Track, 2006)
7 Southern Accents (Live, 2006)
8 Insider (Live, 2006)
9 Two Men Talking (Prev. Unreleased, 2012)
10 Fault Lines (Album Track, 2014)
11 Sins Of My Youth (Early Take, 2012)
12 Good Enough (Alt. Version 2012)
13 Something Good Coming (Album Track, 2016)
14 Save Your Water (Album Track, 2016)
15 Like A Diamond (Alt. Version, 2002)
16 Hungry No More (Live, 2016)

Exact Audio Copy V1.3 from 2. September 2016

EAC extraction logfile from 28. September 2018, 17:46

Tom Petty / An American Treasure (CD1)

Used drive : SONY DVD RW AD-7280S Adapter: 1 ID: 1

Read mode : Secure
Utilize accurate stream : Yes
Defeat audio cache : Yes
Make use of C2 pointers : No

Read offset correction : 48
Overread into Lead-In and Lead-Out : No
Fill up missing offset samples with silence : Yes
Delete leading and trailing silent blocks : No
Null samples used in CRC calculations : Yes
Used interface : Native Win32 interface for Win NT & 2000
Gap handling : Appended to previous track

Used output format : User Defined Encoder
Selected bitrate : 1024 kBit/s
Quality : High
Add ID3 tag : No
Command line compressor : C:\Program Files (x86)\Exact Audio Copy\FLAC\FLAC.EXE
Additional command line options : -8 -e -p -V -T "ARTIST=%artist%" -T "TITLE=%title%" -T "ALBUM=%albumtitle%" -T "DATE=%year%" -T "TRACKNUMBER=%tracknr%" -T "GENRE=%genre%" -T "PERFORMER=%albuminterpret%" -T "COMPOSER=%composer%" %haslyrics%–tag-from-file=LYRICS="%lyricsfile%"%haslyrics% -T "ALBUMARTIST=%albumartist%" -T "DISCNUMBER=%cdnumber%" -T "TOTALDISCS=%totalcds%" -T "TOTALTRACKS=%numtracks%" -T "COMMENT=%comment%" %source% -o %dest%


TOC of the extracted CD

Track | Start | Length | Start sector | End sector
––––––––––––––––––––––––––––-
1 | 0:00.00 | 3:18.72 | 0 | 14921
2 | 3:18.72 | 3:19.64 | 14922 | 29910
3 | 6:38.61 | 3:37.41 | 29911 | 46226
4 | 10:16.27 | 3:04.49 | 46227 | 60075
5 | 13:21.01 | 3:14.06 | 60076 | 74631
6 | 16:35.07 | 0:27.57 | 74632 | 76713
7 | 17:02.64 | 2:19.43 | 76714 | 87181
8 | 19:22.32 | 4:10.25 | 87182 | 105956
9 | 23:32.57 | 5:21.33 | 105957 | 130064
10 | 28:54.15 | 3:00.18 | 130065 | 143582
11 | 31:54.33 | 2:39.03 | 143583 | 155510
12 | 34:33.36 | 4:57.05 | 155511 | 177790
13 | 39:30.41 | 3:30.02 | 177791 | 193542
14 | 43:00.43 | 5:04.53 | 193543 | 216395
15 | 48:05.21 | 4:47.63 | 216396 | 237983


Track 1

Filename G:\__New\_EAC rips\Tom Petty ‎– An American Treasure (2018) 4cd flac\CD1\01 - Surrender (Outtake, 1976).wav

Pre-gap length 0:00:02.00

Peak level 99.7 %
Extraction speed 2.2 X
Track quality 100.0 %
Test CRC AF8D1309
Copy CRC AF8D1309
Track not present in AccurateRip database
Copy OK

Track 2

Filename G:\__New\_EAC rips\Tom Petty ‎– An American Treasure (2018) 4cd flac\CD1\02 - Listen to Her Heart (Live at The Record Plant, Sausalito, CA, 4,23,77).wav

Peak level 100.0 %
Extraction speed 2.2 X
Track quality 99.9 %
Test CRC 1472292D
Copy CRC 1472292D
Track not present in AccurateRip database
Copy OK

Track 3

Filename G:\__New\_EAC rips\Tom Petty ‎– An American Treasure (2018) 4cd flac\CD1\03 - Anything That's Rock 'N' Roll (Live at Capitol Studios, Hollywood, CA, 11,11,77).wav

Peak level 100.0 %
Extraction speed 2.8 X
Track quality 100.0 %
Test CRC 44F0C1F8
Copy CRC 44F0C1F8
Track not present in AccurateRip database
Copy OK

Track 4

Filename G:\__New\_EAC rips\Tom Petty ‎– An American Treasure (2018) 4cd flac\CD1\04 - When the Time Comes.wav

Peak level 100.0 %
Extraction speed 2.9 X
Track quality 100.0 %
Test CRC 4BFA539C
Copy CRC 4BFA539C
Track not present in AccurateRip database
Copy OK

Track 5

Filename G:\__New\_EAC rips\Tom Petty ‎– An American Treasure (2018) 4cd flac\CD1\05 - You're Gonna Get It (Alternate Version, 1978).wav

Peak level 100.0 %
Extraction speed 3.0 X
Track quality 100.0 %
Test CRC C68E8AFC
Copy CRC C68E8AFC
Track not present in AccurateRip database
Copy OK

Track 6

Filename G:\__New\_EAC rips\Tom Petty ‎– An American Treasure (2018) 4cd flac\CD1\06 - Radio Promotion Spot.wav

Peak level 93.3 %
Extraction speed 1.6 X
Track quality 100.0 %
Test CRC 0EA675C2
Copy CRC 0EA675C2
Track not present in AccurateRip database
Copy OK

Track 7

Filename G:\__New\_EAC rips\Tom Petty ‎– An American Treasure (2018) 4cd flac\CD1\07 - Rockin' Around (With You).wav

Peak level 100.0 %
Extraction speed 3.0 X
Track quality 100.0 %
Test CRC 86FB86BF
Copy CRC 86FB86BF
Track not present in AccurateRip database
Copy OK

Track 8

Filename G:\__New\_EAC rips\Tom Petty ‎– An American Treasure (2018) 4cd flac\CD1\08 - Fooled Again (I Don't Like It) (Alternate Version, 1978).wav

Peak level 100.0 %
Extraction speed 3.1 X
Track quality 99.9 %
Test CRC 7C36AE32
Copy CRC 7C36AE32
Track not present in AccurateRip database
Copy OK

Track 9

Filename G:\__New\_EAC rips\Tom Petty ‎– An American Treasure (2018) 4cd flac\CD1\09 - Breakdown (Live at Capitol Studios, Hollywood, CA, 11,11,77).wav

Peak level 99.7 %
Extraction speed 3.8 X
Track quality 100.0 %
Test CRC 4224096F
Copy CRC 4224096F
Track not present in AccurateRip database
Copy OK

Track 10

Filename G:\__New\_EAC rips\Tom Petty ‎– An American Treasure (2018) 4cd flac\CD1\10 - The Wild One, Forever.wav

Peak level 99.0 %
Extraction speed 3.2 X
Track quality 99.9 %
Test CRC 246E8DF8
Copy CRC 246E8DF8
Track not present in AccurateRip database
Copy OK

Track 11

Filename G:\__New\_EAC rips\Tom Petty ‎– An American Treasure (2018) 4cd flac\CD1\11 - No Second Thoughts.wav

Peak level 85.4 %
Extraction speed 3.2 X
Track quality 99.9 %
Test CRC 6C42F7A6
Copy CRC 6C42F7A6
Track not present in AccurateRip database
Copy OK

Track 12

Filename G:\__New\_EAC rips\Tom Petty ‎– An American Treasure (2018) 4cd flac\CD1\12 - Here Comes My Girl (Alternate Version, 1979).wav

Peak level 100.0 %
Extraction speed 4.3 X
Track quality 100.0 %
Test CRC 4E22F47A
Copy CRC 4E22F47A
Track not present in AccurateRip database
Copy OK

Track 13

Filename G:\__New\_EAC rips\Tom Petty ‎– An American Treasure (2018) 4cd flac\CD1\13 - What Are You Doing in My Life (Alternate Version, 1979).wav

Peak level 100.0 %
Extraction speed 4.2 X
Track quality 100.0 %
Test CRC 47533480
Copy CRC 47533480
Track not present in AccurateRip database
Copy OK

Track 14

Filename G:\__New\_EAC rips\Tom Petty ‎– An American Treasure (2018) 4cd flac\CD1\14 - Louisiana Rain (Alternate Version, 1979).wav

Peak level 100.0 %
Extraction speed 4.6 X
Track quality 100.0 %
Test CRC B0427C12
Copy CRC B0427C12
Track not present in AccurateRip database
Copy OK

Track 15

Filename G:\__New\_EAC rips\Tom Petty ‎– An American Treasure (2018) 4cd flac\CD1\15 - Lost in Your Eyes (Outtake, 1974).wav

Peak level 100.0 %
Extraction speed 4.3 X
Track quality 99.9 %
Test CRC 92060F3D
Copy CRC 92060F3D
Track not present in AccurateRip database
Copy OK


None of the tracks are present in the AccurateRip database

No errors occurred

End of status report

–– CUETools DB Plugin V2.1.6

[CTDB TOCID: W.4nvRwrR7XLXcpKZ3FrDsyi6v8-] found
Submit result: W.4nvRwrR7XLXcpKZ3FrDsyi6v8- has been confirmed
Track | CTDB Status
1 | (16/16) Accurately ripped
2 | (16/16) Accurately ripped
3 | (16/16) Accurately ripped
4 | (16/16) Accurately ripped
5 | (15/16) Accurately ripped
6 | (16/16) Accurately ripped
7 | (16/16) Accurately ripped
8 | (16/16) Accurately ripped
9 | (16/16) Accurately ripped
10 | (16/16) Accurately ripped
11 | (16/16) Accurately ripped
12 | (16/16) Accurately ripped
13 | (15/16) Accurately ripped
14 | (16/16) Accurately ripped
15 | (16/16) Accurately ripped


==== Log checksum 66E545EDFE841FE6A40D500AFA5508EBB0AFA63A8DE94A2191222974E76DD7F4 ====

Exact Audio Copy V1.3 from 2. September 2016

EAC extraction logfile from 28. September 2018, 18:24

Tom Petty / An American Treasure (CD2)

Used drive : SONY DVD RW AD-7280S Adapter: 1 ID: 1

Read mode : Secure
Utilize accurate stream : Yes
Defeat audio cache : Yes
Make use of C2 pointers : No

Read offset correction : 48
Overread into Lead-In and Lead-Out : No
Fill up missing offset samples with silence : Yes
Delete leading and trailing silent blocks : No
Null samples used in CRC calculations : Yes
Used interface : Native Win32 interface for Win NT & 2000
Gap handling : Appended to previous track

Used output format : User Defined Encoder
Selected bitrate : 1024 kBit/s
Quality : High
Add ID3 tag : No
Command line compressor : C:\Program Files (x86)\Exact Audio Copy\FLAC\FLAC.EXE
Additional command line options : -8 -e -p -V -T "ARTIST=%artist%" -T "TITLE=%title%" -T "ALBUM=%albumtitle%" -T "DATE=%year%" -T "TRACKNUMBER=%tracknr%" -T "GENRE=%genre%" -T "PERFORMER=%albuminterpret%" -T "COMPOSER=%composer%" %haslyrics%–tag-from-file=LYRICS="%lyricsfile%"%haslyrics% -T "ALBUMARTIST=%albumartist%" -T "DISCNUMBER=%cdnumber%" -T "TOTALDISCS=%totalcds%" -T "TOTALTRACKS=%numtracks%" -T "COMMENT=%comment%" %source% -o %dest%


TOC of the extracted CD

Track | Start | Length | Start sector | End sector
––––––––––––––––––––––––––––-
1 | 0:00.00 | 3:08.03 | 0 | 14102
2 | 3:08.03 | 3:31.57 | 14103 | 29984
3 | 6:39.60 | 3:17.34 | 29985 | 44793
4 | 9:57.19 | 3:05.55 | 44794 | 58723
5 | 13:02.74 | 2:34.64 | 58724 | 70337
6 | 15:37.63 | 0:10.53 | 70338 | 71140
7 | 15:48.41 | 5:13.67 | 71141 | 94682
8 | 21:02.33 | 0:16.31 | 94683 | 95913
9 | 21:18.64 | 5:51.33 | 95914 | 122271
10 | 27:10.22 | 4:29.41 | 122272 | 142487
11 | 31:39.63 | 4:01.19 | 142488 | 160581
12 | 35:41.07 | 5:18.27 | 160582 | 184458
13 | 40:59.34 | 3:55.06 | 184459 | 202089
14 | 44:54.40 | 2:00.37 | 202090 | 211126
15 | 46:55.02 | 3:59.74 | 211127 | 229125
16 | 50:55.01 | 4:02.22 | 229126 | 247297
17 | 54:57.23 | 4:44.23 | 247298 | 268620
18 | 59:41.46 | 4:00.46 | 268621 | 286666


Track 1

Filename G:\__New\_EAC rips\Tom Petty ‎– An American Treasure (2018) 4cd flac\CD2\01 - Keep a Little Soul (Outtake, 1982).wav

Pre-gap length 0:00:02.00

Peak level 100.0 %
Extraction speed 4.7 X
Track quality 100.0 %
Test CRC 64A068FD
Copy CRC 64A068FD
Track not present in AccurateRip database
Copy OK

Track 2

Filename G:\__New\_EAC rips\Tom Petty ‎– An American Treasure (2018) 4cd flac\CD2\02 - Even the Losers (Live at Rochester Community War Memorial, Rochester, NY, 9,9,89).wav

Peak level 100.0 %
Extraction speed 5.1 X
Track quality 100.0 %
Test CRC CD99D53A
Copy CRC CD99D53A
Track not present in AccurateRip database
Copy OK

Track 3

Filename G:\__New\_EAC rips\Tom Petty ‎– An American Treasure (2018) 4cd flac\CD2\03 - Keeping Me Alive (Outtake, 1982).wav

Peak level 100.0 %
Extraction speed 5.4 X
Track quality 100.0 %
Test CRC D2C66891
Copy CRC D2C66891
Track not present in AccurateRip database
Copy OK

Track 4

Filename G:\__New\_EAC rips\Tom Petty ‎– An American Treasure (2018) 4cd flac\CD2\04 - Don't Treat Me Like a Stranger.wav

Peak level 100.0 %
Extraction speed 5.7 X
Track quality 100.0 %
Test CRC 1531CEEE
Copy CRC 1531CEEE
Track not present in AccurateRip database
Copy OK

Track 5

Filename G:\__New\_EAC rips\Tom Petty ‎– An American Treasure (2018) 4cd flac\CD2\05 - The Apartment Song (Demo, 1984) (with Stevie Nicks).wav

Peak level 100.0 %
Extraction speed 5.7 X
Track quality 100.0 %
Test CRC B6601B70
Copy CRC B6601B70
Track not present in AccurateRip database
Copy OK

Track 6

Filename G:\__New\_EAC rips\Tom Petty ‎– An American Treasure (2018) 4cd flac\CD2\06 - Concert Intro (Live at The Forum, Inglewood, CA, 6,28,81).wav

Peak level 79.2 %
Extraction speed 1.6 X
Track quality 100.0 %
Test CRC 95C7B140
Copy CRC 95C7B140
Track not present in AccurateRip database
Copy OK

Track 7

Filename G:\__New\_EAC rips\Tom Petty ‎– An American Treasure (2018) 4cd flac\CD2\07 - Kings Road (Live at The Forum, Inglewood, CA, 6,28,81).wav

Peak level 100.0 %
Extraction speed 6.6 X
Track quality 100.0 %
Test CRC 0F5B93CD
Copy CRC 0F5B93CD
Track not present in AccurateRip database
Copy OK

Track 8

Filename G:\__New\_EAC rips\Tom Petty ‎– An American Treasure (2018) 4cd flac\CD2\08 - Clear the Aisles (Live at The Forum, Inglewood, CA, 6,28,81).wav

Peak level 86.1 %
Extraction speed 2.3 X
Track quality 100.0 %
Test CRC E0F840EA
Copy CRC E0F840EA
Track not present in AccurateRip database
Copy OK

Track 9

Filename G:\__New\_EAC rips\Tom Petty ‎– An American Treasure (2018) 4cd flac\CD2\09 - A Woman in Love (It's Not Me) (Live at The Forum, Inglewood, CA, 6,28,81).wav

Peak level 100.0 %
Extraction speed 7.1 X
Track quality 100.0 %
Test CRC 904D4F88
Copy CRC 904D4F88
Track not present in AccurateRip database
Copy OK

Track 10

Filename G:\__New\_EAC rips\Tom Petty ‎– An American Treasure (2018) 4cd flac\CD2\10 - Straight Into Darkness (Alternate Version, 1982).wav

Peak level 100.0 %
Extraction speed 5.4 X
Track quality 99.9 %
Test CRC 2FDB3308
Copy CRC 2FDB3308
Track not present in AccurateRip database
Copy OK

Track 11

Filename G:\__New\_EAC rips\Tom Petty ‎– An American Treasure (2018) 4cd flac\CD2\11 - You Can Still Change Your Mind.wav

Peak level 94.0 %
Extraction speed 7.7 X
Track quality 100.0 %
Test CRC B68134CC
Copy CRC B68134CC
Track not present in AccurateRip database
Copy OK

Track 12

Filename G:\__New\_EAC rips\Tom Petty ‎– An American Treasure (2018) 4cd flac\CD2\12 - Rebels (Alternate Version, 1985).wav

Peak level 100.0 %
Extraction speed 6.1 X
Track quality 99.9 %
Test CRC DE8DF5D1
Copy CRC DE8DF5D1
Track not present in AccurateRip database
Copy OK

Track 13

Filename G:\__New\_EAC rips\Tom Petty ‎– An American Treasure (2018) 4cd flac\CD2\13 - Deliver Me (Alternate Version, 1982).wav

Peak level 100.0 %
Extraction speed 8.2 X
Track quality 100.0 %
Test CRC 671F43ED
Copy CRC 671F43ED
Track not present in AccurateRip database
Copy OK

Track 14

Filename G:\__New\_EAC rips\Tom Petty ‎– An American Treasure (2018) 4cd flac\CD2\14 - Alright for Now.wav

Peak level 95.2 %
Extraction speed 4.2 X
Track quality 99.9 %
Test CRC 12DCB88C
Copy CRC 12DCB88C
Track not present in AccurateRip database
Copy OK

Track 15

Filename G:\__New\_EAC rips\Tom Petty ‎– An American Treasure (2018) 4cd flac\CD2\15 - The Damage You've Done (Alternate Version, 1987).wav

Peak level 100.0 %
Extraction speed 6.0 X
Track quality 99.9 %
Test CRC AD4BFDE2
Copy CRC AD4BFDE2
Track not present in AccurateRip database
Copy OK

Track 16

Filename G:\__New\_EAC rips\Tom Petty ‎– An American Treasure (2018) 4cd flac\CD2\16 - The Best of Everything (Alternate Version, 1985).wav

Peak level 98.8 %
Extraction speed 8.9 X
Track quality 100.0 %
Test CRC 825CD002
Copy CRC 825CD002
Track not present in AccurateRip database
Copy OK

Track 17

Filename G:\__New\_EAC rips\Tom Petty ‎– An American Treasure (2018) 4cd flac\CD2\17 - Walkin' from the Fire (Outtake, 1984).wav

Peak level 100.0 %
Extraction speed 9.4 X
Track quality 100.0 %
Test CRC 4DDDB3DD
Copy CRC 4DDDB3DD
Track not present in AccurateRip database
Copy OK

Track 18

Filename G:\__New\_EAC rips\Tom Petty ‎– An American Treasure (2018) 4cd flac\CD2\18 - King of the Hill (Early Take, 1987) (Roger McGuinn).wav

Peak level 100.0 %
Extraction speed 9.3 X
Track quality 100.0 %
Test CRC 4ADDD274
Copy CRC 4ADDD274
Track not present in AccurateRip database
Copy OK


None of the tracks are present in the AccurateRip database

No errors occurred

End of status report

–– CUETools DB Plugin V2.1.6

[CTDB TOCID: ysO7dsZdbB676drJg89O7BFimVY-] found
Submit result: ysO7dsZdbB676drJg89O7BFimVY- has been confirmed
Track | CTDB Status
1 | (12/12) Accurately ripped
2 | (12/12) Accurately ripped
3 | (12/12) Accurately ripped
4 | (12/12) Accurately ripped
5 | (12/12) Accurately ripped
6 | (12/12) Accurately ripped
7 | (12/12) Accurately ripped
8 | (12/12) Accurately ripped
9 | (12/12) Accurately ripped
10 | (12/12) Accurately ripped
11 | (12/12) Accurately ripped
12 | (12/12) Accurately ripped
13 | (12/12) Accurately ripped
14 | (12/12) Accurately ripped
15 | (12/12) Accurately ripped
16 | (12/12) Accurately ripped
17 | (12/12) Accurately ripped
18 | (12/12) Accurately ripped


==== Log checksum 41A8BD8BD0CA10D177D1A0481FEDB6827196C6F718B3D9BB426B9D5047CE6484 ====

Exact Audio Copy V1.3 from 2. September 2016

EAC extraction logfile from 28. September 2018, 19:21

Tom Petty / An American Treasure (CD3)

Used drive : SONY DVD RW AD-7280S Adapter: 1 ID: 1

Read mode : Secure
Utilize accurate stream : Yes
Defeat audio cache : Yes
Make use of C2 pointers : No

Read offset correction : 48
Overread into Lead-In and Lead-Out : No
Fill up missing offset samples with silence : Yes
Delete leading and trailing silent blocks : No
Null samples used in CRC calculations : Yes
Used interface : Native Win32 interface for Win NT & 2000
Gap handling : Appended to previous track

Used output format : User Defined Encoder
Selected bitrate : 1024 kBit/s
Quality : High
Add ID3 tag : No
Command line compressor : C:\Program Files (x86)\Exact Audio Copy\FLAC\FLAC.EXE
Additional command line options : -8 -e -p -V -T "ARTIST=%artist%" -T "TITLE=%title%" -T "ALBUM=%albumtitle%" -T "DATE=%year%" -T "TRACKNUMBER=%tracknr%" -T "GENRE=%genre%" -T "PERFORMER=%albuminterpret%" -T "COMPOSER=%composer%" %haslyrics%–tag-from-file=LYRICS="%lyricsfile%"%haslyrics% -T "ALBUMARTIST=%albumartist%" -T "DISCNUMBER=%cdnumber%" -T "TOTALDISCS=%totalcds%" -T "TOTALTRACKS=%numtracks%" -T "COMMENT=%comment%" %source% -o %dest%


TOC of the extracted CD

Track | Start | Length | Start sector | End sector
––––––––––––––––––––––––––––-
1 | 0:00.00 | 3:39.10 | 0 | 16434
2 | 3:39.10 | 4:05.19 | 16435 | 34828
3 | 7:44.29 | 3:38.59 | 34829 | 51237
4 | 11:23.13 | 4:15.19 | 51238 | 70381
5 | 15:38.32 | 3:50.27 | 70382 | 87658
6 | 19:28.59 | 3:40.66 | 87659 | 104224
7 | 23:09.50 | 3:19.45 | 104225 | 119194
8 | 26:29.20 | 5:02.03 | 119195 | 141847
9 | 31:31.23 | 5:30.63 | 141848 | 166660
10 | 37:02.11 | 5:05.05 | 166661 | 189540
11 | 42:07.16 | 2:54.20 | 189541 | 202610
12 | 45:01.36 | 2:44.22 | 202611 | 214932
13 | 47:45.58 | 4:31.72 | 214933 | 235329
14 | 52:17.55 | 4:28.01 | 235330 | 255430


Track 1

Filename G:\__New\_EAC rips\Tom Petty ‎– An American Treasure (2018) 4cd flac\CD3\01 - I Won't Back Down (Live at The Fillmore, San Francisco, CA, 2,4,87).wav

Pre-gap length 0:00:02.00

Peak level 99.2 %
Extraction speed 2.1 X
Track quality 99.9 %
Test CRC 808C0A4D
Copy CRC 808C0A4D
Track not present in AccurateRip database
Copy OK

Track 2

Filename G:\__New\_EAC rips\Tom Petty ‎– An American Treasure (2018) 4cd flac\CD3\02 - Gainesville (Outtake, 1998).wav

Peak level 92.5 %
Extraction speed 2.6 X
Track quality 100.0 %
Test CRC A8771D56
Copy CRC A8771D56
Track not present in AccurateRip database
Copy OK

Track 3

Filename G:\__New\_EAC rips\Tom Petty ‎– An American Treasure (2018) 4cd flac\CD3\03 - You and I Will Meet Again.wav

Peak level 96.9 %
Extraction speed 2.5 X
Track quality 99.9 %
Test CRC 87839E11
Copy CRC 87839E11
Track not present in AccurateRip database
Copy OK

Track 4

Filename G:\__New\_EAC rips\Tom Petty ‎– An American Treasure (2018) 4cd flac\CD3\04 - Into the Great Wide Open (Live at Oakland-Alameda County Coliseum, Oakland, CA, 11,24,91).wav

Peak level 100.0 %
Extraction speed 3.1 X
Track quality 100.0 %
Test CRC 089EE7CE
Copy CRC 089EE7CE
Track not present in AccurateRip database
Copy OK

Track 5

Filename G:\__New\_EAC rips\Tom Petty ‎– An American Treasure (2018) 4cd flac\CD3\05 - Two Gunslingers (Live at The Beacon Theatre, New York, NY, 5,25,13).wav

Peak level 97.4 %
Extraction speed 3.3 X
Track quality 100.0 %
Test CRC C0CF709E
Copy CRC C0CF709E
Track not present in AccurateRip database
Copy OK

Track 6

Filename G:\__New\_EAC rips\Tom Petty ‎– An American Treasure (2018) 4cd flac\CD3\06 - Lonesome Dave (Outtake, 1993).wav

Peak level 100.0 %
Extraction speed 3.4 X
Track quality 100.0 %
Test CRC 156BAC5B
Copy CRC 156BAC5B
Track not present in AccurateRip database
Copy OK

Track 7

Filename G:\__New\_EAC rips\Tom Petty ‎– An American Treasure (2018) 4cd flac\CD3\07 - To Find a Friend.wav

Peak level 100.0 %
Extraction speed 3.5 X
Track quality 100.0 %
Test CRC CAEE616B
Copy CRC CAEE616B
Track not present in AccurateRip database
Copy OK

Track 8

Filename G:\__New\_EAC rips\Tom Petty ‎– An American Treasure (2018) 4cd flac\CD3\08 - Crawling Back to You.wav

Peak level 100.0 %
Extraction speed 3.9 X
Track quality 100.0 %
Test CRC 733674B3
Copy CRC 733674B3
Track not present in AccurateRip database
Copy OK

Track 9

Filename G:\__New\_EAC rips\Tom Petty ‎– An American Treasure (2018) 4cd flac\CD3\09 - Wake Up Time (Alternate Take, 1992).wav

Peak level 99.3 %
Extraction speed 4.2 X
Track quality 100.0 %
Test CRC 9D4E9C2C
Copy CRC 9D4E9C2C
Track not present in AccurateRip database
Copy OK

Track 10

Filename G:\__New\_EAC rips\Tom Petty ‎– An American Treasure (2018) 4cd flac\CD3\10 - Grew Up Fast.wav

Peak level 100.0 %
Extraction speed 4.4 X
Track quality 100.0 %
Test CRC 50A027BD
Copy CRC 50A027BD
Track not present in AccurateRip database
Copy OK

Track 11

Filename G:\__New\_EAC rips\Tom Petty ‎– An American Treasure (2018) 4cd flac\CD3\11 - I Don't Belong (Outtake, 1998).wav

Peak level 100.0 %
Extraction speed 3.5 X
Track quality 99.9 %
Test CRC 727D8152
Copy CRC 727D8152
Track not present in AccurateRip database
Copy OK

Track 12

Filename G:\__New\_EAC rips\Tom Petty ‎– An American Treasure (2018) 4cd flac\CD3\12 - Accused of Love.wav

Peak level 99.5 %
Extraction speed 4.2 X
Track quality 100.0 %
Test CRC A5844A61
Copy CRC A5844A61
Track not present in AccurateRip database
Copy OK

Track 13

Filename G:\__New\_EAC rips\Tom Petty ‎– An American Treasure (2018) 4cd flac\CD3\13 - Lonesome Sundown.wav

Peak level 100.0 %
Extraction speed 4.7 X
Track quality 100.0 %
Test CRC 302BA5C0
Copy CRC 302BA5C0
Track not present in AccurateRip database
Copy OK

Track 14

Filename G:\__New\_EAC rips\Tom Petty ‎– An American Treasure (2018) 4cd flac\CD3\14 - Don't Fade on Me (Alternate Take, 1994).wav

Peak level 100.0 %
Extraction speed 4.9 X
Track quality 100.0 %
Test CRC AD7FFBAA
Copy CRC AD7FFBAA
Track not present in AccurateRip database
Copy OK


None of the tracks are present in the AccurateRip database

No errors occurred

End of status report

–– CUETools DB Plugin V2.1.6

[CTDB TOCID: Lw8_ogZC.RETRUb2ZdqzXUhxrSs-] found
Submit result: Lw8_ogZC.RETRUb2ZdqzXUhxrSs- has been confirmed
Track | CTDB Status
1 | (9/9) Accurately ripped
2 | (9/9) Accurately ripped
3 | (9/9) Accurately ripped
4 | (9/9) Accurately ripped
5 | (9/9) Accurately ripped
6 | (9/9) Accurately ripped
7 | (9/9) Accurately ripped
8 | (9/9) Accurately ripped
9 | (9/9) Accurately ripped
10 | (9/9) Accurately ripped
11 | (9/9) Accurately ripped
12 | (9/9) Accurately ripped
13 | (9/9) Accurately ripped
14 | (9/9) Accurately ripped


==== Log checksum FCA43098BF0171ADFAD3CAB64A4E2EF99644208C1D9A51E882FFDEBA4E05842E ====

Exact Audio Copy V1.3 from 2. September 2016

EAC extraction logfile from 28. September 2018, 20:17

Tom Petty / An American Treasure (CD4)

Used drive : SONY DVD RW AD-7280S Adapter: 1 ID: 1

Read mode : Secure
Utilize accurate stream : Yes
Defeat audio cache : Yes
Make use of C2 pointers : No

Read offset correction : 48
Overread into Lead-In and Lead-Out : No
Fill up missing offset samples with silence : Yes
Delete leading and trailing silent blocks : No
Null samples used in CRC calculations : Yes
Used interface : Native Win32 interface for Win NT & 2000
Gap handling : Appended to previous track

Used output format : User Defined Encoder
Selected bitrate : 1024 kBit/s
Quality : High
Add ID3 tag : No
Command line compressor : C:\Program Files (x86)\Exact Audio Copy\FLAC\FLAC.EXE
Additional command line options : -8 -e -p -V -T "ARTIST=%artist%" -T "TITLE=%title%" -T "ALBUM=%albumtitle%" -T "DATE=%year%" -T "TRACKNUMBER=%tracknr%" -T "GENRE=%genre%" -T "PERFORMER=%albuminterpret%" -T "COMPOSER=%composer%" %haslyrics%–tag-from-file=LYRICS="%lyricsfile%"%haslyrics% -T "ALBUMARTIST=%albumartist%" -T "DISCNUMBER=%cdnumber%" -T "TOTALDISCS=%totalcds%" -T "TOTALTRACKS=%numtracks%" -T "COMMENT=%comment%" %source% -o %dest%


TOC of the extracted CD

Track | Start | Length | Start sector | End sector
––––––––––––––––––––––––––––-
1 | 0:00.00 | 3:13.02 | 0 | 14476
2 | 3:13.02 | 4:05.35 | 14477 | 32886
3 | 7:18.37 | 5:11.06 | 32887 | 56217
4 | 12:29.43 | 2:55.59 | 56218 | 69401
5 | 15:25.27 | 3:30.39 | 69402 | 85190
6 | 18:55.66 | 3:25.16 | 85191 | 100581
7 | 22:21.07 | 5:02.06 | 100582 | 123237
8 | 27:23.13 | 4:56.44 | 123238 | 145481
9 | 32:19.57 | 6:53.41 | 145482 | 176497
10 | 39:13.23 | 4:28.40 | 176498 | 196637
11 | 43:41.63 | 3:39.56 | 196638 | 213118
12 | 47:21.44 | 5:48.57 | 213119 | 239275
13 | 53:10.26 | 4:10.52 | 239276 | 258077
14 | 57:21.03 | 3:17.15 | 258078 | 272867
15 | 60:38.18 | 4:15.48 | 272868 | 292040
16 | 64:53.66 | 7:17.35 | 292041 | 324850


Track 1

Filename G:\__New\_EAC rips\Tom Petty ‎– An American Treasure (2018) 4cd flac\CD4\01 - You and Me (Clubhouse Version, 2007).wav

Pre-gap length 0:00:02.00

Peak level 98.6 %
Extraction speed 2.2 X
Track quality 100.0 %
Test CRC 21B9AC01
Copy CRC 21B9AC01
Track not present in AccurateRip database
Copy OK

Track 2

Filename G:\__New\_EAC rips\Tom Petty ‎– An American Treasure (2018) 4cd flac\CD4\02 - Have Love Will Travel.wav

Peak level 100.0 %
Extraction speed 2.8 X
Track quality 100.0 %
Test CRC FE60F21D
Copy CRC FE60F21D
Track not present in AccurateRip database
Copy OK

Track 3

Filename G:\__New\_EAC rips\Tom Petty ‎– An American Treasure (2018) 4cd flac\CD4\03 - Money Becomes King.wav

Peak level 99.9 %
Extraction speed 2.8 X
Track quality 99.9 %
Test CRC FD0A9EE7
Copy CRC FD0A9EE7
Track not present in AccurateRip database
Copy OK

Track 4

Filename G:\__New\_EAC rips\Tom Petty ‎– An American Treasure (2018) 4cd flac\CD4\04 - Bus to Tampa Bay (Outtake, 2011).wav

Peak level 92.1 %
Extraction speed 3.0 X
Track quality 100.0 %
Test CRC 04ECD00B
Copy CRC 04ECD00B
Track not present in AccurateRip database
Copy OK

Track 5

Filename G:\__New\_EAC rips\Tom Petty ‎– An American Treasure (2018) 4cd flac\CD4\05 - Saving Grace (Live at Malibu Performing Arts Center, Malibu, CA, 7,26,06).wav

Peak level 99.9 %
Extraction speed 3.3 X
Track quality 100.0 %
Test CRC A0BE65CC
Copy CRC A0BE65CC
Track not present in AccurateRip database
Copy OK

Track 6

Filename G:\__New\_EAC rips\Tom Petty ‎– An American Treasure (2018) 4cd flac\CD4\06 - Down South.wav

Peak level 100.0 %
Extraction speed 3.4 X
Track quality 100.0 %
Test CRC 7E77FEA6
Copy CRC 7E77FEA6
Track not present in AccurateRip database
Copy OK

Track 7

Filename G:\__New\_EAC rips\Tom Petty ‎– An American Treasure (2018) 4cd flac\CD4\07 - Southern Accents (Live at Stephen C. O'Connell Center, Gainesville, FL, 9,21,06).wav

Peak level 96.6 %
Extraction speed 3.5 X
Track quality 99.9 %
Test CRC 8D09655B
Copy CRC 8D09655B
Track not present in AccurateRip database
Copy OK

Track 8

Filename G:\__New\_EAC rips\Tom Petty ‎– An American Treasure (2018) 4cd flac\CD4\08 - Insider (Live at Stephen C. O'Connell Center, Gainesville, FL, 9,21,06 (w,Stevie Nicks).wav

Peak level 100.0 %
Extraction speed 4.0 X
Track quality 100.0 %
Test CRC A19C544F
Copy CRC A19C544F
Track not present in AccurateRip database
Copy OK

Track 9

Filename G:\__New\_EAC rips\Tom Petty ‎– An American Treasure (2018) 4cd flac\CD4\09 - Two Men Talking (Outtake, 2012).wav

Peak level 100.0 %
Extraction speed 4.4 X
Track quality 100.0 %
Test CRC 43D166BB
Copy CRC 43D166BB
Track not present in AccurateRip database
Copy OK

Track 10

Filename G:\__New\_EAC rips\Tom Petty ‎– An American Treasure (2018) 4cd flac\CD4\10 - Fault Lines.wav

Peak level 100.0 %
Extraction speed 4.4 X
Track quality 100.0 %
Test CRC 88BDAEFE
Copy CRC 88BDAEFE
Track not present in AccurateRip database
Copy OK

Track 11

Filename G:\__New\_EAC rips\Tom Petty ‎– An American Treasure (2018) 4cd flac\CD4\11 - Sins of My Youth (Early Take, 2012).wav

Peak level 100.0 %
Extraction speed 3.9 X
Track quality 99.9 %
Test CRC 14C898C9
Copy CRC 14C898C9
Track not present in AccurateRip database
Copy OK

Track 12

Filename G:\__New\_EAC rips\Tom Petty ‎– An American Treasure (2018) 4cd flac\CD4\12 - Good Enough (Alternate Version, 2012) (Mudcrutch).wav

Peak level 100.0 %
Extraction speed 4.9 X
Track quality 100.0 %
Test CRC 2089F3B7
Copy CRC 2089F3B7
Track not present in AccurateRip database
Copy OK

Track 13

Filename G:\__New\_EAC rips\Tom Petty ‎– An American Treasure (2018) 4cd flac\CD4\13 - Something Good Coming.wav

Peak level 96.3 %
Extraction speed 4.8 X
Track quality 100.0 %
Test CRC E688DB2F
Copy CRC E688DB2F
Track not present in AccurateRip database
Copy OK

Track 14

Filename G:\__New\_EAC rips\Tom Petty ‎– An American Treasure (2018) 4cd flac\CD4\14 - Save Your Water (Mudcrutch).wav

Peak level 100.0 %
Extraction speed 4.2 X
Track quality 99.9 %
Test CRC A30402FB
Copy CRC A30402FB
Track not present in AccurateRip database
Copy OK

Track 15

Filename G:\__New\_EAC rips\Tom Petty ‎– An American Treasure (2018) 4cd flac\CD4\15 - Like a Diamond (Alternate Version, 2002).wav

Peak level 100.0 %
Extraction speed 4.6 X
Track quality 99.9 %
Test CRC CAE2450F
Copy CRC CAE2450F
Track not present in AccurateRip database
Copy OK

Track 16

Filename G:\__New\_EAC rips\Tom Petty ‎– An American Treasure (2018) 4cd flac\CD4\16 - Hungry No More (Live at House of Blues, Boston, MA, 6,15,16) (Mudcrutch).wav

Peak level 100.0 %
Extraction speed 5.6 X
Track quality 100.0 %
Test CRC 370E1F39
Copy CRC 370E1F39
Track not present in AccurateRip database
Copy OK


None of the tracks are present in the AccurateRip database

No errors occurred

End of status report

–– CUETools DB Plugin V2.1.6

[CTDB TOCID: V56TyykhuqVrELFnSgF5B8Qv1i0-] found
Submit result: V56TyykhuqVrELFnSgF5B8Qv1i0- has been confirmed
Track | CTDB Status
1 | (8/8) Accurately ripped
2 | (8/8) Accurately ripped
3 | (8/8) Accurately ripped
4 | (8/8) Accurately ripped
5 | (8/8) Accurately ripped
6 | (8/8) Accurately ripped
7 | (8/8) Accurately ripped
8 | (8/8) Accurately ripped
9 | (8/8) Accurately ripped
10 | (8/8) Accurately ripped
11 | (8/8) Accurately ripped
12 | (8/8) Accurately ripped
13 | (8/8) Accurately ripped
14 | (8/8) Accurately ripped
15 | (8/8) Accurately ripped
16 | (8/8) Accurately ripped


==== Log checksum 5D9272BF334BB5290A1E3AFFCA2AD10D06F09F90291CAD20E2447C700B6592BD ====


Thanks to the Original customer.