Subcategories

Tom Rush - Tom Rush (1965) [2001, Reissue]

Posted By: jclane
Tom Rush - Tom Rush (1965) [2001, Reissue]

Tom Rush - Tom Rush (1965) [2001, Reissue]
EAC Rip | FLAC Tracks + Cue + Log | 240 MB | Complete Scans | 50 MB
MP3 CBR @320 kbps (LAME 3.99) | Joint Stereo | 103 MB
Collectors' Choice Music | #: CCM-231-2 | Folk-Rock

It's unfortunate that Tom Rush's third album has such a strong reputation among rock listeners – not that it doesn't deserve it, but it sort of distracts them from this album, which was as natural a fit for rock listeners as any folk album of its era. Rush's debut album is filled with a hard, bluesy brand of folk music that's hard on the acoustic guitar strings and not much easier on his voice; he sings stuff like "Long John" and "If Your Man Gets Busted" with a deep, throaty baritone that's only a little less raw than John Hammond's was while doing his work of the same era. Rush had the misfortune to be equated with Bob Dylan, but he had a more easygoing and accessible personality that comes out on numbers here such as Woody Guthrie's "Do-Re-Mi" and Kokomo Arnold's "Milkcow Blues," which are thoroughly enjoyable and quietly (but totally) beguiling. Additionally, he isn't such a purist that he felt above covering a Leiber & Stoller number such as "When She Wants Good Lovin'."

Track Listing

01. Long John - 04:00
02. If Your Man Gets Busted - 03:30
03. Do-Re-Mi - 02:39
04. Milk Cow Blues - 03:12
05. The Cuckoo - 03:23
06. Black Mountain Blues - 02:43
07. Poor Man - 03:29
08. Solid Gone - 03:00
09. When She Wants Good Lovin' - 02:45
10. I'd Like To Know - 02:17
11. Jelly Roll Baker - 03:00
12. Windy Bill - 02:14
13. The Panama Limited - 08:23


Exact Audio Copy V1.0 beta 3 from 29. August 2011

Отчёт EAC об извлечении, выполненном 2. февраля 2013, 21:33

Tom Rush / Tom Rush

Дисковод: ASUS DRW-24B3ST Adapter: 1 ID: 0

Режим чтения : Достоверность
Использование точного потока : Да
Отключение кэша аудио : Да
Использование указателей C2 : Нет

Коррекция смещения при чтении : 6
Способность читать области Lead-in и Lead-out : Нет
Заполнение пропущенных сэмплов тишиной : Да
Удаление блоков с тишиной в начале и конце : Нет
При вычислениях CRC использовались нулевые сэмплы : Да
Интерфейс : Встроенный Win32-интерфейс для Win NT/2000
Обработка зазоров : Добавлено к предыдущему треку

Выходной формат : Пользовательский кодировщик
Выбранный битрейт : 1024 kBit/s
Качество : Высокий
Добавление ID3-тега : Нет
Утилита сжатия : C:\Program Files\Exact Audio Copy\Flac\flac.exe
Дополнительные параметры : -V -8 -T "Genre=%genre%" -T "Artist=%artist%" -T "Title=%title%" -T "Album=%albumtitle%" -T "Date=%year%" -T "Tracknumber=%tracknr%" -T "Comment=%comment%" %source%

TOC извлечённого CD

Трек | Старт | Длительность | Начальный сектор | Конечный сектор
––––––––––––––––––––––––––––––––––-
1 | 0:00.32 | 4:00.63 | 32 | 18094
2 | 4:01.20 | 3:30.57 | 18095 | 33901
3 | 7:32.02 | 2:39.38 | 33902 | 45864
4 | 10:11.40 | 3:15.05 | 45865 | 60494
5 | 13:26.45 | 3:24.52 | 60495 | 75846
6 | 16:51.22 | 2:44.28 | 75847 | 88174
7 | 19:35.50 | 3:30.50 | 88175 | 103974
8 | 23:06.25 | 3:01.70 | 103975 | 117619
9 | 26:08.20 | 2:45.35 | 117620 | 130029
10 | 28:53.55 | 2:17.45 | 130030 | 140349
11 | 31:11.25 | 3:01.55 | 140350 | 153979
12 | 34:13.05 | 2:16.05 | 153980 | 164184
13 | 36:29.10 | 8:23.70 | 164185 | 201979

Трек 1

Имя файла C:\Documents and Settings\Sergei\Мои документы\Моя музыка\EAC\01. Long John.wav

Длина предзазора 0:00:02.32

Пиковый уровень 95.3 %
Скорость извлечения 3.3 X
Качество трека 100.0 %
CRC теста 70E3D8A6
CRC копии 70E3D8A6
Точное извлечение (достоверность 2) [3F8EE311] (AR v1)
Копирование… OK

Трек 2

Имя файла C:\Documents and Settings\Sergei\Мои документы\Моя музыка\EAC\02. If Your Man Gets Busted.wav

Пиковый уровень 90.4 %
Скорость извлечения 3.6 X
Качество трека 100.0 %
CRC теста 733558B4
CRC копии 733558B4
Точное извлечение (достоверность 2) [CF54CAA0] (AR v1)
Копирование… OK

Трек 3

Имя файла C:\Documents and Settings\Sergei\Мои документы\Моя музыка\EAC\03. Do-Re-Mi.wav

Пиковый уровень 88.2 %
Скорость извлечения 3.7 X
Качество трека 100.0 %
CRC теста E7E3ADB5
CRC копии E7E3ADB5
Точное извлечение (достоверность 2) [3AC24134] (AR v1)
Копирование… OK

Трек 4

Имя файла C:\Documents and Settings\Sergei\Мои документы\Моя музыка\EAC\04. Milk Cow Blues.wav

Пиковый уровень 92.1 %
Скорость извлечения 4.0 X
Качество трека 100.0 %
CRC теста C68F721D
CRC копии C68F721D
Точное извлечение (достоверность 2) [D1A316D8] (AR v1)
Копирование… OK

Трек 5

Имя файла C:\Documents and Settings\Sergei\Мои документы\Моя музыка\EAC\05. The Cuckoo.wav

Длина предзазора 0:00:02.25

Пиковый уровень 64.8 %
Скорость извлечения 4.3 X
Качество трека 100.0 %
CRC теста 74E24109
CRC копии 74E24109
Точное извлечение (достоверность 2) [6CBC2E2D] (AR v1)
Копирование… OK

Трек 6

Имя файла C:\Documents and Settings\Sergei\Мои документы\Моя музыка\EAC\06. Black Mountain Blues.wav

Длина предзазора 0:00:01.12

Пиковый уровень 90.6 %
Скорость извлечения 4.3 X
Качество трека 100.0 %
CRC теста D63C1807
CRC копии D63C1807
Точное извлечение (достоверность 2) [03A0B3E5] (AR v1)
Копирование… OK

Трек 7

Имя файла C:\Documents and Settings\Sergei\Мои документы\Моя музыка\EAC\07. Poor Man.wav

Длина предзазора 0:00:01.10

Пиковый уровень 85.5 %
Скорость извлечения 4.7 X
Качество трека 100.0 %
CRC теста 7384B23C
CRC копии 7384B23C
Точное извлечение (достоверность 2) [B965C565] (AR v1)
Копирование… OK

Трек 8

Имя файла C:\Documents and Settings\Sergei\Мои документы\Моя музыка\EAC\08. Solid Gone.wav

Длина предзазора 0:00:01.45

Пиковый уровень 82.8 %
Скорость извлечения 3.6 X
Качество трека 99.9 %
CRC теста A9DF7557
CRC копии A9DF7557
Точное извлечение (достоверность 2) [F5B7C528] (AR v1)
Копирование… OK

Трек 9

Имя файла C:\Documents and Settings\Sergei\Мои документы\Моя музыка\EAC\09. When She Wants Good Lovin'.wav

Длина предзазора 0:00:01.13

Пиковый уровень 81.1 %
Скорость извлечения 4.8 X
Качество трека 100.0 %
CRC теста 8510B1AA
CRC копии 8510B1AA
Точное извлечение (достоверность 2) [F851B033] (AR v1)
Копирование… OK

Трек 10

Имя файла C:\Documents and Settings\Sergei\Мои документы\Моя музыка\EAC\10. I'd Like To Know.wav

Пиковый уровень 55.6 %
Скорость извлечения 4.8 X
Качество трека 100.0 %
CRC теста 4D63A1A1
CRC копии 4D63A1A1
Точное извлечение (достоверность 2) [1D45D26D] (AR v1)
Копирование… OK

Трек 11

Имя файла C:\Documents and Settings\Sergei\Мои документы\Моя музыка\EAC\11. Jelly Roll Baker.wav

Пиковый уровень 78.7 %
Скорость извлечения 5.0 X
Качество трека 100.0 %
CRC теста 67B3A87C
CRC копии 67B3A87C
Точное извлечение (достоверность 2) [D80DAA5B] (AR v1)
Копирование… OK

Трек 12

Имя файла C:\Documents and Settings\Sergei\Мои документы\Моя музыка\EAC\12. Windy Bill.wav

Длина предзазора 0:00:01.03

Пиковый уровень 80.4 %
Скорость извлечения 4.7 X
Качество трека 100.0 %
CRC теста 023BAB2A
CRC копии 023BAB2A
Точное извлечение (достоверность 2) [F165D278] (AR v1)
Копирование… OK

Трек 13

Имя файла C:\Documents and Settings\Sergei\Мои документы\Моя музыка\EAC\13. The Panama Limited.wav

Длина предзазора 0:00:01.10

Пиковый уровень 71.9 %
Скорость извлечения 5.6 X
Качество трека 100.0 %
CRC теста 5A11F475
CRC копии 5A11F475
Точное извлечение (достоверность 2) [6647B76C] (AR v1)
Копирование… OK

Все треки извлечены точно

Ошибок не произошло

Конец отчёта

==== Контрольная сумма отчёта 7F92B3123F29EE527F789155257BA4E49EE8B7FD103E9AFA53F560382F0AC86D ====


[CUETools log; Date: 19/02/2013 01:46:23 p.m.; Version: 2.1.4]
Pregap length 00:00:32.
[AccurateRip ID: 00145d03-00ca0909-a40a850d] found.
Track [ CRC | V2 ] Status
01 [3f8ee311|a038824b] (2+0/2) Accurately ripped
02 [cf54caa0|9ad57a03] (2+0/2) Accurately ripped
03 [3ac24134|f7539d1d] (2+0/2) Accurately ripped
04 [d1a316d8|0da0d6f6] (2+0/2) Accurately ripped
05 [6cbc2e2d|6589e7c4] (2+0/2) Accurately ripped
06 [03a0b3e5|5dc7a2a1] (2+0/2) Accurately ripped
07 [b965c565|88d2395e] (2+0/2) Accurately ripped
08 [f5b7c528|ff53b1e8] (2+0/2) Accurately ripped
09 [f851b033|1b395ff7] (2+0/2) Accurately ripped
10 [1d45d26d|feb0f608] (2+0/2) Accurately ripped
11 [d80daa5b|b5faac93] (2+0/2) Accurately ripped
12 [f165d278|1b842fe4] (2+0/2) Accurately ripped
13 [6647b76c|dd44a4bb] (2+0/2) Accurately ripped

Track Peak [ CRC32 ] [W/O NULL] [ LOG ]
– 95.3 [C897A4E8] [2CA71C16]
01 95.3 [70E3D8A6] [651FB3AD] CRC32
02 90.4 [733558B4] [34853941] CRC32
03 88.2 [E7E3ADB5] [5B7F8C3D] CRC32
04 92.1 [C68F721D] [7B4B8D3E] CRC32
05 64.8 [74E24109] [88557849] CRC32
06 90.6 [D63C1807] [2670B342] CRC32
07 85.5 [7384B23C] [6BCC2C43] CRC32
08 82.8 [A9DF7557] [2C49746A] CRC32
09 81.1 [8510B1AA] [D9A3D445] CRC32
10 55.6 [4D63A1A1] [1F2E4B86] CRC32
11 78.7 [67B3A87C] [38BF1DD7] CRC32
12 80.4 [023BAB2A] [7F9A5D61] CRC32
13 71.9 [5A11F475] [EAD36A46] CRC32


Credits

* Kokomo Arnold - Composer
* Woody Guthrie - Composer
* Lonnie Johnson - Composer
* Bill Lee - Guest Artist
* Felix Pappalardi - Guest Artist
* Tom Rush - Primary Artist
* John Sebastian - Guest Artist
* Mike Stoller - Composer
* Traditional - Composer
* Bukka White - Composer

Original Released Date: 1965
CD Released Date: 2001
Format: CD, Album
Length: 44:45

Tom Rush - Tom Rush (1965) [2001, Reissue]
Tom Rush - Tom Rush (1965) [2001, Reissue]

******************************************************

Many Thanks to Gera1957

The files are interchangeable!