Subcategories

Tom Waits - Broadcast Collection 1973-1978 (2017)

Posted By: Pisulik
Tom Waits - Broadcast Collection 1973-1978 (2017)

Tom Waits - Broadcast Collection 1973-1978 (2017)
EAC Rip | FLAC (Tracks) +cue, log, artworks - 2.33 GB | 07:59:34
Rock, Blues, Jazz, Folk | Label: Sound Stage

The release of Closing Time in March 1973 announced the arrival of a strikingly original singer-songwriter, delivering wry, digressive and bittersweet lyrics in a uniquely rasping voice, set to imaginative arrangements drawing on jazz, folk, blues and pop. This remarkable collection gathers nine superb live performances, originally broadcast between 1973 and 1978 and is accompanied by background notes and images.

TRACKLIST

Disc 1 Studio City, CA, KPFK-FM Broadcasts: 8/12/1973

01. Virginia Avenue
02. San Diego Serenade
03. Ol' 55
04. Semi Suite
05. Fumblin' With The Blues
06. Rosie
07. Depot, Depot
08. I Hope That I Don't Fall In Love With You
09. Heart Of Saturday Night
10. Better Off Without A Wife
11. On A Foggy Night
12. Heart Of Saturday Night

KPFK-FM Broadcasts: 07/23/1974

13. Semi Suite
14. Drunk On The Moon
15. San Diego Serenade
16. Rosie
17. Fumblin' With The Blues
18. New Coat Of Paint

KPFK-FM Broadcasts: 01/12/1975

19. Nobody
20. On A Foggy Night
21. The Heart Of Saturday Night
22. Fumblin' With The Blues
23. Better Off Without A Wife
24. Drunk On The Moon
25. Big Joe And Phantom 309

Exact Audio Copy V1.3 from 2. September 2016

EAC extraction logfile from 21. December 2018, 20:50

Tom Waits / Los Angeles, '73, '74, 75

Used drive : SONY DVD RW AD-7280S Adapter: 1 ID: 1

Read mode : Secure
Utilize accurate stream : Yes
Defeat audio cache : Yes
Make use of C2 pointers : No

Read offset correction : 48
Overread into Lead-In and Lead-Out : No
Fill up missing offset samples with silence : Yes
Delete leading and trailing silent blocks : No
Null samples used in CRC calculations : Yes
Used interface : Native Win32 interface for Win NT & 2000
Gap handling : Appended to previous track

Used output format : User Defined Encoder
Selected bitrate : 768 kBit/s
Quality : High
Add ID3 tag : No
Command line compressor : C:\Program Files (x86)\Exact Audio Copy\FLAC\FLAC.EXE
Additional command line options : -8 -e -p -V -T "ARTIST=%artist%" -T "TITLE=%title%" -T "ALBUM=%albumtitle%" -T "DATE=%year%" -T "TRACKNUMBER=%tracknr%" -T "GENRE=%genre%" -T "PERFORMER=%albuminterpret%" -T "COMPOSER=%composer%" %haslyrics%–tag-from-file=LYRICS="%lyricsfile%"%haslyrics% -T "ALBUMARTIST=%albumartist%" -T "DISCNUMBER=%cdnumber%" -T "TOTALDISCS=%totalcds%" -T "TOTALTRACKS=%numtracks%" -T "COMMENT=%comment%" %source% -o %dest%


TOC of the extracted CD

Track | Start | Length | Start sector | End sector
––––––––––––––––––––––––––––-
1 | 0:00.00 | 2:25.66 | 0 | 10940
2 | 2:25.66 | 2:55.35 | 10941 | 24100
3 | 5:21.26 | 3:39.49 | 24101 | 40574
4 | 9:01.00 | 2:50.22 | 40575 | 53346
5 | 11:51.22 | 2:21.33 | 53347 | 63954
6 | 14:12.55 | 3:03.30 | 63955 | 77709
7 | 17:16.10 | 2:24.57 | 77710 | 88566
8 | 19:40.67 | 3:50.43 | 88567 | 105859
9 | 23:31.35 | 4:00.07 | 105860 | 123866
10 | 27:31.42 | 2:01.38 | 123867 | 132979
11 | 29:33.05 | 3:26.72 | 132980 | 148501
12 | 33:00.02 | 3:11.53 | 148502 | 162879
13 | 36:11.55 | 3:41.37 | 162880 | 179491
14 | 39:53.17 | 3:26.03 | 179492 | 194944
15 | 43:19.20 | 3:08.00 | 194945 | 209044
16 | 46:27.20 | 2:46.67 | 209045 | 221561
17 | 49:14.12 | 2:23.48 | 221562 | 232334
18 | 51:37.60 | 1:55.02 | 232335 | 240961
19 | 53:32.62 | 2:45.48 | 240962 | 253384
20 | 56:18.35 | 4:13.25 | 253385 | 272384
21 | 60:31.60 | 3:29.55 | 272385 | 288114
22 | 64:01.40 | 2:27.67 | 288115 | 299206
23 | 66:29.32 | 2:54.60 | 299207 | 312316
24 | 69:24.17 | 5:47.13 | 312317 | 338354
25 | 75:11.30 | 4:09.49 | 338355 | 357078


Track 1

Filename G:\__New\_EAC rips\Tom Waits ‎- Broadcast Collection 1973-1978 [boot] (2017) 7cd flac\CD1\01 - Virginia Avenue.wav

Pre-gap length 0:00:02.00

Peak level 91.7 %
Extraction speed 4.4 X
Track quality 100.0 %
Test CRC 8FD57AE0
Copy CRC 8FD57AE0
Track not present in AccurateRip database
Copy OK

Track 2

Filename G:\__New\_EAC rips\Tom Waits ‎- Broadcast Collection 1973-1978 [boot] (2017) 7cd flac\CD1\02 - San Diego Serenade.wav

Peak level 91.6 %
Extraction speed 4.9 X
Track quality 100.0 %
Test CRC 4C270CE0
Copy CRC 4C270CE0
Track not present in AccurateRip database
Copy OK

Track 3

Filename G:\__New\_EAC rips\Tom Waits ‎- Broadcast Collection 1973-1978 [boot] (2017) 7cd flac\CD1\03 - Ol' 55.wav

Peak level 90.6 %
Extraction speed 5.4 X
Track quality 100.0 %
Test CRC 4FC72CD3
Copy CRC 4FC72CD3
Track not present in AccurateRip database
Copy OK

Track 4

Filename G:\__New\_EAC rips\Tom Waits ‎- Broadcast Collection 1973-1978 [boot] (2017) 7cd flac\CD1\04 - Semi Suite.wav

Peak level 90.3 %
Extraction speed 3.5 X
Track quality 99.9 %
Test CRC FF8E342B
Copy CRC FF8E342B
Track not present in AccurateRip database
Copy OK

Track 5

Filename G:\__New\_EAC rips\Tom Waits ‎- Broadcast Collection 1973-1978 [boot] (2017) 7cd flac\CD1\05 - Fumblin' With The Blues.wav

Peak level 91.4 %
Extraction speed 3.3 X
Track quality 99.9 %
Test CRC EB6EE094
Copy CRC EB6EE094
Track not present in AccurateRip database
Copy OK

Track 6

Filename G:\__New\_EAC rips\Tom Waits ‎- Broadcast Collection 1973-1978 [boot] (2017) 7cd flac\CD1\06 - Rosie.wav

Peak level 91.6 %
Extraction speed 6.0 X
Track quality 100.0 %
Test CRC AB588F51
Copy CRC AB588F51
Track not present in AccurateRip database
Copy OK

Track 7

Filename G:\__New\_EAC rips\Tom Waits ‎- Broadcast Collection 1973-1978 [boot] (2017) 7cd flac\CD1\07 - Depot Depot.wav

Peak level 89.3 %
Extraction speed 3.6 X
Track quality 99.9 %
Test CRC 4C4E27A1
Copy CRC 4C4E27A1
Track not present in AccurateRip database
Copy OK

Track 8

Filename G:\__New\_EAC rips\Tom Waits ‎- Broadcast Collection 1973-1978 [boot] (2017) 7cd flac\CD1\08 - I Hope That I Don't Fall In Love With You.wav

Peak level 91.7 %
Extraction speed 6.8 X
Track quality 100.0 %
Test CRC 4B0289F4
Copy CRC 4B0289F4
Track not present in AccurateRip database
Copy OK

Track 9

Filename G:\__New\_EAC rips\Tom Waits ‎- Broadcast Collection 1973-1978 [boot] (2017) 7cd flac\CD1\09 - The Heart Of Saturday Night.wav

Peak level 87.5 %
Extraction speed 7.1 X
Track quality 100.0 %
Test CRC 89279ABB
Copy CRC 89279ABB
Track not present in AccurateRip database
Copy OK

Track 10

Filename G:\__New\_EAC rips\Tom Waits ‎- Broadcast Collection 1973-1978 [boot] (2017) 7cd flac\CD1\10 - Better Off Without A Wife.wav

Peak level 91.6 %
Extraction speed 3.6 X
Track quality 99.9 %
Test CRC 1C86AA0D
Copy CRC 1C86AA0D
Track not present in AccurateRip database
Copy OK

Track 11

Filename G:\__New\_EAC rips\Tom Waits ‎- Broadcast Collection 1973-1978 [boot] (2017) 7cd flac\CD1\11 - On A Foggy Night.wav

Peak level 91.4 %
Extraction speed 7.4 X
Track quality 100.0 %
Test CRC 524B2949
Copy CRC 524B2949
Track not present in AccurateRip database
Copy OK

Track 12

Filename G:\__New\_EAC rips\Tom Waits ‎- Broadcast Collection 1973-1978 [boot] (2017) 7cd flac\CD1\12 - The Heart Of Saturday Night.wav

Peak level 91.6 %
Extraction speed 7.5 X
Track quality 100.0 %
Test CRC 9132F2A4
Copy CRC 9132F2A4
Track not present in AccurateRip database
Copy OK

Track 13

Filename G:\__New\_EAC rips\Tom Waits ‎- Broadcast Collection 1973-1978 [boot] (2017) 7cd flac\CD1\13 - Semi Suit.wav

Peak level 78.0 %
Extraction speed 7.9 X
Track quality 100.0 %
Test CRC C5F86F00
Copy CRC C5F86F00
Track not present in AccurateRip database
Copy OK

Track 14

Filename G:\__New\_EAC rips\Tom Waits ‎- Broadcast Collection 1973-1978 [boot] (2017) 7cd flac\CD1\14 - Drunk On The Moon.wav

Peak level 84.8 %
Extraction speed 8.1 X
Track quality 100.0 %
Test CRC 255FF64D
Copy CRC 255FF64D
Track not present in AccurateRip database
Copy OK

Track 15

Filename G:\__New\_EAC rips\Tom Waits ‎- Broadcast Collection 1973-1978 [boot] (2017) 7cd flac\CD1\15 - San Diego Serenade.wav

Peak level 89.2 %
Extraction speed 8.0 X
Track quality 100.0 %
Test CRC CCFADB7C
Copy CRC CCFADB7C
Track not present in AccurateRip database
Copy OK

Track 16

Filename G:\__New\_EAC rips\Tom Waits ‎- Broadcast Collection 1973-1978 [boot] (2017) 7cd flac\CD1\16 - Rosie.wav

Peak level 91.6 %
Extraction speed 8.2 X
Track quality 100.0 %
Test CRC 0A859381
Copy CRC 0A859381
Track not present in AccurateRip database
Copy OK

Track 17

Filename G:\__New\_EAC rips\Tom Waits ‎- Broadcast Collection 1973-1978 [boot] (2017) 7cd flac\CD1\17 - Fumblin' With The Blues.wav

Peak level 91.7 %
Extraction speed 8.1 X
Track quality 100.0 %
Test CRC 8CB2786F
Copy CRC 8CB2786F
Track not present in AccurateRip database
Copy OK

Track 18

Filename G:\__New\_EAC rips\Tom Waits ‎- Broadcast Collection 1973-1978 [boot] (2017) 7cd flac\CD1\18 - New Coat Of Paint.wav

Peak level 91.6 %
Extraction speed 7.4 X
Track quality 100.0 %
Test CRC 2B5F6DBA
Copy CRC 2B5F6DBA
Track not present in AccurateRip database
Copy OK

Track 19

Filename G:\__New\_EAC rips\Tom Waits ‎- Broadcast Collection 1973-1978 [boot] (2017) 7cd flac\CD1\19 - Nobody.wav

Peak level 91.6 %
Extraction speed 5.3 X
Track quality 99.9 %
Test CRC 8E3FB315
Copy CRC 8E3FB315
Track not present in AccurateRip database
Copy OK

Track 20

Filename G:\__New\_EAC rips\Tom Waits ‎- Broadcast Collection 1973-1978 [boot] (2017) 7cd flac\CD1\20 - On A Foggy Night.wav

Peak level 90.7 %
Extraction speed 9.3 X
Track quality 100.0 %
Test CRC E58CBD7A
Copy CRC E58CBD7A
Track not present in AccurateRip database
Copy OK

Track 21

Filename G:\__New\_EAC rips\Tom Waits ‎- Broadcast Collection 1973-1978 [boot] (2017) 7cd flac\CD1\21 - The Heart Of Saturday Night.wav

Peak level 91.5 %
Extraction speed 9.3 X
Track quality 100.0 %
Test CRC 32A4A840
Copy CRC 32A4A840
Track not present in AccurateRip database
Copy OK

Track 22

Filename G:\__New\_EAC rips\Tom Waits ‎- Broadcast Collection 1973-1978 [boot] (2017) 7cd flac\CD1\22 - Fumblin' With The Blues.wav

Peak level 88.8 %
Extraction speed 8.6 X
Track quality 100.0 %
Test CRC 469EAA3B
Copy CRC 469EAA3B
Track not present in AccurateRip database
Copy OK

Track 23

Filename G:\__New\_EAC rips\Tom Waits ‎- Broadcast Collection 1973-1978 [boot] (2017) 7cd flac\CD1\23 - Better Off Without A Wife.wav

Peak level 90.9 %
Extraction speed 9.3 X
Track quality 100.0 %
Test CRC 0A3DC121
Copy CRC 0A3DC121
Track not present in AccurateRip database
Copy OK

Track 24

Filename G:\__New\_EAC rips\Tom Waits ‎- Broadcast Collection 1973-1978 [boot] (2017) 7cd flac\CD1\24 - Drunk On The Moon.wav

Peak level 89.1 %
Extraction speed 10.5 X
Track quality 100.0 %
Test CRC C61E7BF5
Copy CRC C61E7BF5
Track not present in AccurateRip database
Copy OK

Track 25

Filename G:\__New\_EAC rips\Tom Waits ‎- Broadcast Collection 1973-1978 [boot] (2017) 7cd flac\CD1\25 - Big Joe And Phantom 309.wav

Peak level 89.4 %
Extraction speed 7.0 X
Track quality 99.9 %
Test CRC E0554D27
Copy CRC E0554D27
Track not present in AccurateRip database
Copy OK


None of the tracks are present in the AccurateRip database

No errors occurred

End of status report

–– CUETools DB Plugin V2.1.6

[CTDB TOCID: c5IvNUGslvWuHD4G00dlEJpDgq0-] found
Submit result: c5IvNUGslvWuHD4G00dlEJpDgq0- has been confirmed
Track | CTDB Status
1 | (2/2) Accurately ripped
2 | (2/2) Accurately ripped
3 | (2/2) Accurately ripped
4 | (2/2) Accurately ripped
5 | (2/2) Accurately ripped
6 | (2/2) Accurately ripped
7 | (2/2) Accurately ripped
8 | (2/2) Accurately ripped
9 | (2/2) Accurately ripped
10 | (2/2) Accurately ripped
11 | (2/2) Accurately ripped
12 | (2/2) Accurately ripped
13 | (2/2) Accurately ripped
14 | (2/2) Accurately ripped
15 | (2/2) Accurately ripped
16 | (2/2) Accurately ripped
17 | (2/2) Accurately ripped
18 | (2/2) Accurately ripped
19 | (2/2) Accurately ripped
20 | (2/2) Accurately ripped
21 | (2/2) Accurately ripped
22 | (2/2) Accurately ripped
23 | (2/2) Accurately ripped
24 | (2/2) Accurately ripped
25 | (2/2) Accurately ripped


==== Log checksum EC6AE5B6FAEE40E5E27D5375C5119421945E3CAC282C5FC241A5237342CCD8ED ====


Disc 2 Tucson, 92 KWFM 03/05/1975

01. Dave Gordon Intro
02. Diamonds On My Windshield
03. Rosie
04. New Coat Of Paint
05. Tom Gets Hustled At 9 Ball
06. Better Off Without A Wife
07. Truckdriver's Wife-Semi Suite
08. Travelling Salesman-On A Foggy Road
09. Formula 44 Vs Nyquill>(Looking For) The Heart Of Saturday Night
10. Easy Street
11. Denver's Terminal Bar>Fumblin' With The Blues
12. Motel 6 Magic Fingers>San Diego Serenade
13. Bus Culture>The Ghost Of Saturday Night
14. Ice Cream Man
15. Drunk On The Moon
16. Big Joe And Phantom 309
17. Ol' 55
18. Nobody
19. Depot, Depot
20. Please Call Me, Baby
21. D J Outro

Exact Audio Copy V1.3 from 2. September 2016

EAC extraction logfile from 21. December 2018, 21:56

Tom Waits / Tucson, '75

Used drive : SONY DVD RW AD-7280S Adapter: 1 ID: 1

Read mode : Secure
Utilize accurate stream : Yes
Defeat audio cache : Yes
Make use of C2 pointers : No

Read offset correction : 48
Overread into Lead-In and Lead-Out : No
Fill up missing offset samples with silence : Yes
Delete leading and trailing silent blocks : No
Null samples used in CRC calculations : Yes
Used interface : Native Win32 interface for Win NT & 2000
Gap handling : Appended to previous track

Used output format : User Defined Encoder
Selected bitrate : 768 kBit/s
Quality : High
Add ID3 tag : No
Command line compressor : C:\Program Files (x86)\Exact Audio Copy\FLAC\FLAC.EXE
Additional command line options : -8 -e -p -V -T "ARTIST=%artist%" -T "TITLE=%title%" -T "ALBUM=%albumtitle%" -T "DATE=%year%" -T "TRACKNUMBER=%tracknr%" -T "GENRE=%genre%" -T "PERFORMER=%albuminterpret%" -T "COMPOSER=%composer%" %haslyrics%–tag-from-file=LYRICS="%lyricsfile%"%haslyrics% -T "ALBUMARTIST=%albumartist%" -T "DISCNUMBER=%cdnumber%" -T "TOTALDISCS=%totalcds%" -T "TOTALTRACKS=%numtracks%" -T "COMMENT=%comment%" %source% -o %dest%


TOC of the extracted CD

Track | Start | Length | Start sector | End sector
––––––––––––––––––––––––––––-
1 | 0:00.00 | 0:18.27 | 0 | 1376
2 | 0:18.27 | 3:46.05 | 1377 | 18331
3 | 4:04.32 | 3:20.25 | 18332 | 33356
4 | 7:24.57 | 1:39.29 | 33357 | 40810
5 | 9:04.11 | 4:05.44 | 40811 | 59229
6 | 13:09.55 | 2:57.23 | 59230 | 72527
7 | 16:07.03 | 3:51.36 | 72528 | 89888
8 | 19:58.39 | 4:54.44 | 89889 | 111982
9 | 24:53.08 | 4:19.55 | 111983 | 131462
10 | 29:12.63 | 6:02.51 | 131463 | 158663
11 | 35:15.39 | 2:36.73 | 158664 | 170436
12 | 37:52.37 | 4:47.45 | 170437 | 192006
13 | 42:40.07 | 6:45.26 | 192007 | 222407
14 | 49:25.33 | 2:46.50 | 222408 | 234907
15 | 52:12.08 | 4:44.16 | 234908 | 256223
16 | 56:56.24 | 4:43.28 | 256224 | 277476
17 | 61:39.52 | 4:51.45 | 277477 | 299346
18 | 66:31.22 | 2:53.05 | 299347 | 312326
19 | 69:24.27 | 3:30.21 | 312327 | 328097
20 | 72:54.48 | 5:06.65 | 328098 | 351112
21 | 78:01.38 | 1:32.07 | 351113 | 358019


Track 1

Filename G:\__New\_EAC rips\Tom Waits ‎- Broadcast Collection 1973-1978 [boot] (2017) 7cd flac\CD2\01 - Dave Gordon Intro.wav

Pre-gap length 0:00:02.00

Peak level 94.6 %
Extraction speed 1.8 X
Track quality 100.0 %
Test CRC 3FEEDEF7
Copy CRC 3FEEDEF7
Track not present in AccurateRip database
Copy OK

Track 2

Filename G:\__New\_EAC rips\Tom Waits ‎- Broadcast Collection 1973-1978 [boot] (2017) 7cd flac\CD2\02 - Diamonds On My Windshield.wav

Peak level 100.0 %
Extraction speed 3.4 X
Track quality 99.9 %
Test CRC C4E53B96
Copy CRC C4E53B96
Track not present in AccurateRip database
Copy OK

Track 3

Filename G:\__New\_EAC rips\Tom Waits ‎- Broadcast Collection 1973-1978 [boot] (2017) 7cd flac\CD2\03 - Rosie.wav

Peak level 100.0 %
Extraction speed 5.2 X
Track quality 100.0 %
Test CRC 6553FB3E
Copy CRC 6553FB3E
Track not present in AccurateRip database
Copy OK

Track 4

Filename G:\__New\_EAC rips\Tom Waits ‎- Broadcast Collection 1973-1978 [boot] (2017) 7cd flac\CD2\04 - New Coat Of Paint.wav

Peak level 100.0 %
Extraction speed 4.7 X
Track quality 100.0 %
Test CRC 69912567
Copy CRC 69912567
Track not present in AccurateRip database
Copy OK

Track 5

Filename G:\__New\_EAC rips\Tom Waits ‎- Broadcast Collection 1973-1978 [boot] (2017) 7cd flac\CD2\05 - Tom Gets Hustled At 9 Ball.wav

Peak level 99.2 %
Extraction speed 5.9 X
Track quality 100.0 %
Test CRC F496164E
Copy CRC F496164E
Track not present in AccurateRip database
Copy OK

Track 6

Filename G:\__New\_EAC rips\Tom Waits ‎- Broadcast Collection 1973-1978 [boot] (2017) 7cd flac\CD2\06 - Better Off Without A Wife.wav

Peak level 100.0 %
Extraction speed 3.8 X
Track quality 99.9 %
Test CRC 442E06F2
Copy CRC 442E06F2
Track not present in AccurateRip database
Copy OK

Track 7

Filename G:\__New\_EAC rips\Tom Waits ‎- Broadcast Collection 1973-1978 [boot] (2017) 7cd flac\CD2\07 - Truckdriver's Wife , Semi Suite.wav

Peak level 100.0 %
Extraction speed 6.5 X
Track quality 100.0 %
Test CRC 952E6C11
Copy CRC 952E6C11
Track not present in AccurateRip database
Copy OK

Track 8

Filename G:\__New\_EAC rips\Tom Waits ‎- Broadcast Collection 1973-1978 [boot] (2017) 7cd flac\CD2\08 - Travelling Salesman , On A Foggy Night.wav

Peak level 100.0 %
Extraction speed 6.8 X
Track quality 100.0 %
Test CRC 8CD2B195
Copy CRC 8CD2B195
Track not present in AccurateRip database
Copy OK

Track 9

Filename G:\__New\_EAC rips\Tom Waits ‎- Broadcast Collection 1973-1978 [boot] (2017) 7cd flac\CD2\09 - Formula 44 vs Nyquil , (Looking For) The Heart Of Saturday Night.wav

Peak level 100.0 %
Extraction speed 7.3 X
Track quality 100.0 %
Test CRC 487F7AF6
Copy CRC 487F7AF6
Track not present in AccurateRip database
Copy OK

Track 10

Filename G:\__New\_EAC rips\Tom Waits ‎- Broadcast Collection 1973-1978 [boot] (2017) 7cd flac\CD2\10 - Easy Street.wav

Peak level 100.0 %
Extraction speed 8.0 X
Track quality 100.0 %
Test CRC 3F36A188
Copy CRC 3F36A188
Track not present in AccurateRip database
Copy OK

Track 11

Filename G:\__New\_EAC rips\Tom Waits ‎- Broadcast Collection 1973-1978 [boot] (2017) 7cd flac\CD2\11 - Denver's Terminal Bar , Fumblin' With The Blues Copy.wav

Peak level 100.0 %
Extraction speed 7.4 X
Track quality 100.0 %
Test CRC 4E3E50C6
Copy CRC 4E3E50C6
Track not present in AccurateRip database
Copy OK

Track 12

Filename G:\__New\_EAC rips\Tom Waits ‎- Broadcast Collection 1973-1978 [boot] (2017) 7cd flac\CD2\12 - Motel 6 Magic Fingers , San Diego Serenade.wav

Peak level 100.0 %
Extraction speed 8.3 X
Track quality 100.0 %
Test CRC 16F77CF2
Copy CRC 16F77CF2
Track not present in AccurateRip database
Copy OK

Track 13

Filename G:\__New\_EAC rips\Tom Waits ‎- Broadcast Collection 1973-1978 [boot] (2017) 7cd flac\CD2\13 - Bus Culture , The Ghost Of Saturday Night.wav

Peak level 100.0 %
Extraction speed 7.1 X
Track quality 99.9 %
Test CRC 028D8C40
Copy CRC 028D8C40
Track not present in AccurateRip database
Copy OK

Track 14

Filename G:\__New\_EAC rips\Tom Waits ‎- Broadcast Collection 1973-1978 [boot] (2017) 7cd flac\CD2\14 - Ice Cream Man.wav

Peak level 100.0 %
Extraction speed 5.1 X
Track quality 99.9 %
Test CRC 4731069B
Copy CRC 4731069B
Track not present in AccurateRip database
Copy OK

Track 15

Filename G:\__New\_EAC rips\Tom Waits ‎- Broadcast Collection 1973-1978 [boot] (2017) 7cd flac\CD2\15 - Drunk On The Moon.wav

Peak level 100.0 %
Extraction speed 6.6 X
Track quality 99.9 %
Test CRC 7E6701C6
Copy CRC 7E6701C6
Track not present in AccurateRip database
Copy OK

Track 16

Filename G:\__New\_EAC rips\Tom Waits ‎- Broadcast Collection 1973-1978 [boot] (2017) 7cd flac\CD2\16 - Big Joe And Phantom 309.wav

Peak level 100.0 %
Extraction speed 9.6 X
Track quality 100.0 %
Test CRC F368C0C0
Copy CRC F368C0C0
Track not present in AccurateRip database
Copy OK

Track 17

Filename G:\__New\_EAC rips\Tom Waits ‎- Broadcast Collection 1973-1978 [boot] (2017) 7cd flac\CD2\17 - Ol' 55.wav

Peak level 100.0 %
Extraction speed 9.9 X
Track quality 100.0 %
Test CRC 2324C48C
Copy CRC 2324C48C
Track not present in AccurateRip database
Copy OK

Track 18

Filename G:\__New\_EAC rips\Tom Waits ‎- Broadcast Collection 1973-1978 [boot] (2017) 7cd flac\CD2\18 - Nobody.wav

Peak level 85.7 %
Extraction speed 9.2 X
Track quality 100.0 %
Test CRC ACBD2D2D
Copy CRC ACBD2D2D
Track not present in AccurateRip database
Copy OK

Track 19

Filename G:\__New\_EAC rips\Tom Waits ‎- Broadcast Collection 1973-1978 [boot] (2017) 7cd flac\CD2\19 - Depot, Depot.wav

Peak level 100.0 %
Extraction speed 9.7 X
Track quality 100.0 %
Test CRC 025ADC6C
Copy CRC 025ADC6C
Track not present in AccurateRip database
Copy OK

Track 20

Filename G:\__New\_EAC rips\Tom Waits ‎- Broadcast Collection 1973-1978 [boot] (2017) 7cd flac\CD2\20 - Please Call Me, Baby.wav

Peak level 97.5 %
Extraction speed 10.4 X
Track quality 100.0 %
Test CRC F7349726
Copy CRC F7349726
Track not present in AccurateRip database
Copy OK

Track 21

Filename G:\__New\_EAC rips\Tom Waits ‎- Broadcast Collection 1973-1978 [boot] (2017) 7cd flac\CD2\21 - End Sequence.wav

Peak level 85.5 %
Extraction speed 8.5 X
Track quality 100.0 %
Test CRC FDC49A1E
Copy CRC FDC49A1E
Track not present in AccurateRip database
Copy OK


None of the tracks are present in the AccurateRip database

No errors occurred

End of status report

–– CUETools DB Plugin V2.1.6

[CTDB TOCID: h_W.r7RL9ovyvJuc8jvUhGPF.sw-] found
Submit result: h_W.r7RL9ovyvJuc8jvUhGPF.sw- has been confirmed
Track | CTDB Status
1 | (2/2) Accurately ripped
2 | (2/2) Accurately ripped
3 | (2/2) Accurately ripped
4 | (2/2) Accurately ripped
5 | (2/2) Accurately ripped
6 | (2/2) Accurately ripped
7 | (2/2) Accurately ripped
8 | (2/2) Accurately ripped
9 | (2/2) Accurately ripped
10 | (2/2) Accurately ripped
11 | (2/2) Accurately ripped
12 | (2/2) Accurately ripped
13 | (2/2) Accurately ripped
14 | (2/2) Accurately ripped
15 | (2/2) Accurately ripped
16 | (2/2) Accurately ripped
17 | (2/2) Accurately ripped
18 | (2/2) Accurately ripped
19 | (2/2) Accurately ripped
20 | (2/2) Accurately ripped
21 | (2/2) Accurately ripped


==== Log checksum AF12BAE020F4FAD2B9B88DCBA74D831E51CDE9D760995E4A16B5213F4E706430 ====


Disc 3 Minneapolis, KQRS-FM 12/16/1975

01. Introduction
02. Emotional Weather Report
03. Eggs & Sausage (In A Cadilac With Susan Michelson)
04. Better Off Without A Wife
05. Semi Suite
06. Spare Parts
07. The Ghosts Of Saturday Night (After Hours At Napoleone's Pizza House)>(Looking For) The Heart Of Saturday Night
08. New Coat Of Paint
09. Warm Beer & Cold Women
10. Virginia Avenue
11. San Diego Serenade
12. Putnam County
13. Ol' 55

Exact Audio Copy V1.3 from 2. September 2016

EAC extraction logfile from 21. December 2018, 23:16

Tom Waits / Minneapolis, '75

Used drive : SONY DVD RW AD-7280S Adapter: 1 ID: 1

Read mode : Secure
Utilize accurate stream : Yes
Defeat audio cache : Yes
Make use of C2 pointers : No

Read offset correction : 48
Overread into Lead-In and Lead-Out : No
Fill up missing offset samples with silence : Yes
Delete leading and trailing silent blocks : No
Null samples used in CRC calculations : Yes
Used interface : Native Win32 interface for Win NT & 2000
Gap handling : Appended to previous track

Used output format : User Defined Encoder
Selected bitrate : 768 kBit/s
Quality : High
Add ID3 tag : No
Command line compressor : C:\Program Files (x86)\Exact Audio Copy\FLAC\FLAC.EXE
Additional command line options : -8 -e -p -V -T "ARTIST=%artist%" -T "TITLE=%title%" -T "ALBUM=%albumtitle%" -T "DATE=%year%" -T "TRACKNUMBER=%tracknr%" -T "GENRE=%genre%" -T "PERFORMER=%albuminterpret%" -T "COMPOSER=%composer%" %haslyrics%–tag-from-file=LYRICS="%lyricsfile%"%haslyrics% -T "ALBUMARTIST=%albumartist%" -T "DISCNUMBER=%cdnumber%" -T "TOTALDISCS=%totalcds%" -T "TOTALTRACKS=%numtracks%" -T "COMMENT=%comment%" %source% -o %dest%


TOC of the extracted CD

Track | Start | Length | Start sector | End sector
––––––––––––––––––––––––––––-
1 | 0:00.00 | 0:26.24 | 0 | 1973
2 | 0:26.24 | 6:18.05 | 1974 | 30328
3 | 6:44.29 | 9:06.60 | 30329 | 71338
4 | 15:51.14 | 4:53.20 | 71339 | 93333
5 | 20:44.34 | 6:35.31 | 93334 | 122989
6 | 27:19.65 | 8:20.19 | 122990 | 160508
7 | 35:40.09 | 8:34.44 | 160509 | 199102
8 | 44:14.53 | 2:27.21 | 199103 | 210148
9 | 46:41.74 | 5:56.64 | 210149 | 236912
10 | 52:38.63 | 2:49.14 | 236913 | 249601
11 | 55:28.02 | 4:29.36 | 249602 | 269812
12 | 59:57.38 | 6:48.01 | 269813 | 300413
13 | 66:45.39 | 4:06.67 | 300414 | 318930


Track 1

Filename G:\__New\_EAC rips\Tom Waits ‎- Broadcast Collection 1973-1978 [boot] (2017) 7cd flac\CD3\01 - Introduction.wav

Pre-gap length 0:00:02.00

Peak level 83.9 %
Extraction speed 1.1 X
Track quality 100.0 %
Test CRC 1DE0A273
Copy CRC 1DE0A273
Track not present in AccurateRip database
Copy OK

Track 2

Filename G:\__New\_EAC rips\Tom Waits ‎- Broadcast Collection 1973-1978 [boot] (2017) 7cd flac\CD3\02 - Emotional Weather Report.wav

Peak level 85.3 %
Extraction speed 2.6 X
Track quality 100.0 %
Test CRC 10E72015
Copy CRC 10E72015
Track not present in AccurateRip database
Copy OK

Track 3

Filename G:\__New\_EAC rips\Tom Waits ‎- Broadcast Collection 1973-1978 [boot] (2017) 7cd flac\CD3\03 - Eggs and Sausage (In a Cadillac with Susan Michelson).wav

Peak level 84.8 %
Extraction speed 3.0 X
Track quality 99.9 %
Test CRC 2A85E369
Copy CRC 2A85E369
Track not present in AccurateRip database
Copy OK

Track 4

Filename G:\__New\_EAC rips\Tom Waits ‎- Broadcast Collection 1973-1978 [boot] (2017) 7cd flac\CD3\04 - Better Off Without a Wife.wav

Peak level 86.0 %
Extraction speed 3.3 X
Track quality 100.0 %
Test CRC 5F5FAA2E
Copy CRC 5F5FAA2E
Track not present in AccurateRip database
Copy OK

Track 5

Filename G:\__New\_EAC rips\Tom Waits ‎- Broadcast Collection 1973-1978 [boot] (2017) 7cd flac\CD3\05 - Semi Suite.wav

Peak level 85.9 %
Extraction speed 3.4 X
Track quality 99.9 %
Test CRC AF460BC4
Copy CRC AF460BC4
Track not present in AccurateRip database
Copy OK

Track 6

Filename G:\__New\_EAC rips\Tom Waits ‎- Broadcast Collection 1973-1978 [boot] (2017) 7cd flac\CD3\06 - Spare Parts.wav

Peak level 86.6 %
Extraction speed 4.1 X
Track quality 100.0 %
Test CRC DB2FB645
Copy CRC DB2FB645
Track not present in AccurateRip database
Copy OK

Track 7

Filename G:\__New\_EAC rips\Tom Waits ‎- Broadcast Collection 1973-1978 [boot] (2017) 7cd flac\CD3\07 - The Ghosts of Saturday Night (After Hours at Napoleone's Pizza House) ] (Looking For) The Heart of Saturday Night.wav

Peak level 86.8 %
Extraction speed 4.2 X
Track quality 99.9 %
Test CRC 7854B9E4
Copy CRC 7854B9E4
Track not present in AccurateRip database
Copy OK

Track 8

Filename G:\__New\_EAC rips\Tom Waits ‎- Broadcast Collection 1973-1978 [boot] (2017) 7cd flac\CD3\08 - New Coat of Paint.wav

Peak level 85.3 %
Extraction speed 4.0 X
Track quality 100.0 %
Test CRC EFAC3CA3
Copy CRC EFAC3CA3
Track not present in AccurateRip database
Copy OK

Track 9

Filename G:\__New\_EAC rips\Tom Waits ‎- Broadcast Collection 1973-1978 [boot] (2017) 7cd flac\CD3\09 - Warm Beer and Cold Women.wav

Peak level 84.0 %
Extraction speed 4.7 X
Track quality 100.0 %
Test CRC 01AAB7DC
Copy CRC 01AAB7DC
Track not present in AccurateRip database
Copy OK

Track 10

Filename G:\__New\_EAC rips\Tom Waits ‎- Broadcast Collection 1973-1978 [boot] (2017) 7cd flac\CD3\10 - Virginia Avenue.wav

Peak level 85.0 %
Extraction speed 4.3 X
Track quality 100.0 %
Test CRC A45B24F8
Copy CRC A45B24F8
Track not present in AccurateRip database
Copy OK

Track 11

Filename G:\__New\_EAC rips\Tom Waits ‎- Broadcast Collection 1973-1978 [boot] (2017) 7cd flac\CD3\11 - San Diego Serenade.wav

Peak level 85.2 %
Extraction speed 4.8 X
Track quality 100.0 %
Test CRC 80A76260
Copy CRC 80A76260
Track not present in AccurateRip database
Copy OK

Track 12

Filename G:\__New\_EAC rips\Tom Waits ‎- Broadcast Collection 1973-1978 [boot] (2017) 7cd flac\CD3\12 - Putnam County.wav

Peak level 86.1 %
Extraction speed 4.8 X
Track quality 99.9 %
Test CRC BC6122DA
Copy CRC BC6122DA
Track not present in AccurateRip database
Copy OK

Track 13

Filename G:\__New\_EAC rips\Tom Waits ‎- Broadcast Collection 1973-1978 [boot] (2017) 7cd flac\CD3\13 - Ol' 55.wav

Peak level 86.8 %
Extraction speed 5.0 X
Track quality 100.0 %
Test CRC 58B2B2E4
Copy CRC 58B2B2E4
Track not present in AccurateRip database
Copy OK


None of the tracks are present in the AccurateRip database

No errors occurred

End of status report

–– CUETools DB Plugin V2.1.6

[CTDB TOCID: nkw0WW9d0FG5b.jPNS7Cp0OQexE-] found
Submit result: nkw0WW9d0FG5b.jPNS7Cp0OQexE- has been confirmed
Track | CTDB Status
1 | (2/2) Accurately ripped
2 | (2/2) Accurately ripped
3 | (2/2) Accurately ripped
4 | (2/2) Accurately ripped
5 | (2/2) Accurately ripped
6 | (2/2) Accurately ripped
7 | (2/2) Accurately ripped
8 | (2/2) Accurately ripped
9 | (2/2) Accurately ripped
10 | (2/2) Accurately ripped
11 | (2/2) Accurately ripped
12 | (2/2) Accurately ripped
13 | (2/2) Accurately ripped


==== Log checksum 4099AD93669019091EC7EA2861D545E936A76A8AD677E27D3A6442BE751385ED ====


Disc 4 Chicago, WXRT-FM 11/21/1976

01. Emotional Weather Report
02. Invitation To The Blues
03. Virginia Avenue
04. Jitterbug Boy
05. I Can't Wait To Get Off Work
06. Fumblin' With The Blues
07. Pasties & A G-String
08. Small Change
09. Eggs & Sausage
10. The Piano Has Been Drinking
11. Tom Traubert's Blues

Exact Audio Copy V1.3 from 2. September 2016

EAC extraction logfile from 22. December 2018, 8:22

Tom Waits / Chicago, '76

Used drive : SONY DVD RW AD-7280S Adapter: 1 ID: 1

Read mode : Secure
Utilize accurate stream : Yes
Defeat audio cache : Yes
Make use of C2 pointers : No

Read offset correction : 48
Overread into Lead-In and Lead-Out : No
Fill up missing offset samples with silence : Yes
Delete leading and trailing silent blocks : No
Null samples used in CRC calculations : Yes
Used interface : Native Win32 interface for Win NT & 2000
Gap handling : Appended to previous track

Used output format : User Defined Encoder
Selected bitrate : 768 kBit/s
Quality : High
Add ID3 tag : No
Command line compressor : C:\Program Files (x86)\Exact Audio Copy\FLAC\FLAC.EXE
Additional command line options : -8 -e -p -V -T "ARTIST=%artist%" -T "TITLE=%title%" -T "ALBUM=%albumtitle%" -T "DATE=%year%" -T "TRACKNUMBER=%tracknr%" -T "GENRE=%genre%" -T "PERFORMER=%albuminterpret%" -T "COMPOSER=%composer%" %haslyrics%–tag-from-file=LYRICS="%lyricsfile%"%haslyrics% -T "ALBUMARTIST=%albumartist%" -T "DISCNUMBER=%cdnumber%" -T "TOTALDISCS=%totalcds%" -T "TOTALTRACKS=%numtracks%" -T "COMMENT=%comment%" %source% -o %dest%


TOC of the extracted CD

Track | Start | Length | Start sector | End sector
––––––––––––––––––––––––––––-
1 | 0:00.00 | 6:11.74 | 0 | 27898
2 | 6:11.74 | 6:17.27 | 27899 | 56200
3 | 12:29.26 | 3:21.65 | 56201 | 71340
4 | 15:51.16 | 5:50.65 | 71341 | 97655
5 | 21:42.06 | 3:23.15 | 97656 | 112895
6 | 25:05.21 | 3:05.25 | 112896 | 126795
7 | 28:10.46 | 5:35.23 | 126796 | 151943
8 | 33:45.69 | 5:24.35 | 151944 | 176278
9 | 39:10.29 | 5:27.65 | 176279 | 200868
10 | 44:38.19 | 5:05.63 | 200869 | 223806
11 | 49:44.07 | 7:42.23 | 223807 | 258479


Track 1

Filename G:\__New\_EAC rips\Tom Waits ‎- Broadcast Collection 1973-1978 [boot] (2017) 7cd flac\CD4\01 - Emotional Weather Report.wav

Pre-gap length 0:00:02.00

Peak level 81.1 %
Extraction speed 2.5 X
Track quality 100.0 %
Test CRC FDB3A2DA
Copy CRC FDB3A2DA
Track not present in AccurateRip database
Copy OK

Track 2

Filename G:\__New\_EAC rips\Tom Waits ‎- Broadcast Collection 1973-1978 [boot] (2017) 7cd flac\CD4\02 - Invitation to the Blues.wav

Peak level 75.9 %
Extraction speed 3.0 X
Track quality 100.0 %
Test CRC 1A3E0682
Copy CRC 1A3E0682
Track not present in AccurateRip database
Copy OK

Track 3

Filename G:\__New\_EAC rips\Tom Waits ‎- Broadcast Collection 1973-1978 [boot] (2017) 7cd flac\CD4\03 - Virginia Avenue.wav

Peak level 81.7 %
Extraction speed 2.6 X
Track quality 99.9 %
Test CRC 68F3E954
Copy CRC 68F3E954
Track not present in AccurateRip database
Copy OK

Track 4

Filename G:\__New\_EAC rips\Tom Waits ‎- Broadcast Collection 1973-1978 [boot] (2017) 7cd flac\CD4\04 - Jitterbug Boy.wav

Peak level 71.9 %
Extraction speed 3.5 X
Track quality 100.0 %
Test CRC 61FC7CF0
Copy CRC 61FC7CF0
Track not present in AccurateRip database
Copy OK

Track 5

Filename G:\__New\_EAC rips\Tom Waits ‎- Broadcast Collection 1973-1978 [boot] (2017) 7cd flac\CD4\05 - I Can't Wait to Get Off Work.wav

Peak level 81.1 %
Extraction speed 3.0 X
Track quality 99.9 %
Test CRC 6058AE13
Copy CRC 6058AE13
Track not present in AccurateRip database
Copy OK

Track 6

Filename G:\__New\_EAC rips\Tom Waits ‎- Broadcast Collection 1973-1978 [boot] (2017) 7cd flac\CD4\06 - Fumblin' With the Blues.wav

Peak level 92.5 %
Extraction speed 3.6 X
Track quality 100.0 %
Test CRC 218BB197
Copy CRC 218BB197
Track not present in AccurateRip database
Copy OK

Track 7

Filename G:\__New\_EAC rips\Tom Waits ‎- Broadcast Collection 1973-1978 [boot] (2017) 7cd flac\CD4\07 - Pasties & a G-String.wav

Peak level 94.1 %
Extraction speed 3.7 X
Track quality 99.9 %
Test CRC 1759D403
Copy CRC 1759D403
Track not present in AccurateRip database
Copy OK

Track 8

Filename G:\__New\_EAC rips\Tom Waits ‎- Broadcast Collection 1973-1978 [boot] (2017) 7cd flac\CD4\08 - Small Change.wav

Peak level 81.8 %
Extraction speed 4.3 X
Track quality 100.0 %
Test CRC E489C882
Copy CRC E489C882
Track not present in AccurateRip database
Copy OK

Track 9

Filename G:\__New\_EAC rips\Tom Waits ‎- Broadcast Collection 1973-1978 [boot] (2017) 7cd flac\CD4\09 - Eggs & Sausage.wav

Peak level 100.0 %
Extraction speed 4.5 X
Track quality 100.0 %
Test CRC 4ADAD986
Copy CRC 4ADAD986
Track not present in AccurateRip database
Copy OK

Track 10

Filename G:\__New\_EAC rips\Tom Waits ‎- Broadcast Collection 1973-1978 [boot] (2017) 7cd flac\CD4\10 - The Piano Has Been Drinking.wav

Peak level 93.0 %
Extraction speed 4.6 X
Track quality 100.0 %
Test CRC 9D09E5F3
Copy CRC 9D09E5F3
Track not present in AccurateRip database
Copy OK

Track 11

Filename G:\__New\_EAC rips\Tom Waits ‎- Broadcast Collection 1973-1978 [boot] (2017) 7cd flac\CD4\11 - Tom Traubert's Blues.wav

Peak level 89.8 %
Extraction speed 5.0 X
Track quality 100.0 %
Test CRC 6F431A3C
Copy CRC 6F431A3C
Track not present in AccurateRip database
Copy OK


None of the tracks are present in the AccurateRip database

No errors occurred

End of status report

–– CUETools DB Plugin V2.1.6

[CTDB TOCID: wfBtN0yPSMZ37apQTceYBTWmqO0-] found
Submit result: wfBtN0yPSMZ37apQTceYBTWmqO0- has been confirmed
Track | CTDB Status
1 | (2/2) Accurately ripped
2 | (2/2) Accurately ripped
3 | (2/2) Accurately ripped
4 | (2/2) Accurately ripped
5 | (2/2) Accurately ripped
6 | (2/2) Accurately ripped
7 | (2/2) Accurately ripped
8 | (2/2) Accurately ripped
9 | (2/2) Accurately ripped
10 | (2/2) Accurately ripped
11 | (2/2) Accurately ripped


==== Log checksum C7A904C3400A3DB8A9CA442FB467886E34B767F2DC7638AE3547333F5F9BB390 ====


Disc 5 "Nighthawks On The Radio", NYC, KNEW-FM 12/14/1976

01. Emotional Weather Report
02. A Sight For Sore Eyes
03. Step Right Up
04. Eggs & Sausage>Invitation To The Blues
05. Jitterbug Boy
06. Diamonds On My Windshield
07. San Diego Serenade
08. Tom Traubert's Blues
09. New Coat Of Paint
10. The Piano Has Been Drinking (Not Me)
11. I Can't Wait To Get Off Work

Exact Audio Copy V1.3 from 2. September 2016

EAC extraction logfile from 22. December 2018, 15:24

Tom Waits / New York, '76

Used drive : SONY DVD RW AD-7280S Adapter: 1 ID: 1

Read mode : Secure
Utilize accurate stream : Yes
Defeat audio cache : Yes
Make use of C2 pointers : No

Read offset correction : 48
Overread into Lead-In and Lead-Out : No
Fill up missing offset samples with silence : Yes
Delete leading and trailing silent blocks : No
Null samples used in CRC calculations : Yes
Used interface : Native Win32 interface for Win NT & 2000
Gap handling : Appended to previous track

Used output format : User Defined Encoder
Selected bitrate : 768 kBit/s
Quality : High
Add ID3 tag : No
Command line compressor : C:\Program Files (x86)\Exact Audio Copy\FLAC\FLAC.EXE
Additional command line options : -8 -e -p -V -T "ARTIST=%artist%" -T "TITLE=%title%" -T "ALBUM=%albumtitle%" -T "DATE=%year%" -T "TRACKNUMBER=%tracknr%" -T "GENRE=%genre%" -T "PERFORMER=%albuminterpret%" -T "COMPOSER=%composer%" %haslyrics%–tag-from-file=LYRICS="%lyricsfile%"%haslyrics% -T "ALBUMARTIST=%albumartist%" -T "DISCNUMBER=%cdnumber%" -T "TOTALDISCS=%totalcds%" -T "TOTALTRACKS=%numtracks%" -T "COMMENT=%comment%" %source% -o %dest%


TOC of the extracted CD

Track | Start | Length | Start sector | End sector
––––––––––––––––––––––––––––-
1 | 0:00.00 | 7:45.46 | 0 | 34920
2 | 7:45.46 | 3:20.57 | 34921 | 49977
3 | 11:06.28 | 6:45.11 | 49978 | 80363
4 | 17:51.39 | 4:48.13 | 80364 | 101976
5 | 22:39.52 | 6:35.72 | 101977 | 131673
6 | 29:15.49 | 3:59.58 | 131674 | 149656
7 | 33:15.32 | 4:32.19 | 149657 | 170075
8 | 37:47.51 | 8:58.21 | 170076 | 210446
9 | 46:45.72 | 6:01.24 | 210447 | 237545
10 | 52:47.21 | 5:12.11 | 237546 | 260956
11 | 57:59.32 | 4:05.38 | 260957 | 279369


Track 1

Filename G:\__New\_EAC rips\Tom Waits ‎- Broadcast Collection 1973-1978 [boot] (2017) 7cd flac\CD5\01 - Emotional Weather Report.wav

Pre-gap length 0:00:02.00

Peak level 92.1 %
Extraction speed 2.9 X
Track quality 100.0 %
Test CRC 5D48E88A
Copy CRC 5D48E88A
Accurately ripped (confidence 5) [03FBABEA] (AR v2)
Copy OK

Track 2

Filename G:\__New\_EAC rips\Tom Waits ‎- Broadcast Collection 1973-1978 [boot] (2017) 7cd flac\CD5\02 - A Sight For Sore Eyes.wav

Peak level 85.5 %
Extraction speed 2.9 X
Track quality 100.0 %
Test CRC 2108FC4B
Copy CRC 2108FC4B
Accurately ripped (confidence 5) [672C97D3] (AR v2)
Copy OK

Track 3

Filename G:\__New\_EAC rips\Tom Waits ‎- Broadcast Collection 1973-1978 [boot] (2017) 7cd flac\CD5\03 - Step Right Up.wav

Peak level 86.8 %
Extraction speed 3.4 X
Track quality 100.0 %
Test CRC D455FEA0
Copy CRC D455FEA0
Accurately ripped (confidence 5) [E42A8CD3] (AR v2)
Copy OK

Track 4

Filename G:\__New\_EAC rips\Tom Waits ‎- Broadcast Collection 1973-1978 [boot] (2017) 7cd flac\CD5\04 - Eggs and Sausage,Invitation To The Blues.wav

Peak level 92.2 %
Extraction speed 3.2 X
Track quality 99.9 %
Test CRC 0F66C7B6
Copy CRC 0F66C7B6
Accurately ripped (confidence 5) [7D983DE3] (AR v2)
Copy OK

Track 5

Filename G:\__New\_EAC rips\Tom Waits ‎- Broadcast Collection 1973-1978 [boot] (2017) 7cd flac\CD5\05 - Jitterbug Boys.wav

Peak level 88.1 %
Extraction speed 3.9 X
Track quality 100.0 %
Test CRC ABFF4486
Copy CRC ABFF4486
Accurately ripped (confidence 5) [4374D9F7] (AR v2)
Copy OK

Track 6

Filename G:\__New\_EAC rips\Tom Waits ‎- Broadcast Collection 1973-1978 [boot] (2017) 7cd flac\CD5\06 - Diamonds On My Windshield.wav

Peak level 92.4 %
Extraction speed 3.9 X
Track quality 100.0 %
Test CRC EE26C0B6
Copy CRC EE26C0B6
Accurately ripped (confidence 5) [DC0DEC50] (AR v2)
Copy OK

Track 7

Filename G:\__New\_EAC rips\Tom Waits ‎- Broadcast Collection 1973-1978 [boot] (2017) 7cd flac\CD5\07 - San Diego Serenade.wav

Peak level 71.8 %
Extraction speed 3.8 X
Track quality 99.9 %
Test CRC E71FC62C
Copy CRC E71FC62C
Accurately ripped (confidence 5) [34595AD0] (AR v2)
Copy OK

Track 8

Filename G:\__New\_EAC rips\Tom Waits ‎- Broadcast Collection 1973-1978 [boot] (2017) 7cd flac\CD5\08 - Tom Traubert's Blues.wav

Pre-gap length 0:00:02.22

Peak level 72.4 %
Extraction speed 4.7 X
Track quality 100.0 %
Test CRC 1D56F534
Copy CRC 1D56F534
Accurately ripped (confidence 5) [4D893D1E] (AR v2)
Copy OK

Track 9

Filename G:\__New\_EAC rips\Tom Waits ‎- Broadcast Collection 1973-1978 [boot] (2017) 7cd flac\CD5\09 - New Coat Of Paint.wav

Peak level 89.5 %
Extraction speed 4.8 X
Track quality 100.0 %
Test CRC CB5945DF
Copy CRC CB5945DF
Accurately ripped (confidence 5) [C0A2AE5E] (AR v2)
Copy OK

Track 10

Filename G:\__New\_EAC rips\Tom Waits ‎- Broadcast Collection 1973-1978 [boot] (2017) 7cd flac\CD5\10 - The Piano Has Been Drinking.wav

Peak level 92.1 %
Extraction speed 4.9 X
Track quality 100.0 %
Test CRC 0536550C
Copy CRC 0536550C
Accurately ripped (confidence 5) [62CC348C] (AR v2)
Copy OK

Track 11

Filename G:\__New\_EAC rips\Tom Waits ‎- Broadcast Collection 1973-1978 [boot] (2017) 7cd flac\CD5\11 - I Can't Wait To Get Off Work.wav

Peak level 92.2 %
Extraction speed 4.9 X
Track quality 100.0 %
Test CRC 64CA462D
Copy CRC 64CA462D
Accurately ripped (confidence 5) [F9BAB88F] (AR v2)
Copy OK


All tracks accurately ripped

No errors occurred

End of status report

–– CUETools DB Plugin V2.1.6

[CTDB TOCID: x.L1GF0y3wi2RfOgBP8ddJAB95Q-] found
Submit result: already submitted
Track | CTDB Status
1 | (24/24) Accurately ripped
2 | (24/24) Accurately ripped
3 | (24/24) Accurately ripped
4 | (23/24) Accurately ripped
5 | (23/24) Accurately ripped
6 | (23/24) Accurately ripped
7 | (23/24) Accurately ripped
8 | (23/24) Accurately ripped
9 | (23/24) Accurately ripped
10 | (23/24) Accurately ripped
11 | (23/24) Accurately ripped


==== Log checksum E91316D8C3AD2A2EDF5597EF4000488A14596A45C366E8953B222DFF08783312 ====


Disc 6 Boston, WBCN-FM 10/05/1977

01. WBCN Intro
02. Standing On The Corner
03. Muriel
04. Invitation To The Blues
05. Eggs & Sausage
06. Pasties & A G-String
07. I Never Talk To Strangers
08. Fumblin' With The Blues
09. The Piano Has Been Drinking (Not Me)
10. Small Change
11. I Can't Wait To Get Off Work
12. Bad Liver & A Broken Liver
13. Step Right Up
14. San Diego Serenade
15. WBCN Announcer
16. A Sight For Sore Eyes
17. WBCN Announcer
18. Big Joe And Phantom 309
19. WBCN Outro

Exact Audio Copy V1.3 from 2. September 2016

EAC extraction logfile from 22. December 2018, 16:48

Tom Waits / Boston, '77

Used drive : SONY DVD RW AD-7280S Adapter: 1 ID: 1

Read mode : Secure
Utilize accurate stream : Yes
Defeat audio cache : Yes
Make use of C2 pointers : No

Read offset correction : 48
Overread into Lead-In and Lead-Out : No
Fill up missing offset samples with silence : Yes
Delete leading and trailing silent blocks : No
Null samples used in CRC calculations : Yes
Used interface : Native Win32 interface for Win NT & 2000
Gap handling : Appended to previous track

Used output format : User Defined Encoder
Selected bitrate : 768 kBit/s
Quality : High
Add ID3 tag : No
Command line compressor : C:\Program Files (x86)\Exact Audio Copy\FLAC\FLAC.EXE
Additional command line options : -8 -e -p -V -T "ARTIST=%artist%" -T "TITLE=%title%" -T "ALBUM=%albumtitle%" -T "DATE=%year%" -T "TRACKNUMBER=%tracknr%" -T "GENRE=%genre%" -T "PERFORMER=%albuminterpret%" -T "COMPOSER=%composer%" %haslyrics%–tag-from-file=LYRICS="%lyricsfile%"%haslyrics% -T "ALBUMARTIST=%albumartist%" -T "DISCNUMBER=%cdnumber%" -T "TOTALDISCS=%totalcds%" -T "TOTALTRACKS=%numtracks%" -T "COMMENT=%comment%" %source% -o %dest%


TOC of the extracted CD

Track | Start | Length | Start sector | End sector
––––––––––––––––––––––––––––-
1 | 0:00.00 | 0:28.63 | 0 | 2162
2 | 0:28.63 | 5:48.63 | 2163 | 28325
3 | 6:17.51 | 3:56.09 | 28326 | 46034
4 | 10:13.60 | 3:19.04 | 46035 | 60963
5 | 13:32.64 | 4:53.74 | 60964 | 83012
6 | 18:26.63 | 6:31.70 | 83013 | 112407
7 | 24:58.58 | 3:24.27 | 112408 | 127734
8 | 28:23.10 | 2:39.05 | 127735 | 139664
9 | 31:02.15 | 3:56.67 | 139665 | 157431
10 | 34:59.07 | 7:19.59 | 157432 | 190415
11 | 42:18.66 | 3:26.31 | 190416 | 205896
12 | 45:45.22 | 4:49.05 | 205897 | 227576
13 | 50:34.27 | 5:56.07 | 227577 | 254283
14 | 56:30.34 | 5:03.54 | 254284 | 277062
15 | 61:34.13 | 1:21.28 | 277063 | 283165
16 | 62:55.41 | 4:56.45 | 283166 | 305410
17 | 67:52.11 | 1:51.12 | 305411 | 313747
18 | 69:43.23 | 6:16.13 | 313748 | 341960
19 | 75:59.36 | 0:47.50 | 341961 | 345535


Track 1

Filename G:\__New\_EAC rips\Tom Waits ‎- Broadcast Collection 1973-1978 [boot] (2017) 7cd flac\CD6\01 - WBCN Intro.wav

Pre-gap length 0:00:02.00

Peak level 91.4 %
Extraction speed 0.7 X
Track quality 99.6 %
Test CRC BAD235E4
Copy CRC BAD235E4
Accurately ripped (confidence 1) [80A2F2D5] (AR v2)
Copy OK

Track 2

Filename G:\__New\_EAC rips\Tom Waits ‎- Broadcast Collection 1973-1978 [boot] (2017) 7cd flac\CD6\02 - Standing On The Corner.wav

Peak level 99.9 %
Extraction speed 2.7 X
Track quality 100.0 %
Test CRC 1C17FBC2
Copy CRC 1C17FBC2
Accurately ripped (confidence 1) [0AF1FA8A] (AR v2)
Copy OK

Track 3

Filename G:\__New\_EAC rips\Tom Waits ‎- Broadcast Collection 1973-1978 [boot] (2017) 7cd flac\CD6\03 - Muriel.wav

Peak level 99.9 %
Extraction speed 2.9 X
Track quality 100.0 %
Test CRC 63CD14D5
Copy CRC 63CD14D5
Accurately ripped (confidence 1) [DB79EA76] (AR v2)
Copy OK

Track 4

Filename G:\__New\_EAC rips\Tom Waits ‎- Broadcast Collection 1973-1978 [boot] (2017) 7cd flac\CD6\04 - Invitation To The Blues.wav

Peak level 99.9 %
Extraction speed 3.0 X
Track quality 100.0 %
Test CRC 1B0FC3FC
Copy CRC 1B0FC3FC
Accurately ripped (confidence 1) [AD629DFE] (AR v2)
Copy OK

Track 5

Filename G:\__New\_EAC rips\Tom Waits ‎- Broadcast Collection 1973-1978 [boot] (2017) 7cd flac\CD6\05 - Eggs And Sausage.wav

Peak level 99.9 %
Extraction speed 3.4 X
Track quality 100.0 %
Test CRC E71BD7CF
Copy CRC E71BD7CF
Accurately ripped (confidence 1) [606C8541] (AR v2)
Copy OK

Track 6

Filename G:\__New\_EAC rips\Tom Waits ‎- Broadcast Collection 1973-1978 [boot] (2017) 7cd flac\CD6\06 - Pasties And A G String.wav

Peak level 99.9 %
Extraction speed 3.8 X
Track quality 100.0 %
Test CRC D85C3575
Copy CRC D85C3575
Accurately ripped (confidence 1) [CF6B11FB] (AR v2)
Copy OK

Track 7

Filename G:\__New\_EAC rips\Tom Waits ‎- Broadcast Collection 1973-1978 [boot] (2017) 7cd flac\CD6\07 - I Never Talk To Strangers.wav

Peak level 91.1 %
Extraction speed 3.7 X
Track quality 100.0 %
Test CRC B9299B41
Copy CRC B9299B41
Accurately ripped (confidence 1) [4E04AB57] (AR v2)
Copy OK

Track 8

Filename G:\__New\_EAC rips\Tom Waits ‎- Broadcast Collection 1973-1978 [boot] (2017) 7cd flac\CD6\08 - Fumblin' With The Blues.wav

Peak level 99.9 %
Extraction speed 3.6 X
Track quality 100.0 %
Test CRC D658ACD9
Copy CRC D658ACD9
Accurately ripped (confidence 1) [DF46CFC5] (AR v2)
Copy OK

Track 9

Filename G:\__New\_EAC rips\Tom Waits ‎- Broadcast Collection 1973-1978 [boot] (2017) 7cd flac\CD6\09 - The Piano Has Been Drinking (Not Me).wav

Peak level 96.3 %
Extraction speed 4.0 X
Track quality 100.0 %
Test CRC B6B94D51
Copy CRC B6B94D51
Accurately ripped (confidence 1) [700CF209] (AR v2)
Copy OK

Track 10

Filename G:\__New\_EAC rips\Tom Waits ‎- Broadcast Collection 1973-1978 [boot] (2017) 7cd flac\CD6\10 - Small Change.wav

Peak level 99.1 %
Extraction speed 4.5 X
Track quality 100.0 %
Test CRC 05BEA8B8
Copy CRC 05BEA8B8
Accurately ripped (confidence 1) [E07F1E6F] (AR v2)
Copy OK

Track 11

Filename G:\__New\_EAC rips\Tom Waits ‎- Broadcast Collection 1973-1978 [boot] (2017) 7cd flac\CD6\11 - I Can't Wait To Get Off Work.wav

Peak level 98.5 %
Extraction speed 4.4 X
Track quality 100.0 %
Test CRC 07A94077
Copy CRC 07A94077
Accurately ripped (confidence 1) [1A96388B] (AR v2)
Copy OK

Track 12

Filename G:\__New\_EAC rips\Tom Waits ‎- Broadcast Collection 1973-1978 [boot] (2017) 7cd flac\CD6\12 - Bad Liver And A Broken Heart.wav

Peak level 92.3 %
Extraction speed 4.7 X
Track quality 100.0 %
Test CRC 588AD9F5
Copy CRC 588AD9F5
Accurately ripped (confidence 1) [58215112] (AR v2)
Copy OK

Track 13

Filename G:\__New\_EAC rips\Tom Waits ‎- Broadcast Collection 1973-1978 [boot] (2017) 7cd flac\CD6\13 - Step Right Up.wav

Peak level 99.9 %
Extraction speed 5.0 X
Track quality 100.0 %
Test CRC 942622B6
Copy CRC 942622B6
Accurately ripped (confidence 1) [3C969F41] (AR v2)
Copy OK

Track 14

Filename G:\__New\_EAC rips\Tom Waits ‎- Broadcast Collection 1973-1978 [boot] (2017) 7cd flac\CD6\14 - San Diego Serenade.wav

Peak level 99.9 %
Extraction speed 5.1 X
Track quality 100.0 %
Test CRC A6375C2E
Copy CRC A6375C2E
Accurately ripped (confidence 1) [0DFE3D87] (AR v2)
Copy OK

Track 15

Filename G:\__New\_EAC rips\Tom Waits ‎- Broadcast Collection 1973-1978 [boot] (2017) 7cd flac\CD6\15 - Encore 1 Cheering.wav

Peak level 89.9 %
Extraction speed 4.0 X
Track quality 100.0 %
Test CRC BCC9C695
Copy CRC BCC9C695
Accurately ripped (confidence 1) [EA0BA070] (AR v2)
Copy OK

Track 16

Filename G:\__New\_EAC rips\Tom Waits ‎- Broadcast Collection 1973-1978 [boot] (2017) 7cd flac\CD6\16 - A Sight For Sore Eyes.wav

Peak level 61.9 %
Extraction speed 5.3 X
Track quality 100.0 %
Test CRC D2FE6D1D
Copy CRC D2FE6D1D
Accurately ripped (confidence 1) [42263C51] (AR v2)
Copy OK

Track 17

Filename G:\__New\_EAC rips\Tom Waits ‎- Broadcast Collection 1973-1978 [boot] (2017) 7cd flac\CD6\17 - Encore 2 Cheering.wav

Peak level 72.7 %
Extraction speed 4.5 X
Track quality 100.0 %
Test CRC BD146AB7
Copy CRC BD146AB7
Accurately ripped (confidence 1) [DA19FACC] (AR v2)
Copy OK

Track 18

Filename G:\__New\_EAC rips\Tom Waits ‎- Broadcast Collection 1973-1978 [boot] (2017) 7cd flac\CD6\18 - Big Joe And Phantom 309.wav

Peak level 97.7 %
Extraction speed 5.2 X
Track quality 99.9 %
Test CRC 779738AA
Copy CRC 779738AA
Accurately ripped (confidence 1) [3B595F4E] (AR v2)
Copy OK

Track 19

Filename G:\__New\_EAC rips\Tom Waits ‎- Broadcast Collection 1973-1978 [boot] (2017) 7cd flac\CD6\19 - WBCN Outro.wav

Peak level 80.2 %
Extraction speed 3.5 X
Track quality 100.0 %
Test CRC 759256AB
Copy CRC 759256AB
Accurately ripped (confidence 1) [9A2460C2] (AR v2)
Copy OK


All tracks accurately ripped

No errors occurred

End of status report

–– CUETools DB Plugin V2.1.6

[CTDB TOCID: DdWztbntvTeMrWVMASG7eukpVuE-] found
Submit result: DdWztbntvTeMrWVMASG7eukpVuE- has been confirmed
Track | CTDB Status
1 | (8/8) Accurately ripped
2 | (8/8) Accurately ripped
3 | (8/8) Accurately ripped
4 | (8/8) Accurately ripped
5 | (8/8) Accurately ripped
6 | (8/8) Accurately ripped
7 | (8/8) Accurately ripped
8 | (8/8) Accurately ripped
9 | (8/8) Accurately ripped
10 | (8/8) Accurately ripped
11 | (8/8) Accurately ripped
12 | (8/8) Accurately ripped
13 | (8/8) Accurately ripped
14 | (8/8) Accurately ripped
15 | (8/8) Accurately ripped
16 | (8/8) Accurately ripped
17 | (8/8) Accurately ripped
18 | (8/8) Accurately ripped
19 | (8/8) Accurately ripped


==== Log checksum 085A4EC032580026739E50630AF2703076056545E4394754D2333D9197F861B9 ====


Disc 7 Austin City Limits 12/05/1978

01. Burma Shave>Summertime
02. Annie's Back In Town>I Wish I Was In New Orleans
03. A Sweet Little Bullet From A Pretty Blue Gun
04. On The Nickel
05. Romeo Is Bleeding
06. Silent Night>Christmas Card From A Hooker In Minneapolis>Silent Night (Reprise)
07. Small Change

Exact Audio Copy V1.3 from 2. September 2016

EAC extraction logfile from 22. December 2018, 17:21

Tom Waits / Austin, '78

Used drive : SONY DVD RW AD-7280S Adapter: 1 ID: 1

Read mode : Secure
Utilize accurate stream : Yes
Defeat audio cache : Yes
Make use of C2 pointers : No

Read offset correction : 48
Overread into Lead-In and Lead-Out : No
Fill up missing offset samples with silence : Yes
Delete leading and trailing silent blocks : No
Null samples used in CRC calculations : Yes
Used interface : Native Win32 interface for Win NT & 2000
Gap handling : Appended to previous track

Used output format : User Defined Encoder
Selected bitrate : 768 kBit/s
Quality : High
Add ID3 tag : No
Command line compressor : C:\Program Files (x86)\Exact Audio Copy\FLAC\FLAC.EXE
Additional command line options : -8 -e -p -V -T "ARTIST=%artist%" -T "TITLE=%title%" -T "ALBUM=%albumtitle%" -T "DATE=%year%" -T "TRACKNUMBER=%tracknr%" -T "GENRE=%genre%" -T "PERFORMER=%albuminterpret%" -T "COMPOSER=%composer%" %haslyrics%–tag-from-file=LYRICS="%lyricsfile%"%haslyrics% -T "ALBUMARTIST=%albumartist%" -T "DISCNUMBER=%cdnumber%" -T "TOTALDISCS=%totalcds%" -T "TOTALTRACKS=%numtracks%" -T "COMMENT=%comment%" %source% -o %dest%


TOC of the extracted CD

Track | Start | Length | Start sector | End sector
––––––––––––––––––––––––––––-
1 | 0:00.00 | 11:23.16 | 0 | 51240
2 | 11:23.16 | 7:35.37 | 51241 | 85402
3 | 18:58.53 | 7:42.36 | 85403 | 120088
4 | 26:41.14 | 6:08.52 | 120089 | 147740
5 | 32:49.66 | 5:08.42 | 147741 | 170882
6 | 37:58.33 | 5:51.23 | 170883 | 197230
7 | 43:49.56 | 9:39.12 | 197231 | 240667


Track 1

Filename G:\__New\_EAC rips\Tom Waits ‎- Broadcast Collection 1973-1978 [boot] (2017) 7cd flac\CD7\01 - Burma Shave ] Summertime.wav

Pre-gap length 0:00:02.00

Peak level 100.0 %
Extraction speed 5.3 X
Track quality 100.0 %
Test CRC B4DD02CE
Copy CRC B4DD02CE
Accurately ripped (confidence 1) [02A86150] (AR v2)
Copy OK

Track 2

Filename G:\__New\_EAC rips\Tom Waits ‎- Broadcast Collection 1973-1978 [boot] (2017) 7cd flac\CD7\02 - Annie's Back In Town ] I Wish I Was In New Orleans.wav

Peak level 100.0 %
Extraction speed 5.1 X
Track quality 99.9 %
Test CRC 9C3A589F
Copy CRC 9C3A589F
Accurately ripped (confidence 1) [05FC6EF4] (AR v2)
Copy OK

Track 3

Filename G:\__New\_EAC rips\Tom Waits ‎- Broadcast Collection 1973-1978 [boot] (2017) 7cd flac\CD7\03 - A Sweet Little Bullet From A Pretty Blue Gun.wav

Peak level 98.6 %
Extraction speed 5.6 X
Track quality 99.9 %
Test CRC F6940E3D
Copy CRC F6940E3D
Accurately ripped (confidence 1) [F70086DD] (AR v2)
Copy OK

Track 4

Filename G:\__New\_EAC rips\Tom Waits ‎- Broadcast Collection 1973-1978 [boot] (2017) 7cd flac\CD7\04 - On The Nickel.wav

Peak level 96.7 %
Extraction speed 7.4 X
Track quality 100.0 %
Test CRC DD3BF6F9
Copy CRC DD3BF6F9
Accurately ripped (confidence 1) [7C3C3E96] (AR v2)
Copy OK

Track 5

Filename G:\__New\_EAC rips\Tom Waits ‎- Broadcast Collection 1973-1978 [boot] (2017) 7cd flac\CD7\05 - Romeo Is Bleeding.wav

Peak level 100.0 %
Extraction speed 7.8 X
Track quality 100.0 %
Test CRC C50C8909
Copy CRC C50C8909
Accurately ripped (confidence 1) [EAF1CF39] (AR v2)
Copy OK

Track 6

Filename G:\__New\_EAC rips\Tom Waits ‎- Broadcast Collection 1973-1978 [boot] (2017) 7cd flac\CD7\06 - Silent Night ] Christmas Card From A Hooker In Minneapolis.wav

Peak level 68.2 %
Extraction speed 8.4 X
Track quality 100.0 %
Test CRC FB3C81DC
Copy CRC FB3C81DC
Accurately ripped (confidence 1) [AC10E83E] (AR v2)
Copy OK

Track 7

Filename G:\__New\_EAC rips\Tom Waits ‎- Broadcast Collection 1973-1978 [boot] (2017) 7cd flac\CD7\07 - Small Change.wav

Peak level 79.4 %
Extraction speed 8.9 X
Track quality 100.0 %
Test CRC 90163BF3
Copy CRC 90163BF3
Accurately ripped (confidence 1) [5D238085] (AR v2)
Copy OK


All tracks accurately ripped

No errors occurred

End of status report

–– CUETools DB Plugin V2.1.6

[CTDB TOCID: JrCu8ziv4Jfg1HdCvUSkpxs8338-] found
Submit result: JrCu8ziv4Jfg1HdCvUSkpxs8338- has been confirmed
Track | CTDB Status
1 | (4/4) Accurately ripped
2 | (4/4) Accurately ripped
3 | (4/4) Accurately ripped
4 | (4/4) Accurately ripped
5 | (4/4) Accurately ripped
6 | (4/4) Accurately ripped
7 | (4/4) Accurately ripped


==== Log checksum DC04083BC57717A52AFAA44FC0EFC1E05A03EABC3ED58A81E1174B4671353960 ====


All thanks go to the original releaser