Subcategories

Tom Waits - The Archives: FM Radio Broadcasts From The 1970s To 1990s (2018)

Posted By: Pisulik
Tom Waits - The Archives: FM Radio Broadcasts From The 1970s To 1990s (2018)

Tom Waits - The Archives: FM Radio Broadcasts From The 1970s To 1990s (2018)
EAC Rip | FLAC (Tracks) +cue, log, artworks - 999 MB | 03:04:33
Rock, Blues, Jazz, Folk | Label: The Broadcast Archive

Triple CD Set featuring broadcast recordings from 1977 to 1999. Still the most challenging music artist of the rock age to have gained notable mainstream success, Tom Waits continues to produce a formidable sound while still attracting huge numbers of fans. This triple CD box celebrates the longevity and quality of Tom’s career to date and features three CDs each containing a different live performance, each broadcast across FM radio at the time. Kicking off on Disc One with Waits’ show at the famous Agora Ballroom in Cleveland, Ohio, on 25th October 1977, recorded while out promoting his Foreign Affairs album. Disc Two continues the set with Tom’s performance at the State Theatre, Sydney, Australia, in March 1979, this time in support of Blue Valentine, which had been released the September before. Concluding the collection, Disc Three features Tom Waits in concert at The Orpheum Theatre, in Vancouver, Canada, recorded on 17th October 1999, as part of his Get Behind The Mule Tour.

TRACKLIST

Disk: 1 - A Small Affair In Ohio: FM radio Broadcast, live In Cleveland, 1977

01. Standing on the Corner
02. I Never Talk To Strangers
03. The One That Got Away
04. Depot, Depot
05. Jitterbug Boy
06. Step Right Up
07. Invitation to the Blues
08. Eggs & Sausage
09. Small Change
10. I Can't Wait To Get Off Work

Exact Audio Copy V1.3 from 2. September 2016

EAC extraction logfile from 24. December 2018, 21:22

Tom Waits / A Small Affair in Ohio

Used drive : SONY DVD RW AD-7280S Adapter: 1 ID: 1

Read mode : Secure
Utilize accurate stream : Yes
Defeat audio cache : Yes
Make use of C2 pointers : No

Read offset correction : 48
Overread into Lead-In and Lead-Out : No
Fill up missing offset samples with silence : Yes
Delete leading and trailing silent blocks : No
Null samples used in CRC calculations : Yes
Used interface : Native Win32 interface for Win NT & 2000
Gap handling : Appended to previous track

Used output format : User Defined Encoder
Selected bitrate : 768 kBit/s
Quality : High
Add ID3 tag : No
Command line compressor : C:\Program Files (x86)\Exact Audio Copy\FLAC\FLAC.EXE
Additional command line options : -8 -e -p -V -T "ARTIST=%artist%" -T "TITLE=%title%" -T "ALBUM=%albumtitle%" -T "DATE=%year%" -T "TRACKNUMBER=%tracknr%" -T "GENRE=%genre%" -T "PERFORMER=%albuminterpret%" -T "COMPOSER=%composer%" %haslyrics%–tag-from-file=LYRICS="%lyricsfile%"%haslyrics% -T "ALBUMARTIST=%albumartist%" -T "DISCNUMBER=%cdnumber%" -T "TOTALDISCS=%totalcds%" -T "TOTALTRACKS=%numtracks%" -T "COMMENT=%comment%" %source% -o %dest%


TOC of the extracted CD

Track | Start | Length | Start sector | End sector
––––––––––––––––––––––––––––-
1 | 0:00.00 | 5:59.20 | 0 | 26944
2 | 5:59.20 | 3:45.13 | 26945 | 43832
3 | 9:44.33 | 5:25.59 | 43833 | 68266
4 | 15:10.17 | 3:44.49 | 68267 | 85115
5 | 18:54.66 | 6:02.70 | 85116 | 112335
6 | 24:57.61 | 6:12.00 | 112336 | 140235
7 | 31:09.61 | 4:24.37 | 140236 | 160072
8 | 35:34.23 | 4:45.68 | 160073 | 181515
9 | 40:20.16 | 6:30.30 | 181516 | 210795
10 | 46:50.46 | 4:43.29 | 210796 | 232049


Track 1

Filename G:\__New\_EAC rips\Tom Waits ‎- The Archives [boot] (2018) 3cd flac\CD1\01 - Standing On The Corner.wav

Pre-gap length 0:00:02.00

Peak level 100.0 %
Extraction speed 2.5 X
Track quality 100.0 %
Test CRC 5E31F1C5
Copy CRC 5E31F1C5
Accurately ripped (confidence 4) [BEADF826] (AR v2)
Copy OK

Track 2

Filename G:\__New\_EAC rips\Tom Waits ‎- The Archives [boot] (2018) 3cd flac\CD1\02 - I Never Talk To Strangers.wav

Peak level 93.9 %
Extraction speed 2.7 X
Track quality 100.0 %
Test CRC 34A61751
Copy CRC 34A61751
Accurately ripped (confidence 4) [884198CD] (AR v2)
Copy OK

Track 3

Filename G:\__New\_EAC rips\Tom Waits ‎- The Archives [boot] (2018) 3cd flac\CD1\03 - The One That Got Away.wav

Peak level 99.9 %
Extraction speed 3.1 X
Track quality 100.0 %
Test CRC B8643524
Copy CRC B8643524
Accurately ripped (confidence 4) [072EC7F0] (AR v2)
Copy OK

Track 4

Filename G:\__New\_EAC rips\Tom Waits ‎- The Archives [boot] (2018) 3cd flac\CD1\04 - Depot Depot.wav

Peak level 100.0 %
Extraction speed 3.2 X
Track quality 100.0 %
Test CRC FDF5988A
Copy CRC FDF5988A
Accurately ripped (confidence 4) [EB4DFC58] (AR v2)
Copy OK

Track 5

Filename G:\__New\_EAC rips\Tom Waits ‎- The Archives [boot] (2018) 3cd flac\CD1\05 - Jitterbug Boy.wav

Peak level 98.8 %
Extraction speed 3.5 X
Track quality 100.0 %
Test CRC D161195E
Copy CRC D161195E
Accurately ripped (confidence 4) [7FE9F7E0] (AR v2)
Copy OK

Track 6

Filename G:\__New\_EAC rips\Tom Waits ‎- The Archives [boot] (2018) 3cd flac\CD1\06 - Step Right Up.wav

Peak level 100.0 %
Extraction speed 3.9 X
Track quality 100.0 %
Test CRC 7476114E
Copy CRC 7476114E
Accurately ripped (confidence 4) [EF7585D7] (AR v2)
Copy OK

Track 7

Filename G:\__New\_EAC rips\Tom Waits ‎- The Archives [boot] (2018) 3cd flac\CD1\07 - Invitation To The Blues.wav

Peak level 94.4 %
Extraction speed 4.0 X
Track quality 100.0 %
Test CRC 516C3170
Copy CRC 516C3170
Accurately ripped (confidence 4) [912CF912] (AR v2)
Copy OK

Track 8

Filename G:\__New\_EAC rips\Tom Waits ‎- The Archives [boot] (2018) 3cd flac\CD1\08 - Eggs and Sausage.wav

Peak level 100.0 %
Extraction speed 4.2 X
Track quality 100.0 %
Test CRC FDFAD19D
Copy CRC FDFAD19D
Accurately ripped (confidence 4) [2362674A] (AR v2)
Copy OK

Track 9

Filename G:\__New\_EAC rips\Tom Waits ‎- The Archives [boot] (2018) 3cd flac\CD1\09 - Small Change.wav

Peak level 93.9 %
Extraction speed 4.1 X
Track quality 99.9 %
Test CRC 5B02387C
Copy CRC 5B02387C
Accurately ripped (confidence 4) [53494E27] (AR v2)
Copy OK

Track 10

Filename G:\__New\_EAC rips\Tom Waits ‎- The Archives [boot] (2018) 3cd flac\CD1\10 - I Can't Wait To Get Off Work.wav

Peak level 100.0 %
Extraction speed 4.6 X
Track quality 100.0 %
Test CRC 583221A7
Copy CRC 583221A7
Accurately ripped (confidence 4) [32D11CE3] (AR v2)
Copy OK


All tracks accurately ripped

No errors occurred

End of status report

–– CUETools DB Plugin V2.1.6

[CTDB TOCID: bMxqQbz2qVcX6kUPqPd.QXkfkds-] found
Submit result: bMxqQbz2qVcX6kUPqPd.QXkfkds- has been confirmed
Track | CTDB Status
1 | (23/23) Accurately ripped
2 | (22/23) Accurately ripped
3 | (23/23) Accurately ripped
4 | (23/23) Accurately ripped
5 | (23/23) Accurately ripped
6 | (23/23) Accurately ripped
7 | (23/23) Accurately ripped
8 | (23/23) Accurately ripped
9 | (23/23) Accurately ripped
10 | (23/23) Accurately ripped


==== Log checksum D5590FF465B5B5B44B005278D24026A97DD11F2EB94E8281508E76749B4EFCDD ====


Disk: 2 - Cold Beer On A Hot Night: Sydney Broadcast 1979

01. Romeo Is Bleeding
02. Annie's Back In Town
03. Jitterbug Boy/Better Off Without A Wife
04. I Wish I Was In New Orleans
05. Since I Fell For You
06. Red Shoes By The Drugstore
07. Silent Night/Christmas Card From A Hooker In Minneapolis
08. Do The Hokey Pokey/Pasties And A G - String
09. Summertime/Burma Shave
10. Band Introduction/Talk
11. Tom Traubert's Blues
12. Small Change/Big Spender

Exact Audio Copy V1.3 from 2. September 2016

EAC extraction logfile from 24. December 2018, 22:39

Tom Waits / Cold Beer on a Hot Night

Used drive : SONY DVD RW AD-7280S Adapter: 1 ID: 1

Read mode : Secure
Utilize accurate stream : Yes
Defeat audio cache : Yes
Make use of C2 pointers : No

Read offset correction : 48
Overread into Lead-In and Lead-Out : No
Fill up missing offset samples with silence : Yes
Delete leading and trailing silent blocks : No
Null samples used in CRC calculations : Yes
Used interface : Native Win32 interface for Win NT & 2000
Gap handling : Appended to previous track

Used output format : User Defined Encoder
Selected bitrate : 768 kBit/s
Quality : High
Add ID3 tag : No
Command line compressor : C:\Program Files (x86)\Exact Audio Copy\FLAC\FLAC.EXE
Additional command line options : -8 -e -p -V -T "ARTIST=%artist%" -T "TITLE=%title%" -T "ALBUM=%albumtitle%" -T "DATE=%year%" -T "TRACKNUMBER=%tracknr%" -T "GENRE=%genre%" -T "PERFORMER=%albuminterpret%" -T "COMPOSER=%composer%" %haslyrics%–tag-from-file=LYRICS="%lyricsfile%"%haslyrics% -T "ALBUMARTIST=%albumartist%" -T "DISCNUMBER=%cdnumber%" -T "TOTALDISCS=%totalcds%" -T "TOTALTRACKS=%numtracks%" -T "COMMENT=%comment%" %source% -o %dest%


TOC of the extracted CD

Track | Start | Length | Start sector | End sector
––––––––––––––––––––––––––––-
1 | 0:00.00 | 6:39.38 | 0 | 29962
2 | 6:39.38 | 3:02.30 | 29963 | 43642
3 | 9:41.68 | 7:00.70 | 43643 | 75212
4 | 16:42.63 | 5:42.25 | 75213 | 100887
5 | 22:25.13 | 2:33.50 | 100888 | 112412
6 | 24:58.63 | 4:21.50 | 112413 | 132037
7 | 29:20.38 | 6:12.00 | 132038 | 159937
8 | 35:32.38 | 5:23.37 | 159938 | 184199
9 | 40:56.00 | 12:33.50 | 184200 | 240724
10 | 53:29.50 | 3:57.63 | 240725 | 258562
11 | 57:27.38 | 7:35.00 | 258563 | 292687
12 | 65:02.38 | 10:10.37 | 292688 | 338474


Track 1

Filename G:\__New\_EAC rips\Tom Waits ‎- The Archives [boot] (2018) 3cd flac\CD2\01 - Romeo is Bleeding.wav

Pre-gap length 0:00:02.00

Peak level 68.8 %
Extraction speed 4.8 X
Track quality 100.0 %
Test CRC BAE16166
Copy CRC BAE16166
Accurately ripped (confidence 2) [FB4F474F] (AR v2)
Copy OK

Track 2

Filename G:\__New\_EAC rips\Tom Waits ‎- The Archives [boot] (2018) 3cd flac\CD2\02 - Annie's back in Town.wav

Peak level 84.2 %
Extraction speed 5.1 X
Track quality 100.0 %
Test CRC A1694F08
Copy CRC A1694F08
Accurately ripped (confidence 2) [691693B5] (AR v2)
Copy OK

Track 3

Filename G:\__New\_EAC rips\Tom Waits ‎- The Archives [boot] (2018) 3cd flac\CD2\03 - Jitterbug Boy,Better Off Without a Wife.wav

Peak level 81.4 %
Extraction speed 4.9 X
Track quality 99.9 %
Test CRC 27A9FE50
Copy CRC 27A9FE50
Accurately ripped (confidence 2) [DB2FB96C] (AR v2)
Copy OK

Track 4

Filename G:\__New\_EAC rips\Tom Waits ‎- The Archives [boot] (2018) 3cd flac\CD2\04 - I Wish I was in New Orleans.wav

Peak level 86.0 %
Extraction speed 6.8 X
Track quality 100.0 %
Test CRC F8F8CDAD
Copy CRC F8F8CDAD
Accurately ripped (confidence 2) [06C1D4A4] (AR v2)
Copy OK

Track 5

Filename G:\__New\_EAC rips\Tom Waits ‎- The Archives [boot] (2018) 3cd flac\CD2\05 - Since I Fell For You.wav

Peak level 78.1 %
Extraction speed 3.9 X
Track quality 99.9 %
Test CRC 18A91BB9
Copy CRC 18A91BB9
Accurately ripped (confidence 2) [DC024240] (AR v2)
Copy OK

Track 6

Filename G:\__New\_EAC rips\Tom Waits ‎- The Archives [boot] (2018) 3cd flac\CD2\06 - Red Shoes by the Drugstore.wav

Peak level 86.0 %
Extraction speed 7.0 X
Track quality 100.0 %
Test CRC C93E4D0B
Copy CRC C93E4D0B
Accurately ripped (confidence 2) [F6B11C13] (AR v2)
Copy OK

Track 7

Filename G:\__New\_EAC rips\Tom Waits ‎- The Archives [boot] (2018) 3cd flac\CD2\07 - Silent Night,Xmas Card from a Hooker in Minneapolis.wav

Peak level 79.8 %
Extraction speed 7.6 X
Track quality 100.0 %
Test CRC 829F9165
Copy CRC 829F9165
Accurately ripped (confidence 2) [01194B79] (AR v2)
Copy OK

Track 8

Filename G:\__New\_EAC rips\Tom Waits ‎- The Archives [boot] (2018) 3cd flac\CD2\08 - Hokey Cokey.wav

Peak level 94.2 %
Extraction speed 7.9 X
Track quality 100.0 %
Test CRC 43548B5E
Copy CRC 43548B5E
Accurately ripped (confidence 2) [95333E6C] (AR v2)
Copy OK

Track 9

Filename G:\__New\_EAC rips\Tom Waits ‎- The Archives [boot] (2018) 3cd flac\CD2\09 - Pasties and a G String.wav

Peak level 100.0 %
Extraction speed 9.2 X
Track quality 100.0 %
Test CRC 9EFC8FF9
Copy CRC 9EFC8FF9
Accurately ripped (confidence 2) [726BE6E5] (AR v2)
Copy OK

Track 10

Filename G:\__New\_EAC rips\Tom Waits ‎- The Archives [boot] (2018) 3cd flac\CD2\10 - Summertime,Burma Shave.wav

Peak level 91.6 %
Extraction speed 8.6 X
Track quality 100.0 %
Test CRC 477D4CE8
Copy CRC 477D4CE8
Accurately ripped (confidence 2) [0503AFA0] (AR v2)
Copy OK

Track 11

Filename G:\__New\_EAC rips\Tom Waits ‎- The Archives [boot] (2018) 3cd flac\CD2\11 - Tom Traubert's Blues.wav

Peak level 87.2 %
Extraction speed 9.8 X
Track quality 100.0 %
Test CRC 49FFAC2C
Copy CRC 49FFAC2C
Accurately ripped (confidence 2) [AC0E60D6] (AR v2)
Copy OK

Track 12

Filename G:\__New\_EAC rips\Tom Waits ‎- The Archives [boot] (2018) 3cd flac\CD2\12 - Small Change,Hey Big Spender.wav

Peak level 79.5 %
Extraction speed 10.1 X
Track quality 100.0 %
Test CRC E425D3E2
Copy CRC E425D3E2
Accurately ripped (confidence 2) [A117A4CE] (AR v2)
Copy OK


All tracks accurately ripped

No errors occurred

End of status report

–– CUETools DB Plugin V2.1.6

[CTDB TOCID: dtTssAFPYeZAv0.4Mz1Ie_wN.bc-] found
Submit result: dtTssAFPYeZAv0.4Mz1Ie_wN.bc- has been confirmed
Track | CTDB Status
1 | (10/10) Accurately ripped
2 | (10/10) Accurately ripped
3 | (10/10) Accurately ripped
4 | (10/10) Accurately ripped
5 | (10/10) Accurately ripped
6 | (10/10) Accurately ripped
7 | (10/10) Accurately ripped
8 | (10/10) Accurately ripped
9 | (10/10) Accurately ripped
10 | (10/10) Accurately ripped
11 | (10/10) Accurately ripped
12 | (10/10) Accurately ripped


==== Log checksum 7E04C45BBE18C3B99D27E0A09AF1F2CAD79A7C95498F08060E4AE15BAC425EAF ====


Disk: 3 - Like It's 199: Vancouver Broadcast Recording

01. The Black Rider
02. Jockey Full Of Bourbon
03. Jesus Gonna Be Here
04. In The Colosseum
05. Get Behind The Mule
06. Down Down Down
07. Hold On
08. Tango Till They're Sore
09. House Where Nobody Lives
10. Picture In A Frame
11. 16 Shells From A Thirty - Ought
12. I'll Shoot The Moon

Exact Audio Copy V1.3 from 2. September 2016

EAC extraction logfile from 25. December 2018, 0:08

Tom Waits / Like It's 1999

Used drive : SONY DVD RW AD-7280S Adapter: 1 ID: 1

Read mode : Secure
Utilize accurate stream : Yes
Defeat audio cache : Yes
Make use of C2 pointers : No

Read offset correction : 48
Overread into Lead-In and Lead-Out : No
Fill up missing offset samples with silence : Yes
Delete leading and trailing silent blocks : No
Null samples used in CRC calculations : Yes
Used interface : Native Win32 interface for Win NT & 2000
Gap handling : Appended to previous track

Used output format : User Defined Encoder
Selected bitrate : 768 kBit/s
Quality : High
Add ID3 tag : No
Command line compressor : C:\Program Files (x86)\Exact Audio Copy\FLAC\FLAC.EXE
Additional command line options : -8 -e -p -V -T "ARTIST=%artist%" -T "TITLE=%title%" -T "ALBUM=%albumtitle%" -T "DATE=%year%" -T "TRACKNUMBER=%tracknr%" -T "GENRE=%genre%" -T "PERFORMER=%albuminterpret%" -T "COMPOSER=%composer%" %haslyrics%–tag-from-file=LYRICS="%lyricsfile%"%haslyrics% -T "ALBUMARTIST=%albumartist%" -T "DISCNUMBER=%cdnumber%" -T "TOTALDISCS=%totalcds%" -T "TOTALTRACKS=%numtracks%" -T "COMMENT=%comment%" %source% -o %dest%


TOC of the extracted CD

Track | Start | Length | Start sector | End sector
––––––––––––––––––––––––––––-
1 | 0:00.00 | 1:59.65 | 0 | 8989
2 | 1:59.65 | 3:13.24 | 8990 | 23488
3 | 5:13.14 | 4:39.14 | 23489 | 44427
4 | 9:52.28 | 5:03.21 | 44428 | 67173
5 | 14:55.49 | 4:36.43 | 67174 | 87916
6 | 19:32.17 | 5:16.13 | 87917 | 111629
7 | 24:48.30 | 8:55.40 | 111630 | 151794
8 | 33:43.70 | 3:38.56 | 151795 | 168200
9 | 37:22.51 | 6:07.64 | 168201 | 195789
10 | 43:30.40 | 3:09.31 | 195790 | 209995
11 | 46:39.71 | 5:54.09 | 209996 | 236554
12 | 52:34.05 | 5:11.70 | 236555 | 259949


Track 1

Filename G:\__New\_EAC rips\Tom Waits ‎- The Archives [boot] (2018) 3cd flac\CD3\01 - The Black Rider.wav

Pre-gap length 0:00:02.00

Peak level 97.3 %
Extraction speed 1.6 X
Track quality 99.9 %
Test CRC BD171C74
Copy CRC BD171C74
Track not present in AccurateRip database
Copy OK

Track 2

Filename G:\__New\_EAC rips\Tom Waits ‎- The Archives [boot] (2018) 3cd flac\CD3\02 - Jockey Full of Bourbon.wav

Peak level 96.5 %
Extraction speed 2.4 X
Track quality 100.0 %
Test CRC BC79B22F
Copy CRC BC79B22F
Track not present in AccurateRip database
Copy OK

Track 3

Filename G:\__New\_EAC rips\Tom Waits ‎- The Archives [boot] (2018) 3cd flac\CD3\03 - Jesus Gonna Be Here.wav

Peak level 100.0 %
Extraction speed 2.5 X
Track quality 99.9 %
Test CRC C6A40B9C
Copy CRC C6A40B9C
Track not present in AccurateRip database
Copy OK

Track 4

Filename G:\__New\_EAC rips\Tom Waits ‎- The Archives [boot] (2018) 3cd flac\CD3\04 - In the Colosseum.wav

Peak level 100.0 %
Extraction speed 3.0 X
Track quality 100.0 %
Test CRC 872FA586
Copy CRC 872FA586
Track not present in AccurateRip database
Copy OK

Track 5

Filename G:\__New\_EAC rips\Tom Waits ‎- The Archives [boot] (2018) 3cd flac\CD3\05 - Get Behind the Mule.wav

Peak level 100.0 %
Extraction speed 2.9 X
Track quality 99.9 %
Test CRC EC5D2000
Copy CRC EC5D2000
Track not present in AccurateRip database
Copy OK

Track 6

Filename G:\__New\_EAC rips\Tom Waits ‎- The Archives [boot] (2018) 3cd flac\CD3\06 - Down Down Down.wav

Peak level 100.0 %
Extraction speed 3.6 X
Track quality 100.0 %
Test CRC F224D70F
Copy CRC F224D70F
Track not present in AccurateRip database
Copy OK

Track 7

Filename G:\__New\_EAC rips\Tom Waits ‎- The Archives [boot] (2018) 3cd flac\CD3\07 - Hold On.wav

Peak level 89.0 %
Extraction speed 3.8 X
Track quality 99.9 %
Test CRC 5CAB8F72
Copy CRC 5CAB8F72
Track not present in AccurateRip database
Copy OK

Track 8

Filename G:\__New\_EAC rips\Tom Waits ‎- The Archives [boot] (2018) 3cd flac\CD3\08 - Tango Till They're Sore.wav

Peak level 97.2 %
Extraction speed 4.0 X
Track quality 100.0 %
Test CRC 313F70C5
Copy CRC 313F70C5
Track not present in AccurateRip database
Copy OK

Track 9

Filename G:\__New\_EAC rips\Tom Waits ‎- The Archives [boot] (2018) 3cd flac\CD3\09 - House Where Nobody Lives.wav

Peak level 100.0 %
Extraction speed 4.1 X
Track quality 99.9 %
Test CRC 770763B1
Copy CRC 770763B1
Track not present in AccurateRip database
Copy OK

Track 10

Filename G:\__New\_EAC rips\Tom Waits ‎- The Archives [boot] (2018) 3cd flac\CD3\10 - Picture In a Frame.wav

Peak level 100.0 %
Extraction speed 4.2 X
Track quality 100.0 %
Test CRC 77C555C0
Copy CRC 77C555C0
Track not present in AccurateRip database
Copy OK

Track 11

Filename G:\__New\_EAC rips\Tom Waits ‎- The Archives [boot] (2018) 3cd flac\CD3\11 - 16 Shells From a Thirty-Aught Six.wav

Peak level 100.0 %
Extraction speed 4.6 X
Track quality 100.0 %
Test CRC 0AF42A71
Copy CRC 0AF42A71
Track not present in AccurateRip database
Copy OK

Track 12

Filename G:\__New\_EAC rips\Tom Waits ‎- The Archives [boot] (2018) 3cd flac\CD3\12 - I'll Shoot the Moon.wav

Peak level 100.0 %
Extraction speed 4.9 X
Track quality 100.0 %
Test CRC 68490A2F
Copy CRC 68490A2F
Track not present in AccurateRip database
Copy OK


None of the tracks are present in the AccurateRip database

No errors occurred

End of status report

–– CUETools DB Plugin V2.1.6

[CTDB TOCID: 5EZGXD3b95mcuD4eey4R0DaOoAY-] disk not present in database
Submit result: 5EZGXD3b95mcuD4eey4R0DaOoAY- has been uploaded


==== Log checksum BFFFEF36D4C1ADC54F63FE9951E54FF2190E1E86B80A088E6FC101C35F2442B6 ====


All thanks go to the original releaser