Subcategories
Tags
Language
Tags

Tomasz Stanko - Leosia (1997)

Posted By: gribovar
Tomasz Stanko - Leosia (1997)

Tomasz Stanko - Leosia (1997)
XLD Rip | FLAC (tracks+.cue+log) - 312 MB | MP3 CBR 320 kbps (LAME 3.93) - 147 MB | Covers - 18 MB
Genre: Contemporary Jazz | RAR 3% Rec. | Label: ECM Records (ECM 1603)

The second ECM album from this Polish-Swedish-British edition of the Tomasz Stanko Quartet follows the critically-heralded Matka Joanna. As Jazz Journal wrote, 'Trumpeter Stanko's vibrant breadth of tone and poetic feeling for cross-rhythmic drama are second to none.' Leosia marks a further progression, incorporating six first-rate Stanko compositions in his brooding 'Slavic' style, darker than the darkest Miles (and incorporating a tribute to Lautréamont, literature's Count of Darkness), as well as bracing and exploratory duo and trio improvisations, and solos of the higherst calibre by all concerned. The group has an unusual claim on idiomatic completeness; it seems to summarize, in highly original manner, many of the important developments of jazz of the last 30 years. Stanko, however, distances himself from the general drift toward reinterpretation of standards in the 1990s. His bent notes, slurs, smears and violent fanfares are put to the service of a new group music.
Tracklist:
01. Morning Heavy Song
02. Die Weisheit von Le comte Lautréamont
03. A Farewell To Maria
04. Brace
05. Trinity
06. Forlorn Walk
07. Hungry Howl
08. No Bass Trio
09. Euforila
10. Leosia

Total time: 01:02:33

X Lossless Decoder version 20100117 (115.3)

XLD extraction logfile from 2010-04-22 19:08:48 +0100

Various Artists / Leosia

Used drive : TSSTcorp CDDVDW SE-S084C (revision TS00)

Use cdparanoia mode : YES (CDParanoia III 10.2 engine)
Disable audio cache : OK for the drive with cache less than 2750KB
Make use of C2 pointers : NO
Read offset correction : 6
Max retry count : 100

TOC of the extracted CD
Track | Start | Length | Start sector | End sector
––––––––––––––––––––––––––––-
1 | 00:00:00 | 06:45:55 | 0 | 30429
2 | 06:45:55 | 06:11:27 | 30430 | 58281
3 | 12:57:07 | 07:42:50 | 58282 | 92981
4 | 20:39:57 | 04:10:60 | 92982 | 111791
5 | 24:50:42 | 05:05:55 | 111792 | 134721
6 | 29:56:22 | 02:12:63 | 134722 | 144684
7 | 32:09:10 | 09:53:02 | 144685 | 189161
8 | 42:02:12 | 06:02:08 | 189162 | 216319
9 | 48:04:20 | 05:06:15 | 216320 | 239284
10 | 53:10:35 | 09:22:40 | 239285 | 281474

List of alternate offset correction values
# | Absolute | Relative | Confidence
–––––––––––––––––––––
1 | 673 | 667 | 6

All Tracks
Album gain : -1.11 dB
Peak : 0.964996

Track 01
Filename : /Users/slona/Desktop/Tomasz_Stanko-Leosia/01 - Morning Heavy Song.flac
/Users/slona/Desktop/Tomasz_Stanko-Leosia/01 - Morning Heavy Song.mp3

Pre-gap length : 00:02:00

Track gain : -0.34 dB
Peak : 0.853577
CRC32 hash (test run) : AA50EA6B
CRC32 hash : AA50EA6B
CRC32 hash (skip zero) : 45FF80F3
AccurateRip signature : 64E7E87E
->Accurately ripped! (confidence 7)
Statistics
Read error : 0
Skipped (treated as error) : 0
Edge jitter error (maybe fixed) : 1
Atom jitter error (maybe fixed) : 0
Drift error (maybe fixed) : 0
Dropped bytes error (maybe fixed) : 0
Duplicated bytes error (maybe fixed) : 1
Inconsistency in error sectors : 0

Track 02
Filename : /Users/slona/Desktop/Tomasz_Stanko-Leosia/02 - Die Weisheit Von Le Comte Lautréamont.flac
/Users/slona/Desktop/Tomasz_Stanko-Leosia/02 - Die Weisheit Von Le Comte Lautréamont.mp3

Pre-gap length : 00:01:73

Track gain : -2.44 dB
Peak : 0.956573
CRC32 hash (test run) : A7F6F379
CRC32 hash : A7F6F379
CRC32 hash (skip zero) : F60916E6
AccurateRip signature : FCEB8800
->Accurately ripped! (confidence 7)
Statistics
Read error : 0
Skipped (treated as error) : 0
Edge jitter error (maybe fixed) : 2
Atom jitter error (maybe fixed) : 0
Drift error (maybe fixed) : 0
Dropped bytes error (maybe fixed) : 0
Duplicated bytes error (maybe fixed) : 2
Inconsistency in error sectors : 0

Track 03
Filename : /Users/slona/Desktop/Tomasz_Stanko-Leosia/03 - A Farewell To Maria.flac
/Users/slona/Desktop/Tomasz_Stanko-Leosia/03 - A Farewell To Maria.mp3

Pre-gap length : 00:04:20

Track gain : -1.04 dB
Peak : 0.930969
CRC32 hash (test run) : 12E387D1
CRC32 hash : 12E387D1
CRC32 hash (skip zero) : 1604FC43
AccurateRip signature : 73350A87
->Accurately ripped! (confidence 7)
Statistics
Read error : 0
Skipped (treated as error) : 0
Edge jitter error (maybe fixed) : 2
Atom jitter error (maybe fixed) : 1
Drift error (maybe fixed) : 0
Dropped bytes error (maybe fixed) : 0
Duplicated bytes error (maybe fixed) : 2
Inconsistency in error sectors : 0

Track 04
Filename : /Users/slona/Desktop/Tomasz_Stanko-Leosia/04 - Brace.flac
/Users/slona/Desktop/Tomasz_Stanko-Leosia/04 - Brace.mp3

Pre-gap length : 00:01:50

Track gain : 4.47 dB
Peak : 0.808899
CRC32 hash (test run) : 252DE849
CRC32 hash : 252DE849
CRC32 hash (skip zero) : A73C0573
AccurateRip signature : 5BA8F6B5
->Accurately ripped! (confidence 7)
Statistics
Read error : 0
Skipped (treated as error) : 0
Edge jitter error (maybe fixed) : 1
Atom jitter error (maybe fixed) : 0
Drift error (maybe fixed) : 0
Dropped bytes error (maybe fixed) : 0
Duplicated bytes error (maybe fixed) : 1
Inconsistency in error sectors : 0

Track 05
Filename : /Users/slona/Desktop/Tomasz_Stanko-Leosia/05 - Trinity.flac
/Users/slona/Desktop/Tomasz_Stanko-Leosia/05 - Trinity.mp3

Track gain : -1.16 dB
Peak : 0.880096
CRC32 hash (test run) : E3AF5F74
CRC32 hash : E3AF5F74
CRC32 hash (skip zero) : 71105DDC
AccurateRip signature : 44FB4661
->Accurately ripped! (confidence 7)
Statistics
Read error : 0
Skipped (treated as error) : 0
Edge jitter error (maybe fixed) : 2
Atom jitter error (maybe fixed) : 0
Drift error (maybe fixed) : 0
Dropped bytes error (maybe fixed) : 1
Duplicated bytes error (maybe fixed) : 1
Inconsistency in error sectors : 0

Track 06
Filename : /Users/slona/Desktop/Tomasz_Stanko-Leosia/06 - Forlorn Walk.flac
/Users/slona/Desktop/Tomasz_Stanko-Leosia/06 - Forlorn Walk.mp3

Pre-gap length : 00:02:10

Track gain : -3.61 dB
Peak : 0.934692
CRC32 hash (test run) : CAFF5E55
CRC32 hash : CAFF5E55
CRC32 hash (skip zero) : 6FA61A0C
AccurateRip signature : 5DACB43A
->Accurately ripped! (confidence 7)
Statistics
Read error : 0
Skipped (treated as error) : 0
Edge jitter error (maybe fixed) : 2
Atom jitter error (maybe fixed) : 1
Drift error (maybe fixed) : 0
Dropped bytes error (maybe fixed) : 0
Duplicated bytes error (maybe fixed) : 1
Inconsistency in error sectors : 0

Track 07
Filename : /Users/slona/Desktop/Tomasz_Stanko-Leosia/07 - Hungry Howl.flac
/Users/slona/Desktop/Tomasz_Stanko-Leosia/07 - Hungry Howl.mp3

Pre-gap length : 00:01:15

Track gain : -1.19 dB
Peak : 0.928558
CRC32 hash (test run) : EC2448EC
CRC32 hash : EC2448EC
CRC32 hash (skip zero) : BBC23204
AccurateRip signature : C328DA10
->Accurately ripped! (confidence 7)
Statistics
Read error : 0
Skipped (treated as error) : 0
Edge jitter error (maybe fixed) : 2
Atom jitter error (maybe fixed) : 0
Drift error (maybe fixed) : 0
Dropped bytes error (maybe fixed) : 0
Duplicated bytes error (maybe fixed) : 2
Inconsistency in error sectors : 0

Track 08
Filename : /Users/slona/Desktop/Tomasz_Stanko-Leosia/08 - No Bass Trio.flac
/Users/slona/Desktop/Tomasz_Stanko-Leosia/08 - No Bass Trio.mp3

Pre-gap length : 00:01:37

Track gain : 4.11 dB
Peak : 0.709686
CRC32 hash (test run) : 9A3B3E02
CRC32 hash : 9A3B3E02
CRC32 hash (skip zero) : AEDA8AD5
AccurateRip signature : D10E7618
->Accurately ripped! (confidence 7)
Statistics
Read error : 0
Skipped (treated as error) : 0
Edge jitter error (maybe fixed) : 3
Atom jitter error (maybe fixed) : 1
Drift error (maybe fixed) : 0
Dropped bytes error (maybe fixed) : 1
Duplicated bytes error (maybe fixed) : 2
Inconsistency in error sectors : 0

Track 09
Filename : /Users/slona/Desktop/Tomasz_Stanko-Leosia/09 - Euforila.flac
/Users/slona/Desktop/Tomasz_Stanko-Leosia/09 - Euforila.mp3

Pre-gap length : 00:03:35

Track gain : -2.04 dB
Peak : 0.939087
CRC32 hash (test run) : 48FBAE0C
CRC32 hash : 48FBAE0C
CRC32 hash (skip zero) : 3901EDEC
AccurateRip signature : 9E5C76E1
->Accurately ripped! (confidence 7)
Statistics
Read error : 0
Skipped (treated as error) : 0
Edge jitter error (maybe fixed) : 2
Atom jitter error (maybe fixed) : 0
Drift error (maybe fixed) : 0
Dropped bytes error (maybe fixed) : 1
Duplicated bytes error (maybe fixed) : 2
Inconsistency in error sectors : 0

Track 10
Filename : /Users/slona/Desktop/Tomasz_Stanko-Leosia/10 - Leosia.flac
/Users/slona/Desktop/Tomasz_Stanko-Leosia/10 - Leosia.mp3

Track gain : -1.04 dB
Peak : 0.964996
CRC32 hash (test run) : D8DAACAD
CRC32 hash : D8DAACAD
CRC32 hash (skip zero) : A9C837D0
AccurateRip signature : 935DEA7A
->Accurately ripped! (confidence 7)
Statistics
Read error : 0
Skipped (treated as error) : 0
Edge jitter error (maybe fixed) : 1
Atom jitter error (maybe fixed) : 0
Drift error (maybe fixed) : 0
Dropped bytes error (maybe fixed) : 0
Duplicated bytes error (maybe fixed) : 1
Inconsistency in error sectors : 0

No errors occurred

End of status report

[CUETools log; Date: 08.04.2021 0:36:30; Version: 2.1.4]
[CTDB TOCID: 2BGQdZbkA6zIP9lWsfgp0BxcIXg-] found.
Track | CTDB Status
1 | (124/124) Accurately ripped
2 | (124/124) Accurately ripped
3 | (123/124) Accurately ripped
4 | (122/124) Accurately ripped
5 | (124/124) Accurately ripped
6 | (124/124) Accurately ripped
7 | (123/124) Accurately ripped
8 | (122/124) Accurately ripped
9 | (123/124) Accurately ripped
10 | (122/124) Accurately ripped
[AccurateRip ID: 0016dfff-00b624cd-970ea90a] found.
Track [ CRC | V2 ] Status
01 [64e7e87e|acb86381] (10+21/82) Accurately ripped
02 [fceb8800|7f051925] (10+21/83) Accurately ripped
03 [73350a87|5d31495b] (10+21/82) Accurately ripped
04 [5ba8f6b5|6e4822f9] (10+20/82) Accurately ripped
05 [44fb4661|1dcffd0e] (10+21/83) Accurately ripped
06 [5dacb43a|7c877668] (10+21/83) Accurately ripped
07 [c328da10|a302f85c] (10+21/82) Accurately ripped
08 [d10e7618|78fc108a] (10+21/83) Accurately ripped
09 [9e5c76e1|35e631f4] (10+21/83) Accurately ripped
10 [935dea7a|3856f635] (09+21/79) Accurately ripped
Offsetted by -667:
01 [e1092f39] (04/82) Accurately ripped
02 [52dd1919] (04/83) Accurately ripped
03 [4f029419] (04/82) Accurately ripped
04 [48f40576] (04/82) Accurately ripped
05 [33dd86f5] (04/83) Accurately ripped
06 [23fd59bc] (04/83) Accurately ripped
07 [245ba13a] (04/82) Accurately ripped
08 [f20ec6bb] (04/83) Accurately ripped
09 [6c602d0c] (04/83) Accurately ripped
10 [3b42bad8] (04/79) Accurately ripped
Offsetted by 667:
01 [e8cd6b9c] (13/82) Accurately ripped
02 [dd20f6e7] (13/83) Accurately ripped
03 [614080f5] (13/82) Accurately ripped
04 [4634a3ca] (13/82) Accurately ripped
05 [b314f877] (13/83) Accurately ripped
06 [975c0eb8] (13/83) Accurately ripped
07 [61f612e6] (13/82) Accurately ripped
08 [b00e2575] (13/83) Accurately ripped
09 [d058c0b6] (13/83) Accurately ripped
10 [eb791a1c] (11/79) Accurately ripped
Offsetted by -679:
01 [b96f2baf] (00/82) No match (V2 was not tested)
02 [932d2d5d] (00/83) No match (V2 was not tested)
03 [32228e21] (00/82) No match (V2 was not tested)
04 [77820142] (00/82) No match (V2 was not tested)
05 [27fce69d] (00/83) No match (V2 was not tested)
06 [92419584] (00/83) No match (V2 was not tested)
07 [cbe966a2] (00/82) No match (V2 was not tested)
08 [5a4795e7] (00/83) No match (V2 was not tested)
09 [590db958] (00/83) No match (V2 was not tested)
10 [77da3a90] (00/79) No match (V2 was not tested)
Offsetted by 661:
01 [55004a81] (00/82) No match (V2 was not tested)
02 [9c9f0109] (00/83) No match (V2 was not tested)
03 [b37a7df9] (00/82) No match (V2 was not tested)
04 [987da0a8] (00/82) No match (V2 was not tested)
05 [9006a953] (00/83) No match (V2 was not tested)
06 [ce7e2c9c] (00/83) No match (V2 was not tested)
07 [b5bcf59a] (00/82) No match (V2 was not tested)
08 [e42a8d0b] (00/83) No match (V2 was not tested)
09 [c6af86dc] (00/83) No match (V2 was not tested)
10 [09c4d9f8] (00/79) No match (V2 was not tested)

Track Peak [ CRC32 ] [W/O NULL]
– 96,5 [33AF1532] [CC5C4DD1]
01 85,3 [AA50EA6B] [45FF80F3]
02 95,6 [A7F6F379] [F60916E6]
03 93,0 [12E387D1] [1604FC43]
04 80,8 [252DE849] [A73C0573]
05 88,0 [E3AF5F74] [71105DDC]
06 93,4 [CAFF5E55] [6FA61A0C]
07 92,8 [EC2448EC] [BBC23204]
08 70,9 [9A3B3E02] [AEDA8AD5]
09 93,9 [48FBAE0C] [3901EDEC]
10 96,5 [D8DAACAD] [A9C837D0]

Thanks to the original releaser

See also: