Subcategories

Tomer Bar - Memories (2007)

Posted By: jclane
Tomer Bar - Memories (2007)

Tomer Bar - Memories (2007)
EAC Rip | FLAC Tracks + Cue + Log | 270 MB | Complete Scans, 300 dpi PNG | 41.6 MB
MP3 CBR @320 kbps (LAME 3.98) | Joint Stereo | 103 MB
Label: Hatav Hashmini | Catalog#: 7290011118341 | Israel | Genre: Modern Jazz | RAR 5% Recovery

Born in 1994, Tomer Bar has already published 3 albums as a jazz composer, pianist, and singer. His first album, "Memories" (2007) with bassist Yorai Oron and drummer Eitan Itzkovitz, two of the most busy musicians in israel, interduced Tomer, with 7 original "straight ahead" jazz compositions. "Reflections" (2009), his second album, (Aviv Cohen - Drums, Zur Ben Ze'ev - Bass, and other guests) featured Tomer as a fusion - jazz composer and pianist, with a musical production (by Atcha Bar) influenced by Pat metheny. His third album, "Ani Shafan Blues", interduced Tomer as a jazz - pop singer/songwriter.

Throughout the work on those projects and between, Tomer has performed as a leader on "Tel-Aviv Jazz Festival" (2009), "Givataim Festijazz" (2011), twice on "Israel Festival" (2007, 2010), and played with top israeli musicians as Daniel Zamir, Gilad Abro, Assaf Hakimi, Yaki Levi, Daniel Salomon, Mika Karni and More…

Track Listing

1. Memories - 07:04
2. Teenager part 1 - 04:08
3. Rainy Night - 07:52
4. Teenager part 2 - 05:17
5. Oleo - 04:34
6. Friendship - 04:17
7. Weird Family - 07:02
8. Sad Love - 02:28

Tomer Bar - Memories (2007)


Exact Audio Copy V0.99 prebeta 5 from 4. May 2009

EAC extraction logfile from 11. March 2011, 9:40

Tomer Bar / Memories

Used drive : HL-DT-STDVDRAM GSA-T50N Adapter: 1 ID: 0

Read mode : Secure
Utilize accurate stream : Yes
Defeat audio cache : Yes
Make use of C2 pointers : No

Read offset correction : 667
Overread into Lead-In and Lead-Out : No
Fill up missing offset samples with silence : Yes
Delete leading and trailing silent blocks : No
Null samples used in CRC calculations : Yes
Used interface : Native Win32 interface for Win NT & 2000
Gap handling : Appended to previous track

Used output format : User Defined Encoder
Selected bitrate : 1024 kBit/s
Quality : High
Add ID3 tag : No
Command line compressor : C:\Program Files\Exact Audio Copy\Flac\flac.exe
Additional command line options : -8 -V -T "ARTIST=%a" -T "TITLE=%t" -T "ALBUM=%g" -T "DATE=%y" -T "TRACKNUMBER=%n" -T "GENRE=%m" -T "COMMENT=EAC FLAC -8" %s


TOC of the extracted CD

Track | Start | Length | Start sector | End sector
––––––––––––––––––––––––––––-
1 | 0:00.00 | 7:04.42 | 0 | 31841
2 | 7:04.42 | 4:08.03 | 31842 | 50444
3 | 11:12.45 | 7:52.39 | 50445 | 85883
4 | 19:05.09 | 5:17.49 | 85884 | 109707
5 | 24:22.58 | 4:34.46 | 109708 | 130303
6 | 28:57.29 | 4:17.17 | 130304 | 149595
7 | 33:14.46 | 7:02.68 | 149596 | 181313
8 | 40:17.39 | 2:28.04 | 181314 | 192417


Track 1

Filename C:\Musicgate's rips\Tomer Bar - Memories - 2000\01 - Memories.wav

Pre-gap length 0:00:02.00

Peak level 92.2 %
Track quality 100.0 %
Test CRC B06796AB
Copy CRC B06796AB
Track not present in AccurateRip database
Copy OK

Track 2

Filename C:\Musicgate's rips\Tomer Bar - Memories - 2000\02 - Teenager part 1.wav

Peak level 92.2 %
Track quality 99.9 %
Test CRC 245927B3
Copy CRC 245927B3
Track not present in AccurateRip database
Copy OK

Track 3

Filename C:\Musicgate's rips\Tomer Bar - Memories - 2000\03 - Rainy Night.wav

Pre-gap length 0:00:00.22

Peak level 92.2 %
Track quality 99.9 %
Test CRC 1F41B6DA
Copy CRC 1F41B6DA
Track not present in AccurateRip database
Copy OK

Track 4

Filename C:\Musicgate's rips\Tomer Bar - Memories - 2000\04 - Teenager part 2.wav

Pre-gap length 0:00:01.51

Peak level 99.9 %
Track quality 100.0 %
Test CRC F0AE968E
Copy CRC F0AE968E
Track not present in AccurateRip database
Copy OK

Track 5

Filename C:\Musicgate's rips\Tomer Bar - Memories - 2000\05 - Oleo.wav

Pre-gap length 0:00:02.00

Peak level 92.2 %
Track quality 99.9 %
Test CRC 5C94B6CE
Copy CRC 5C94B6CE
Track not present in AccurateRip database
Copy OK

Track 6

Filename C:\Musicgate's rips\Tomer Bar - Memories - 2000\06 - Friendship.wav

Pre-gap length 0:00:01.42

Peak level 92.2 %
Track quality 100.0 %
Test CRC 63E5F1AF
Copy CRC 63E5F1AF
Track not present in AccurateRip database
Copy OK

Track 7

Filename C:\Musicgate's rips\Tomer Bar - Memories - 2000\07 - Weird Family.wav

Pre-gap length 0:00:02.00

Peak level 100.0 %
Track quality 100.0 %
Test CRC EDA5754E
Copy CRC EDA5754E
Track not present in AccurateRip database
Copy OK

Track 8

Filename C:\Musicgate's rips\Tomer Bar - Memories - 2000\08 - Sad Love.wav

Pre-gap length 0:00:02.00

Peak level 92.2 %
Track quality 100.0 %
Test CRC 2324F25D
Copy CRC 2324F25D
Track not present in AccurateRip database
Copy OK


None of the tracks are present in the AccurateRip database

No errors occurred

End of status report


[CUETools log; Date: 1/14/2012 2:02:54 PM; Version: 2.1.2a]
[CTDB TOCID: avYR5qdbzsaAG49j171ResoMxaU-] disk not present in database.
[AccurateRip ID: 000e36b7-005d5bde-780a0508] found.
Track [ CRC ] Status
01 [34928112] (1/1) Accurately ripped
02 [27348d8f] (1/1) Accurately ripped
03 [2842afa9] (1/1) Accurately ripped
04 [0a8cf255] (1/1) Accurately ripped
05 [f71e9861] (1/1) Accurately ripped
06 [28d09da5] (1/1) Accurately ripped
07 [d0287198] (1/1) Accurately ripped
08 [081b3fa1] (1/1) Accurately ripped

Track Peak [ CRC32 ] [W/O NULL] [ LOG ]
– 100.0 [0D8A97CF] [B9740B3E]
01 92.2 [B06796AB] [8616D0BC] CRC32
02 92.2 [245927B3] [A8C2E308] CRC32
03 92.2 [1F41B6DA] [A1966F38] CRC32
04 99.9 [F0AE968E] [8973EF46] CRC32
05 92.2 [5C94B6CE] [77147061] CRC32
06 92.2 [63E5F1AF] [93385856] CRC32
07 100.0 [EDA5754E] [C54B13B8] CRC32
08 92.2 [2324F25D] [85E65D50] CRC32


–––––––––––-

DON'T MODIFY THIS FILE

–––––––––––-

PERFORMER: auCDtect Task Manager, ver. 1.5.1RC6 build 1.5.1.7
Copyright © 2008-2010 y-soft. All rights reserved
http://y-soft.org

ANALYZER: auCDtect: CD records authenticity detector, version 0.8.2
Copyright © 2004 Oleg Berngardt. All rights reserved.
Copyright © 2004 Alexander Djourik. All rights reserved.


FILE: 07 - Weird Family.flac
Size: 48633831 Hash: 9006590A0301853C01BD9DCCD47F861C Accuracy: -m0
Conclusion: CDDA 100%
Signature: E52A42C83C502BE26EE7C08E23B32EEF1BE326E2
FILE: 06 - Friendship.flac
Size: 25957344 Hash: C174ED5B5F408E222E515CF2B862D6BB Accuracy: -m0
Conclusion: CDDA 100%
Signature: E041F962182F9E99844D0B5E3B51E6AF734C4DFC
FILE: 05 - Oleo.flac
Size: 29605756 Hash: B6342EB7FAB83175A653CEE1284E4EB2 Accuracy: -m0
Conclusion: CDDA 100%
Signature: 611DF6690DA4ED5FD3E65FF3EFB0E221667E6D18
FILE: 04 - Teenager part 2.flac
Size: 33947870 Hash: D9577DFE730DF5B104F829D9CBF66656 Accuracy: -m0
Conclusion: CDDA 100%
Signature: DDCF058EDD7C27EDF99E6E7D23CEF82E60215EA8
FILE: 03 - Rainy Night.flac
Size: 48003829 Hash: DFA7867C5C949158A58F8F737CE86AD5 Accuracy: -m0
Conclusion: CDDA 100%
Signature: 79B69CC19D11CE9CD5CFCA850F927A929127A417
FILE: 02 - Teenager part 1.flac
Size: 26689755 Hash: 4B6033A8ED615103523573529C7BC354 Accuracy: -m0
Conclusion: CDDA 100%
Signature: 5D8ABFE7C23D29580A31C1F22F4C74CB6BCBB0EB
FILE: 01 - Memories.flac
Size: 42315890 Hash: 112CD7B7BA5DA46D09D50721652DE599 Accuracy: -m0
Conclusion: CDDA 100%
Signature: DFBC84CB9FA43B59465779D9487B462C65F88B8C
FILE: 08 - Sad Love.flac
Size: 13839107 Hash: 6CE6414CE7F3DBECFA3AD3410DFEE663 Accuracy: -m0
Conclusion: CDDA 100%
Signature: 48A9D4B6F32402FA301A7631E24A293496523B1A


Personnel:

• Tomer Bar: Piano
• Yoray Oron: Bass
• Eitan Itskovits: Drums
• Yaron Mohar: Alt Saxophone, Flute
• Atcha Bar: Guitar

Released Date: 2007
Format: CD, Album
Length: 42:45
Producer: Atcha Bar


––––––––––––––––––––––––––––––––––––––––


CD Rip by Musicgate

The files are interchangeable!

No Mirrors Please!!!


Download