Subcategories

Tomita - Holst. The Planets (1976) [Original Issue]

Posted By: technick
Tomita - Holst. The Planets (1976)  [Original Issue]

Tomita - Holst. The Planets (1976)
[Original Issue]

EAC: ape (image) + cue + log | RAR, 3 %, 248,06 MB
mp3, 320 kbps | RAR, 3 %, 122,67 MB | Full Scans, 300/600 dpi | RAR, 3 %, 14,31/57,38 MB
Label: RCA Records | Cat №: RCD1-1919 | (Uploaded + DepositFiles)

Maybe Tomita's most unified and exciting album, "The Planets" was taken out of market for a few years by court order from Gustav Holst's relatives. They claimed that Tomita had manhandled their father's great composition, and the record company withdrew some 30,000 records from the stores.
Exact Audio Copy V1.0 beta 1 from 15. November 2010

EAC extraction logfile from 9. February 2013, 23:58

Isao Tomita / Holst - The Planets

Used drive : TEAC CD-W552E Adapter: 1 ID: 1

Read mode : Secure
Utilize accurate stream : Yes
Defeat audio cache : Yes
Make use of C2 pointers : No

Read offset correction : 6
Overread into Lead-In and Lead-Out : No
Fill up missing offset samples with silence : Yes
Delete leading and trailing silent blocks : No
Null samples used in CRC calculations : No
Used interface : Installed external ASPI interface

Used output format : Internal WAV Routines
Sample format : 44.100 Hz; 16 Bit; Stereo


TOC of the extracted CD

Track | Start | Length | Start sector | End sector
––––––––––––––––––––––––––––-
1 | 0:00.00 | 10:58.43 | 0 | 49392
2 | 10:58.43 | 9:20.67 | 49393 | 91459
3 | 20:19.35 | 4:37.53 | 91460 | 112287
4 | 24:57.13 | 9:22.20 | 112288 | 154457
5 | 34:19.33 | 8:41.17 | 154458 | 193549
6 | 43:00.50 | 2:14.38 | 193550 | 203637
7 | 45:15.13 | 6:49.62 | 203638 | 234374


Range status and errors

Selected range

Filename D:\Upload\Tomita - 1976 - Holst. The Planets (RCA Records, RCD1-1919_Upload\Isao Tomita - Holst - The Planets.wav

Peak level 94.0 %
Extraction speed 0.3 X
Range quality 100.0 %
Test CRC 18EAAFD7
Copy CRC 18EAAFD7
Copy OK

No errors occurred


AccurateRip summary

Track 1 accurately ripped (confidence 4) [5EEA6103]
Track 2 accurately ripped (confidence 4) [D24A4A99]
Track 3 accurately ripped (confidence 4) [6360577E]
Track 4 accurately ripped (confidence 4) [C8CAE93E]
Track 5 accurately ripped (confidence 4) [97156906]
Track 6 accurately ripped (confidence 4) [8CB1EDC4]
Track 7 accurately ripped (confidence 3) [FE59AE85]

All tracks accurately ripped

End of status report

==== Log checksum ED2B547CFEFBCFA2E7640CDC775A6E2B4DB55075DB3C5D3870F844BB4AEC9A0C ====

Tracklist:
01. Mars: The Bringer of War [10:58]
02. Venus: The Bringer of Peace [09:20]
03. Mercury: The Winged Messenger [04:37]
04. Jupiter: The Bringer of Jollity [09:22]
05. Saturn: The Bringer of Old Age [08:41]
06. Uranus: The Magician [02:14]
07. Neptune: The Mystic [06:49]
–––––––––––––
Total time [52:07]
Tomita - Holst. The Planets (1976)  [Original Issue]
Tomita - Holst. The Planets (1976)  [Original Issue]

No mirrors, please!
Welcome to My Blog!